osu file format v14

[General]
AudioFilename: kunoichi.mp3
AudioLeadIn: 0
PreviewTime: 57830
Countdown: 0
SampleSet: Normal
StackLeniency: 0.7
Mode: 1
LetterboxInBreaks: 0
WidescreenStoryboard: 0

[Editor]
DistanceSpacing: 1.3
BeatDivisor: 2
GridSize: 8
TimelineZoom: 1.5

[Metadata]
Title:Kunoichi demo Koi ga Shitai
TitleUnicode:クノイチでも恋がしたい
Artist:yuikonnu & ayaponzu*
ArtistUnicode:ゆいこんぬ&あやぽんず*
Creator:Flying Pan
Version:Muzukashii
Source:
Tags:tasuke912 nico nico douga Vocaloid Hatsune Miku Kagamine Rin utaite MikitoP Saine TomodachiboshuuP Suzumu nanananananananananananananana
BeatmapID:738569
BeatmapSetID:333775

[Difficulty]
HPDrainRate:5
CircleSize:5
OverallDifficulty:5
ApproachRate:5
SliderMultiplier:1.4
SliderTickRate:1

[Events]
//Background and Video events
0,0,"kunoichi_demo_koi_ga_shitai_by_vani5262-d6g5x06.jpg",0,65
//Break Periods
//Storyboard Layer 0 (Background)
//Storyboard Layer 1 (Fail)
//Storyboard Layer 2 (Pass)
//Storyboard Layer 3 (Foreground)
//Storyboard Sound Samples

[TimingPoints]
1399,324.324324324324,4,1,0,80,1,0
23453,324.324324324324,4,1,0,80,1,0
44858,324.324324324324,4,1,0,80,1,0
57830,324.324324324324,4,1,0,80,1,0
57830,-100,4,1,0,80,0,1
78586,-100,4,1,0,80,0,0
90262,324.324324324324,4,1,0,80,1,0
111668,324.324324324324,4,1,0,80,1,0
124640,324.324324324324,4,1,0,80,1,0
124640,-100,4,1,0,80,0,1
146369,-100,4,1,0,80,0,0
146694,324.324324324324,4,1,0,80,1,0
206369,-100,4,1,0,80,0,1
231018,324.324324324324,4,1,0,80,1,0
231019,-100,4,1,0,80,0,0

[HitObjects]
256,192,1399,5,0,0:0:0:0:
256,192,1723,1,8,0:0:0:0:
256,192,2047,1,8,0:0:0:0:
256,192,2534,1,8,0:0:0:0:
256,192,2858,1,0,0:0:0:0:
256,192,3020,1,8,0:0:0:0:
256,192,3344,1,8,0:0:0:0:
256,184,3507,1,8,0:0:0:0:
256,184,3669,1,8,0:0:0:0:
256,192,3993,1,0,0:0:0:0:
256,184,4317,1,8,0:0:0:0:
256,184,4642,1,8,0:0:0:0:
256,184,5128,1,8,0:0:0:0:
256,184,5453,1,0,0:0:0:0:
256,184,5615,1,8,0:0:0:0:
264,200,5939,1,8,0:0:0:0:
264,200,6101,1,8,0:0:0:0:
264,200,6263,1,8,0:0:0:0:
264,200,6426,1,8,0:0:0:0:
240,176,6588,1,4,0:0:0:0:
248,192,6912,1,0,0:0:0:0:
264,192,7236,1,0,0:0:0:0:
248,192,7561,1,0,0:0:0:0:
264,192,7885,1,0,0:0:0:0:
248,192,8209,1,0,0:0:0:0:
248,192,8534,1,0,0:0:0:0:
144,144,8858,1,0,0:0:0:0:
264,192,9182,1,4,0:0:0:0:
264,192,9507,1,0,0:0:0:0:
264,192,9831,1,0,0:0:0:0:
256,216,10155,1,0,0:0:0:0:
256,192,10317,5,8,0:0:0:0:
256,192,10642,1,8,0:0:0:0:
256,192,10804,1,8,0:0:0:0:
296,112,10966,1,8,0:0:0:0:
296,112,11128,1,8,0:0:0:0:
256,192,11453,1,8,0:0:0:0:
256,200,11777,1,4,0:0:0:0:
256,216,12426,1,0,0:0:0:0:
256,216,12750,1,8,0:0:0:0:
256,216,12912,1,0,0:0:0:0:
256,216,13236,1,0,0:0:0:0:
256,216,13561,1,0,0:0:0:0:
248,224,13723,1,8,0:0:0:0:
248,224,13885,1,0,0:0:0:0:
248,208,14047,1,8,0:0:0:0:
248,208,14209,1,8,0:0:0:0:
248,208,14371,1,4,0:0:0:0:
248,208,15020,1,0,0:0:0:0:
248,208,15344,1,8,0:0:0:0:
248,208,15507,1,0,0:0:0:0:
256,200,15669,1,8,0:0:0:0:
248,176,15993,1,8,0:0:0:0:
248,176,16155,5,8,0:0:0:0:
256,176,16317,1,0,0:0:0:0:
256,176,16642,1,8,0:0:0:0:
240,168,16966,1,0,0:0:0:0:
240,168,17615,1,0,0:0:0:0:
240,168,17939,1,8,0:0:0:0:
240,168,18101,1,0,0:0:0:0:
240,168,18426,1,8,0:0:0:0:
240,168,18750,1,8,0:0:0:0:
240,168,18912,1,8,0:0:0:0:
240,168,19074,1,0,0:0:0:0:
240,168,19236,1,0,0:0:0:0:
240,168,19398,1,8,0:0:0:0:
240,168,19561,1,4,0:0:0:0:
240,168,20209,1,0,0:0:0:0:
240,168,20534,1,8,0:0:0:0:
240,168,20696,1,0,0:0:0:0:
240,168,20858,1,8,0:0:0:0:
128,168,21182,1,8,0:0:0:0:
240,168,21344,1,0,0:0:0:0:
256,184,21507,1,0,0:0:0:0:
240,168,21831,1,8,0:0:0:0:
240,168,22155,1,4,0:0:0:0:
256,168,23453,5,4,0:0:0:0:
256,176,24101,1,0,0:0:0:0:
240,144,24426,1,8,0:0:0:0:
248,144,24588,1,0,0:0:0:0:
240,144,24912,1,0,0:0:0:0:
240,144,25074,1,8,0:0:0:0:
240,144,25398,1,0,0:0:0:0:
240,144,25723,1,8,0:0:0:0:
232,152,26047,1,0,0:0:0:0:
224,144,26696,1,0,0:0:0:0:
216,128,27020,1,8,0:0:0:0:
224,160,27182,1,0,0:0:0:0:
248,176,27344,1,0,0:0:0:0:
248,176,27669,1,8,0:0:0:0:
248,176,27993,1,8,0:0:0:0:
216,144,28317,1,0,0:0:0:0:
232,160,28480,1,8,0:0:0:0:
216,152,28642,1,0,0:0:0:0:
232,168,29290,1,0,0:0:0:0:
232,168,29615,1,8,0:0:0:0:
232,168,29777,1,0,0:0:0:0:
232,168,30101,5,0,0:0:0:0:
232,168,30263,1,8,0:0:0:0:
232,168,30588,1,0,0:0:0:0:
232,168,30912,1,8,0:0:0:0:
232,168,31236,1,0,0:0:0:0:
240,152,31723,1,0,0:0:0:0:
208,144,32047,1,0,0:0:0:0:
216,160,32209,1,8,0:0:0:0:
248,176,32371,5,0,0:0:0:0:
192,184,32534,5,0,0:0:0:0:
104,144,32858,1,8,0:0:0:0:
312,224,33020,5,0,0:0:0:0:
248,176,33182,1,8,0:0:0:0:
248,176,33507,1,8,0:0:0:0:
256,168,33831,5,4,0:0:0:0:
256,168,34480,1,0,0:0:0:0:
256,168,34804,1,8,0:0:0:0:
272,160,34966,1,0,0:0:0:0:
256,144,35290,1,0,0:0:0:0:
256,168,35453,1,8,0:0:0:0:
144,208,35615,1,0,0:0:0:0:
256,168,35777,1,0,0:0:0:0:
256,168,36101,1,8,0:0:0:0:
256,168,36426,1,0,0:0:0:0:
256,168,37074,1,0,0:0:0:0:
256,160,37398,1,8,0:0:0:0:
88,176,37561,1,0,0:0:0:0:
256,160,37723,1,8,0:0:0:0:
256,160,37885,1,0,0:0:0:0:
216,120,38209,1,0,0:0:0:0:
208,184,38534,1,0,0:0:0:0:
224,176,38696,1,8,0:0:0:0:
288,192,38858,1,8,0:0:0:0:
256,160,39020,1,0,0:0:0:0:
272,160,39669,1,0,0:0:0:0:
272,160,39993,1,8,0:0:0:0:
272,160,40155,1,0,0:0:0:0:
280,160,40480,1,0,0:0:0:0:
280,160,40642,1,8,0:0:0:0:
280,160,40966,1,0,0:0:0:0:
272,160,41290,1,8,0:0:0:0:
256,152,41615,1,0,0:0:0:0:
272,144,42101,1,0,0:0:0:0:
248,144,42426,1,0,0:0:0:0:
248,144,42588,1,8,0:0:0:0:
256,152,42750,1,4,0:0:0:0:
248,144,43074,1,0,0:0:0:0:
248,144,43236,1,8,0:0:0:0:
248,144,43561,1,0,0:0:0:0:
248,144,43723,1,0,0:0:0:0:
248,144,43885,1,8,0:0:0:0:
216,160,44209,1,8,0:0:0:0:
272,160,44858,1,4,0:0:0:0:
272,160,45506,1,8,0:0:0:0:
240,112,45830,5,8,0:0:0:0:
240,112,45993,1,0,0:0:0:0:
240,112,46317,1,0,0:0:0:0:
240,112,46641,1,0,0:0:0:0:
240,112,46803,1,8,0:0:0:0:
240,112,47128,1,8,0:0:0:0:
240,112,47452,1,0,0:0:0:0:
240,112,48101,1,8,0:0:0:0:
240,112,48425,1,8,0:0:0:0:
240,112,48587,1,0,0:0:0:0:
240,112,48912,1,8,0:0:0:0:
240,112,49236,1,0,0:0:0:0:
240,112,49398,1,8,0:0:0:0:
240,112,49722,1,8,0:0:0:0:
216,184,50047,1,4,0:0:0:0:
168,192,50695,1,8,0:0:0:0:
168,192,51020,1,8,0:0:0:0:
168,192,51182,1,0,0:0:0:0:
168,192,51506,1,0,0:0:0:0:
168,192,51830,1,0,0:0:0:0:
168,192,51993,1,8,0:0:0:0:
216,184,52317,1,0,0:0:0:0:
16,144,52641,5,12,0:0:0:0:
16,144,53290,1,12,0:0:0:0:
240,160,53939,1,8,0:0:0:0:
240,160,54263,1,8,0:0:0:0:
240,160,54587,1,8,0:0:0:0:
184,176,54749,1,0,0:0:0:0:
240,160,54912,1,0,0:0:0:0:
240,160,55236,1,12,0:0:0:0:
240,160,55560,1,0,0:0:0:0:
240,160,55722,1,8,0:0:0:0:
240,160,55885,1,0,0:0:0:0:
240,160,56047,1,8,0:0:0:0:
240,160,56209,1,0,0:0:0:0:
240,160,56371,1,8,0:0:0:0:
256,192,56533,12,0,57506,0:0:0:0:
248,200,57830,5,12,0:0:0:0:
216,176,58155,1,8,0:0:0:0:
216,176,58317,1,8,0:0:0:0:
216,176,58479,1,0,0:0:0:0:
216,176,58803,1,8,0:0:0:0:
216,176,58966,1,0,0:0:0:0:
216,192,59128,1,8,0:0:0:0:
216,192,59290,1,0,0:0:0:0:
216,192,59452,1,8,0:0:0:0:
216,192,59614,1,8,0:0:0:0:
216,192,59776,1,0,0:0:0:0:
216,192,60101,5,0,0:0:0:0:
216,192,60425,1,8,0:0:0:0:
216,192,60749,1,8,0:0:0:0:
216,192,60912,1,0,0:0:0:0:
216,192,61074,1,8,0:0:0:0:
216,192,61398,1,0,0:0:0:0:
216,176,61560,1,0,0:0:0:0:
216,192,61722,1,8,0:0:0:0:
216,192,62047,1,0,0:0:0:0:
216,192,62371,1,8,0:0:0:0:
216,192,62532,1,8,0:0:0:0:
216,192,62695,1,0,0:0:0:0:
216,192,62857,1,0,0:0:0:0:
216,192,63020,1,8,0:0:0:0:
216,192,63344,1,8,0:0:0:0:
216,192,63506,1,8,0:0:0:0:
216,192,63668,1,0,0:0:0:0:
184,184,63993,1,0,0:0:0:0:
176,176,64155,1,8,0:0:0:0:
184,184,64317,1,0,0:0:0:0:
184,184,64479,1,0,0:0:0:0:
184,184,64641,1,8,0:0:0:0:
184,184,64803,1,8,0:0:0:0:
184,184,64966,1,0,0:0:0:0:
184,184,65290,1,0,0:0:0:0:
184,184,65614,1,8,0:0:0:0:
184,184,65939,1,8,0:0:0:0:
184,184,66101,1,0,0:0:0:0:
184,184,66263,1,8,0:0:0:0:
240,176,66587,1,8,0:0:0:0:
200,176,66749,1,8,0:0:0:0:
192,192,66912,1,8,0:0:0:0:
192,184,67236,1,0,0:0:0:0:
192,184,67560,1,8,0:0:0:0:
208,184,67722,1,8,0:0:0:0:
216,192,67803,1,8,0:0:0:0:
208,184,67885,1,8,0:0:0:0:
208,184,68047,1,0,0:0:0:0:
208,184,68209,1,12,0:0:0:0:
224,184,68533,1,8,0:0:0:0:
200,144,68695,1,0,0:0:0:0:
200,144,68857,1,8,0:0:0:0:
192,144,69182,1,8,0:0:0:0:
192,144,69344,1,0,0:0:0:0:
192,144,69506,1,8,0:0:0:0:
264,192,69668,1,8,0:0:0:0:
192,144,69830,1,0,0:0:0:0:
184,136,69993,1,8,0:0:0:0:
184,136,70155,1,0,0:0:0:0:
256,176,70317,1,0,0:0:0:0:
264,192,70479,1,8,0:0:0:0:
264,192,70803,1,0,0:0:0:0:
256,176,71128,1,8,0:0:0:0:
256,176,71290,1,0,0:0:0:0:
256,176,71452,1,8,0:0:0:0:
240,184,71776,1,0,0:0:0:0:
240,168,71939,1,0,0:0:0:0:
240,184,72101,1,8,0:0:0:0:
240,160,72425,1,8,0:0:0:0:
224,176,72749,1,0,0:0:0:0:
192,176,72911,1,0,0:0:0:0:
224,176,73073,1,8,0:0:0:0:
224,176,73236,1,8,0:0:0:0:
224,176,73398,1,0,0:0:0:0:
200,184,73722,1,8,0:0:0:0:
208,168,73885,1,8,0:0:0:0:
208,168,74047,1,0,0:0:0:0:
216,160,74371,1,8,0:0:0:0:
208,176,74533,1,0,0:0:0:0:
208,176,74694,1,0,0:0:0:0:
200,184,74857,1,8,0:0:0:0:
208,176,75020,1,0,0:0:0:0:
208,184,75182,1,8,0:0:0:0:
208,176,75344,1,8,0:0:0:0:
200,184,75668,1,0,0:0:0:0:
200,184,75993,1,4,0:0:0:0:
200,184,76316,1,8,0:0:0:0:
200,184,76479,1,0,0:0:0:0:
200,184,76641,1,12,0:0:0:0:
216,176,76965,1,0,0:0:0:0:
224,144,77128,1,0,0:0:0:0:
216,176,77290,1,12,0:0:0:0:
216,176,77614,1,12,0:0:0:0:
200,168,77939,1,12,0:0:0:0:
264,200,78586,1,4,0:0:0:0:
256,216,79236,1,0,0:0:0:0:
256,216,79560,1,8,0:0:0:0:
256,216,79722,1,0,0:0:0:0:
256,216,80047,1,0,0:0:0:0:
256,216,80371,1,0,0:0:0:0:
248,224,80533,1,8,0:0:0:0:
248,224,80695,1,0,0:0:0:0:
248,208,80857,1,8,0:0:0:0:
248,208,81020,1,8,0:0:0:0:
248,208,81182,1,4,0:0:0:0:
248,208,81830,1,0,0:0:0:0:
248,208,82155,1,8,0:0:0:0:
248,208,82317,1,0,0:0:0:0:
256,200,82478,1,8,0:0:0:0:
144,200,82802,1,8,0:0:0:0:
248,176,82966,5,8,0:0:0:0:
256,176,83128,1,0,0:0:0:0:
256,176,83452,1,8,0:0:0:0:
240,168,83776,1,0,0:0:0:0:
240,168,84425,1,0,0:0:0:0:
240,168,84749,1,8,0:0:0:0:
240,168,84912,1,0,0:0:0:0:
240,168,85236,1,8,0:0:0:0:
240,168,85560,1,8,0:0:0:0:
240,168,85722,1,8,0:0:0:0:
240,168,85885,1,0,0:0:0:0:
240,168,86047,1,0,0:0:0:0:
240,168,86209,1,8,0:0:0:0:
240,168,86371,1,4,0:0:0:0:
240,168,87020,1,0,0:0:0:0:
240,168,87344,1,8,0:0:0:0:
240,168,87506,1,0,0:0:0:0:
240,168,87667,1,8,0:0:0:0:
128,168,87992,1,8,0:0:0:0:
240,168,88155,1,0,0:0:0:0:
240,168,88316,1,0,0:0:0:0:
232,176,88641,1,8,0:0:0:0:
224,184,88966,1,0,0:0:0:0:
224,176,90261,1,0,0:0:0:0:
224,184,90910,1,0,0:0:0:0:
200,192,91396,1,0,0:0:0:0:
120,128,92207,1,0,0:0:0:0:
120,128,92531,1,8,0:0:0:0:
216,192,92855,1,0,0:0:0:0:
184,192,93504,1,0,0:0:0:0:
224,192,93991,1,0,0:0:0:0:
192,152,94802,1,0,0:0:0:0:
224,192,95126,1,8,0:0:0:0:
224,192,95450,1,0,0:0:0:0:
104,112,95775,1,0,0:0:0:0:
208,200,96099,1,0,0:0:0:0:
208,200,96585,1,0,0:0:0:0:
128,136,97072,1,0,0:0:0:0:
184,208,97396,1,8,0:0:0:0:
184,208,97720,1,8,0:0:0:0:
200,216,98045,1,0,0:0:0:0:
176,208,98126,1,0,0:0:0:0:
192,208,98207,1,0,0:0:0:0:
256,184,99991,1,8,0:0:0:0:
256,184,100315,1,8,0:0:0:0:
248,184,100639,1,4,0:0:0:0:
248,184,101288,1,0,0:0:0:0:
248,168,101612,1,8,0:0:0:0:
256,152,101774,1,0,0:0:0:0:
272,160,102099,1,0,0:0:0:0:
248,168,102261,1,8,0:0:0:0:
224,168,102585,1,0,0:0:0:0:
224,152,102910,1,8,0:0:0:0:
256,176,103234,1,0,0:0:0:0:
136,152,103883,1,0,0:0:0:0:
240,160,104207,1,8,0:0:0:0:
240,160,104369,1,0,0:0:0:0:
240,160,104693,1,0,0:0:0:0:
240,160,104855,5,8,0:0:0:0:
136,152,105180,1,0,0:0:0:0:
240,160,105342,1,0,0:0:0:0:
240,160,105504,1,12,0:0:0:0:
224,176,105828,5,4,0:0:0:0:
224,176,106477,1,0,0:0:0:0:
224,176,106801,1,8,0:0:0:0:
248,144,106964,5,0,0:0:0:0:
248,144,107288,1,0,0:0:0:0:
248,144,107450,1,8,0:0:0:0:
248,144,107774,1,0,0:0:0:0:
248,144,107937,1,0,0:0:0:0:
248,144,108099,1,8,0:0:0:0:
248,144,108423,1,0,0:0:0:0:
248,144,108910,1,0,0:0:0:0:
256,176,109234,5,0,0:0:0:0:
200,168,109396,1,8,0:0:0:0:
224,152,109558,5,4,0:0:0:0:
208,160,109883,1,0,0:0:0:0:
216,160,110045,1,8,0:0:0:0:
200,168,110207,1,0,0:0:0:0:
112,192,110289,1,0,0:0:0:0:
112,192,110370,1,0,0:0:0:0:
256,192,110531,1,0,0:0:0:0:
304,184,111018,1,8,0:0:0:0:
240,184,111666,1,4,0:0:0:0:
240,168,112153,5,0,0:0:0:0:
240,168,112315,1,8,0:0:0:0:
232,176,112639,1,8,0:0:0:0:
232,184,112803,1,0,0:0:0:0:
176,176,112965,1,0,0:0:0:0:
232,184,113288,1,0,0:0:0:0:
240,168,113612,1,8,0:0:0:0:
216,152,114261,1,0,0:0:0:0:
248,144,114749,5,0,0:0:0:0:
240,152,114910,1,8,0:0:0:0:
248,152,115235,1,0,0:0:0:0:
248,152,115396,1,8,0:0:0:0:
208,192,115559,1,0,0:0:0:0:
216,136,115883,1,0,0:0:0:0:
216,136,116207,1,8,0:0:0:0:
208,208,116857,1,4,0:0:0:0:
208,208,117342,1,0,0:0:0:0:
208,208,117504,1,8,0:0:0:0:
216,200,117830,1,8,0:0:0:0:
216,200,117991,1,0,0:0:0:0:
168,176,118154,1,0,0:0:0:0:
216,200,118477,1,0,0:0:0:0:
216,200,118803,1,8,0:0:0:0:
136,168,119450,1,4,0:0:0:0:
160,168,120099,1,4,0:0:0:0:
184,192,120749,1,8,0:0:0:0:
184,192,121072,1,8,0:0:0:0:
184,192,121396,1,0,0:0:0:0:
184,192,121722,1,0,0:0:0:0:
128,176,121884,1,0,0:0:0:0:
184,192,122045,1,12,0:0:0:0:
128,192,122369,1,0,0:0:0:0:
128,192,122531,1,8,0:0:0:0:
128,192,122695,1,0,0:0:0:0:
128,192,122857,1,8,0:0:0:0:
128,192,123018,1,0,0:0:0:0:
128,192,123180,1,8,0:0:0:0:
256,192,123342,12,0,124315,0:0:0:0:
256,192,124640,5,12,0:0:0:0:
216,176,124964,1,8,0:0:0:0:
216,176,125126,1,8,0:0:0:0:
216,176,125288,1,0,0:0:0:0:
216,176,125611,1,8,0:0:0:0:
216,176,125774,1,0,0:0:0:0:
216,192,125937,1,0,0:0:0:0:
216,192,126099,1,8,0:0:0:0:
216,192,126261,1,0,0:0:0:0:
216,192,126423,1,8,0:0:0:0:
216,192,126585,1,0,0:0:0:0:
216,192,126910,5,0,0:0:0:0:
216,192,127234,1,8,0:0:0:0:
216,192,127558,1,8,0:0:0:0:
216,192,127720,1,0,0:0:0:0:
216,192,127883,1,8,0:0:0:0:
216,192,128045,1,0,0:0:0:0:
216,192,128369,1,0,0:0:0:0:
216,192,128531,1,8,0:0:0:0:
216,192,128855,1,0,0:0:0:0:
208,176,129017,1,0,0:0:0:0:
216,192,129180,1,8,0:0:0:0:
216,192,129342,1,8,0:0:0:0:
216,192,129504,1,0,0:0:0:0:
216,192,129666,1,8,0:0:0:0:
216,192,129828,1,0,0:0:0:0:
216,192,130153,1,8,0:0:0:0:
216,192,130315,1,8,0:0:0:0:
216,192,130477,1,0,0:0:0:0:
184,184,130801,1,0,0:0:0:0:
184,184,130964,1,8,0:0:0:0:
184,184,131126,1,0,0:0:0:0:
184,184,131288,1,0,0:0:0:0:
184,184,131450,1,8,0:0:0:0:
184,184,131612,1,8,0:0:0:0:
184,184,131774,1,0,0:0:0:0:
184,184,132099,1,0,0:0:0:0:
184,184,132423,1,8,0:0:0:0:
184,184,132747,1,8,0:0:0:0:
184,184,132910,1,0,0:0:0:0:
184,184,133072,1,8,0:0:0:0:
240,176,133396,1,8,0:0:0:0:
184,176,133557,1,8,0:0:0:0:
192,192,133720,1,8,0:0:0:0:
192,184,134044,1,0,0:0:0:0:
192,184,134369,1,8,0:0:0:0:
232,192,134531,1,8,0:0:0:0:
216,192,134612,1,8,0:0:0:0:
240,200,134693,1,8,0:0:0:0:
216,192,134855,1,0,0:0:0:0:
232,208,135017,1,12,0:0:0:0:
224,184,135342,1,8,0:0:0:0:
200,144,135504,1,0,0:0:0:0:
200,144,135666,1,8,0:0:0:0:
192,144,135990,1,8,0:0:0:0:
192,144,136152,1,0,0:0:0:0:
192,144,136314,1,8,0:0:0:0:
192,144,136476,1,0,0:0:0:0:
192,144,136640,1,8,0:0:0:0:
248,192,136801,1,8,0:0:0:0:
184,136,136963,1,0,0:0:0:0:
264,192,137125,1,0,0:0:0:0:
264,192,137288,1,8,0:0:0:0:
264,192,137611,1,0,0:0:0:0:
256,176,137937,1,8,0:0:0:0:
256,176,138099,1,0,0:0:0:0:
256,176,138261,1,8,0:0:0:0:
240,184,138585,1,0,0:0:0:0:
240,168,138747,1,0,0:0:0:0:
240,184,138910,1,8,0:0:0:0:
240,160,139234,1,8,0:0:0:0:
224,176,139557,1,0,0:0:0:0:
216,176,139720,1,0,0:0:0:0:
224,176,139882,1,8,0:0:0:0:
208,152,140045,1,0,0:0:0:0:
224,176,140207,1,8,0:0:0:0:
208,168,140531,1,8,0:0:0:0:
208,168,140693,1,8,0:0:0:0:
208,168,140855,1,0,0:0:0:0:
208,168,141179,1,8,0:0:0:0:
208,176,141341,1,0,0:0:0:0:
168,144,141503,1,8,0:0:0:0:
208,176,141667,1,0,0:0:0:0:
208,176,141828,1,8,0:0:0:0:
208,184,141991,1,8,0:0:0:0:
208,176,142153,1,8,0:0:0:0:
224,176,142477,1,0,0:0:0:0:
224,176,142801,1,4,0:0:0:0:
224,176,143126,1,8,0:0:0:0:
224,176,143288,1,0,0:0:0:0:
224,176,143450,1,8,0:0:0:0:
232,176,143531,1,8,0:0:0:0:
224,184,143612,1,8,0:0:0:0:
224,192,143774,1,8,0:0:0:0:
224,192,143937,1,0,0:0:0:0:
216,176,144099,1,12,0:0:0:0:
216,176,144422,1,12,0:0:0:0:
200,168,144747,1,12,0:0:0:0:
272,176,145071,1,8,0:0:0:0:
272,176,145234,1,0,0:0:0:0:
272,176,145396,1,8,0:0:0:0:
256,176,146369,1,4,0:0:0:0:
272,184,146693,1,0,0:0:0:0:
256,136,147018,1,8,0:0:0:0:
256,136,147180,1,0,0:0:0:0:
256,136,147504,1,0,0:0:0:0:
256,136,147666,1,8,0:0:0:0:
264,144,147991,1,0,0:0:0:0:
264,144,148153,1,0,0:0:0:0:
264,144,148315,1,8,0:0:0:0:
264,152,148477,1,0,0:0:0:0:
264,144,148801,1,0,0:0:0:0:
264,144,148964,1,8,0:0:0:0:
272,160,149288,1,0,0:0:0:0:
264,144,149612,1,8,0:0:0:0:
256,160,149774,1,0,0:0:0:0:
264,144,149936,1,0,0:0:0:0:
256,160,150261,1,8,0:0:0:0:
248,184,150585,1,0,0:0:0:0:
264,144,150747,1,0,0:0:0:0:
248,184,150910,1,8,0:0:0:0:
208,160,151071,1,0,0:0:0:0:
248,184,151234,1,0,0:0:0:0:
248,184,151558,1,8,0:0:0:0:
240,184,151883,1,4,0:0:0:0:
240,184,152207,1,8,0:0:0:0:
240,184,152368,1,0,0:0:0:0:
240,184,152693,1,0,0:0:0:0:
240,184,152855,1,8,0:0:0:0:
240,184,153180,1,0,0:0:0:0:
240,184,153342,1,0,0:0:0:0:
240,184,153504,1,8,0:0:0:0:
240,184,153665,1,0,0:0:0:0:
240,184,153991,1,0,0:0:0:0:
240,184,154153,1,8,0:0:0:0:
240,184,154477,1,0,0:0:0:0:
256,192,154639,1,0,0:0:0:0:
256,192,154801,1,8,0:0:0:0:
256,192,155126,1,0,0:0:0:0:
256,192,155288,1,0,0:0:0:0:
256,192,155450,1,8,0:0:0:0:
280,192,155612,1,0,0:0:0:0:
248,208,155937,1,0,0:0:0:0:
248,208,156099,1,8,0:0:0:0:
200,184,156260,1,8,0:0:0:0:
248,208,156423,1,0,0:0:0:0:
224,160,156585,1,0,0:0:0:0:
264,192,156748,1,8,0:0:0:0:
256,192,156910,1,8,0:0:0:0:
264,200,157072,1,4,0:0:0:0:
256,208,157396,5,8,0:0:0:0:
232,208,157558,1,8,0:0:0:0:
208,200,157720,1,0,0:0:0:0:
216,200,157801,1,0,0:0:0:0:
208,200,157883,1,0,0:0:0:0:
208,200,158045,1,8,0:0:0:0:
210,171,158369,1,0,0:0:0:0:
208,200,158693,1,8,0:0:0:0:
208,200,158855,1,8,0:0:0:0:
263,241,159018,1,0,0:0:0:0:
256,216,159180,1,0,0:0:0:0:
192,168,159342,1,8,0:0:0:0:
136,160,159503,1,0,0:0:0:0:
243,199,159666,1,0,0:0:0:0:
256,208,159991,1,8,0:0:0:0:
256,208,160153,1,8,0:0:0:0:
248,216,160315,1,0,0:0:0:0:
248,216,160396,1,0,0:0:0:0:
248,216,160477,1,0,0:0:0:0:
256,208,160639,1,8,0:0:0:0:
232,216,160964,1,0,0:0:0:0:
256,208,161288,1,8,0:0:0:0:
232,216,161450,1,8,0:0:0:0:
232,216,161612,1,0,0:0:0:0:
232,216,161775,1,8,0:0:0:0:
256,208,161937,1,8,0:0:0:0:
248,216,162261,1,4,0:0:0:0:
232,216,162585,1,8,0:0:0:0:
232,208,162747,1,8,0:0:0:0:
232,208,162910,1,0,0:0:0:0:
216,192,162991,1,0,0:0:0:0:
208,200,163072,1,0,0:0:0:0:
232,208,163234,1,8,0:0:0:0:
240,192,163558,1,0,0:0:0:0:
240,192,163883,1,8,0:0:0:0:
240,192,164045,1,8,0:0:0:0:
240,192,164207,1,0,0:0:0:0:
240,192,164369,1,0,0:0:0:0:
240,192,164531,1,8,0:0:0:0:
240,192,164693,1,0,0:0:0:0:
246,207,164855,1,0,0:0:0:0:
246,207,165180,1,8,0:0:0:0:
246,207,165342,1,8,0:0:0:0:
256,217,165504,1,0,0:0:0:0:
256,217,165585,1,0,0:0:0:0:
256,217,165666,1,0,0:0:0:0:
256,217,165828,1,8,0:0:0:0:
128,80,166153,1,0,0:0:0:0:
253,192,166476,1,12,0:0:0:0:
256,184,167125,1,8,0:0:0:0:
168,152,167207,1,8,0:0:0:0:
253,192,167288,1,8,0:0:0:0:
253,191,167450,1,4,0:0:0:0:
224,176,167775,1,8,0:0:0:0:
256,184,167937,1,0,0:0:0:0:
256,184,168260,1,0,0:0:0:0:
200,168,168422,1,8,0:0:0:0:
256,184,168584,1,0,0:0:0:0:
256,184,168747,1,0,0:0:0:0:
248,192,169072,1,8,0:0:0:0:
248,192,169396,1,8,0:0:0:0:
248,192,169558,1,0,0:0:0:0:
248,192,169720,1,0,0:0:0:0:
248,192,169883,1,8,0:0:0:0:
240,200,170045,1,0,0:0:0:0:
240,200,170369,1,8,0:0:0:0:
240,200,170531,1,0,0:0:0:0:
240,192,170693,1,8,0:0:0:0:
232,176,171018,1,8,0:0:0:0:
248,192,171342,1,8,0:0:0:0:
232,192,171504,1,0,0:0:0:0:
232,192,171665,1,8,0:0:0:0:
232,192,171828,1,8,0:0:0:0:
232,192,171990,1,0,0:0:0:0:
232,192,172315,1,8,0:0:0:0:
248,200,172639,1,4,0:0:0:0:
152,168,172964,1,8,0:0:0:0:
232,192,173126,1,0,0:0:0:0:
232,192,173450,1,0,0:0:0:0:
208,144,173611,1,8,0:0:0:0:
232,192,173774,1,8,0:0:0:0:
232,192,173937,1,0,0:0:0:0:
200,200,174261,1,8,0:0:0:0:
216,200,174585,1,8,0:0:0:0:
216,200,174747,1,0,0:0:0:0:
216,200,174910,1,8,0:0:0:0:
216,200,175072,1,8,0:0:0:0:
240,184,175234,1,0,0:0:0:0:
240,184,175558,1,8,0:0:0:0:
192,176,175720,1,0,0:0:0:0:
192,184,175883,1,8,0:0:0:0:
192,184,176207,1,8,0:0:0:0:
208,168,176531,1,8,0:0:0:0:
208,168,176693,1,0,0:0:0:0:
208,168,176855,1,8,0:0:0:0:
208,168,177017,1,8,0:0:0:0:
208,168,177180,1,0,0:0:0:0:
208,168,177504,1,8,0:0:0:0:
208,168,177828,1,12,0:0:0:0:
208,168,178153,1,8,0:0:0:0:
216,200,178315,1,0,0:0:0:0:
216,200,178477,1,8,0:0:0:0:
216,200,178801,1,8,0:0:0:0:
216,200,178964,1,0,0:0:0:0:
216,200,179126,1,0,0:0:0:0:
224,184,179450,1,8,0:0:0:0:
216,192,179612,1,0,0:0:0:0:
216,192,179774,1,0,0:0:0:0:
216,192,179937,1,8,0:0:0:0:
216,192,180099,1,8,0:0:0:0:
216,192,180423,1,8,0:0:0:0:
216,192,180747,1,8,0:0:0:0:
208,208,180910,1,0,0:0:0:0:
208,208,181072,1,8,0:0:0:0:
208,208,181396,1,8,0:0:0:0:
208,208,181558,1,0,0:0:0:0:
208,208,181720,1,0,0:0:0:0:
208,200,182045,1,8,0:0:0:0:
208,200,182207,1,0,0:0:0:0:
208,200,182369,1,0,0:0:0:0:
224,184,182531,1,12,0:0:0:0:
224,192,182693,1,12,0:0:0:0:
216,192,183017,1,8,0:0:0:0:
208,184,183179,1,0,0:0:0:0:
216,192,183342,1,8,0:0:0:0:
216,192,183666,1,8,0:0:0:0:
208,184,183828,1,0,0:0:0:0:
216,192,183991,1,8,0:0:0:0:
216,192,184315,1,12,0:0:0:0:
216,192,184639,1,0,0:0:0:0:
216,192,184964,1,8,0:0:0:0:
216,192,185126,1,0,0:0:0:0:
224,192,185288,1,8,0:0:0:0:
488,344,185450,1,0,0:0:0:0:
488,344,185611,1,4,0:0:0:0:
472,360,186261,1,8,0:0:0:0:
112,296,186585,1,0,0:0:0:0:
232,176,186910,1,8,0:0:0:0:
320,72,187234,1,8,0:0:0:0:
320,72,187396,1,0,0:0:0:0:
320,72,187558,1,8,0:0:0:0:
320,72,187720,1,0,0:0:0:0:
320,72,187882,1,8,0:0:0:0:
320,72,188045,1,8,0:0:0:0:
320,72,188207,1,4,0:0:0:0:
256,192,188369,12,12,190153,0:0:0:0:
248,192,190477,5,8,0:0:0:0:
248,192,190801,1,8,0:0:0:0:
248,192,190964,1,0,0:0:0:0:
248,192,191126,1,8,0:0:0:0:
248,192,191450,1,8,0:0:0:0:
224,160,191612,1,0,0:0:0:0:
224,160,191774,1,8,0:0:0:0:
184,144,192099,1,8,0:0:0:0:
184,144,192423,1,8,0:0:0:0:
184,144,192747,1,8,0:0:0:0:
184,144,192910,1,0,0:0:0:0:
184,136,192991,1,0,0:0:0:0:
184,144,193072,1,0,0:0:0:0:
184,144,193234,1,0,0:0:0:0:
192,176,193395,1,12,0:0:0:0:
256,192,193558,12,0,198261,0:0:0:0:
184,184,198585,5,4,0:0:0:0:
168,192,198910,1,8,0:0:0:0:
248,192,199234,1,0,0:0:0:0:
264,184,199315,1,0,0:0:0:0:
248,192,199396,1,0,0:0:0:0:
248,192,199558,1,8,0:0:0:0:
224,184,199883,1,0,0:0:0:0:
224,184,200207,1,8,0:0:0:0:
240,184,200531,1,0,0:0:0:0:
240,160,200611,1,0,0:0:0:0:
240,176,200693,1,0,0:0:0:0:
240,176,200855,1,8,0:0:0:0:
200,176,201180,1,0,0:0:0:0:
200,176,201504,1,8,0:0:0:0:
200,176,201828,1,0,0:0:0:0:
240,168,201909,1,0,0:0:0:0:
200,176,201991,1,0,0:0:0:0:
200,176,202153,1,8,0:0:0:0:
200,176,202315,1,0,0:0:0:0:
264,184,202639,5,8,0:0:0:0:
264,184,202801,1,8,0:0:0:0:
264,184,202964,1,8,0:0:0:0:
200,120,203126,1,8,0:0:0:0:
104,200,203449,1,8,0:0:0:0:
256,192,203774,5,4,0:0:0:0:
232,192,204423,1,4,0:0:0:0:
272,200,205072,1,12,0:0:0:0:
272,200,205396,1,12,0:0:0:0:
272,200,205720,1,12,0:0:0:0:
272,200,206045,1,8,0:0:0:0:
272,200,206207,1,0,0:0:0:0:
264,208,206369,1,4,0:0:0:0:
232,208,206693,1,8,0:0:0:0:
232,208,206855,1,0,0:0:0:0:
232,208,207018,1,8,0:0:0:0:
232,208,207342,1,0,0:0:0:0:
232,208,207504,1,0,0:0:0:0:
232,208,207666,1,8,0:0:0:0:
232,208,207991,1,0,0:0:0:0:
232,208,208315,1,8,0:0:0:0:
232,208,208477,1,8,0:0:0:0:
232,208,208639,1,0,0:0:0:0:
232,208,208802,1,0,0:0:0:0:
232,208,208963,1,8,0:0:0:0:
208,208,209288,1,8,0:0:0:0:
208,208,209449,1,8,0:0:0:0:
208,208,209611,1,0,0:0:0:0:
208,208,209937,1,0,0:0:0:0:
208,208,210099,1,8,0:0:0:0:
208,208,210261,1,0,0:0:0:0:
208,208,210423,1,0,0:0:0:0:
208,208,210585,1,8,0:0:0:0:
208,208,210747,1,8,0:0:0:0:
208,208,210910,1,0,0:0:0:0:
208,208,211234,1,0,0:0:0:0:
208,208,211396,1,0,0:0:0:0:
208,208,211558,1,8,0:0:0:0:
208,208,211883,1,8,0:0:0:0:
208,208,212045,1,0,0:0:0:0:
208,208,212207,1,8,0:0:0:0:
208,208,212531,1,8,0:0:0:0:
208,208,212693,1,8,0:0:0:0:
208,208,212855,1,8,0:0:0:0:
208,208,213180,1,0,0:0:0:0:
208,208,213504,1,8,0:0:0:0:
200,216,213666,1,8,0:0:0:0:
240,192,213828,1,8,0:0:0:0:
192,184,213991,1,8,0:0:0:0:
208,192,214072,1,8,0:0:0:0:
208,192,214153,1,8,0:0:0:0:
208,192,214477,1,8,0:0:0:0:
216,200,214639,1,8,0:0:0:0:
216,200,214801,1,0,0:0:0:0:
216,200,215126,1,8,0:0:0:0:
184,208,215288,1,0,0:0:0:0:
216,200,215369,1,0,0:0:0:0:
184,208,215450,1,0,0:0:0:0:
216,200,215612,1,0,0:0:0:0:
216,200,215775,1,8,0:0:0:0:
216,200,216099,1,8,0:0:0:0:
216,200,216261,1,0,0:0:0:0:
216,200,216423,1,0,0:0:0:0:
216,200,216585,1,0,0:0:0:0:
216,200,216747,1,8,0:0:0:0:
304,168,217072,1,8,0:0:0:0:
304,168,217234,1,0,0:0:0:0:
304,168,217396,1,8,0:0:0:0:
160,168,217558,1,0,0:0:0:0:
264,224,217639,1,0,0:0:0:0:
304,168,217720,1,0,0:0:0:0:
304,168,217883,1,0,0:0:0:0:
304,168,218045,1,8,0:0:0:0:
248,160,218369,1,8,0:0:0:0:
152,176,218531,1,0,0:0:0:0:
248,160,218693,1,8,0:0:0:0:
216,152,218775,1,8,0:0:0:0:
200,184,218855,1,8,0:0:0:0:
248,160,219018,1,0,0:0:0:0:
192,168,219179,1,8,0:0:0:0:
200,176,219341,1,0,0:0:0:0:
216,184,219665,1,0,0:0:0:0:
216,184,219828,1,8,0:0:0:0:
216,184,219991,1,0,0:0:0:0:
256,160,220153,1,0,0:0:0:0:
200,192,220234,1,0,0:0:0:0:
224,184,220315,1,0,0:0:0:0:
224,184,220476,1,8,0:0:0:0:
224,184,220638,1,0,0:0:0:0:
296,160,220963,1,8,0:0:0:0:
208,168,221125,1,8,0:0:0:0:
296,160,221288,1,0,0:0:0:0:
208,168,221611,1,8,0:0:0:0:
224,160,221775,1,0,0:0:0:0:
216,176,221937,1,4,0:0:0:0:
216,176,222260,1,8,0:0:0:0:
216,176,222423,1,0,0:0:0:0:
216,176,222585,1,8,0:0:0:0:
224,176,222747,1,0,0:0:0:0:
280,200,222828,1,0,0:0:0:0:
280,200,222910,1,0,0:0:0:0:
280,200,223072,1,0,0:0:0:0:
280,200,223234,1,12,0:0:0:0:
272,192,223558,1,12,0:0:0:0:
272,192,223882,1,12,0:0:0:0:
216,216,224206,1,8,0:0:0:0:
216,216,224369,1,8,0:0:0:0:
216,216,224531,1,4,0:0:0:0:
216,216,224855,1,4,0:0:0:0:
216,216,225179,1,8,0:0:0:0:
232,208,225503,1,8,0:0:0:0:
256,200,225666,1,0,0:0:0:0:
256,200,225828,1,12,0:0:0:0:
288,200,226153,1,12,0:0:0:0:
288,200,226477,1,12,0:0:0:0:
288,200,226801,1,8,0:0:0:0:
288,200,226964,1,0,0:0:0:0:
288,200,227126,1,4,0:0:0:0:
288,200,227449,1,0,0:0:0:0:
288,200,227612,1,8,0:0:0:0:
288,200,227774,1,4,0:0:0:0:
288,200,228099,1,8,0:0:0:0:
288,200,228261,1,0,0:0:0:0:
288,200,228422,1,12,0:0:0:0:
240,192,229720,1,0,0:0:0:0:
128,184,229883,1,8,0:0:0:0:
160,208,230045,1,0,0:0:0:0:
184,216,230126,1,0,0:0:0:0:
184,216,230207,1,0,0:0:0:0:
240,184,230369,1,0,0:0:0:0:
240,184,230693,1,8,0:0:0:0:
240,184,231018,1,4,0:0:0:0:
256,216,231666,1,0,0:0:0:0:
256,216,231990,1,8,0:0:0:0:
256,216,232152,1,0,0:0:0:0:
256,216,232477,1,0,0:0:0:0:
256,216,232801,1,0,0:0:0:0:
248,224,232964,1,8,0:0:0:0:
248,224,233125,1,0,0:0:0:0:
248,208,233288,1,8,0:0:0:0:
248,208,233450,1,8,0:0:0:0:
248,208,233611,1,4,0:0:0:0:
248,208,234261,1,0,0:0:0:0:
248,208,234585,1,8,0:0:0:0:
248,208,234747,1,0,0:0:0:0:
256,200,234909,1,8,0:0:0:0:
152,160,235234,1,8,0:0:0:0:
248,176,235396,5,8,0:0:0:0:
256,176,235558,1,0,0:0:0:0:
256,176,235883,1,8,0:0:0:0:
240,168,236207,1,0,0:0:0:0:
240,168,236855,1,0,0:0:0:0:
240,168,237179,1,8,0:0:0:0:
240,168,237342,1,0,0:0:0:0:
240,168,237666,1,8,0:0:0:0:
240,168,237991,1,8,0:0:0:0:
240,168,238153,1,8,0:0:0:0:
240,168,238315,1,0,0:0:0:0:
240,168,238476,1,0,0:0:0:0:
240,168,238638,1,8,0:0:0:0:
240,168,238801,1,4,0:0:0:0:
240,168,239450,1,0,0:0:0:0:
240,168,239774,1,8,0:0:0:0:
240,168,239937,1,0,0:0:0:0:
240,168,240099,1,8,0:0:0:0:
128,176,240423,1,8,0:0:0:0:
240,168,240585,1,0,0:0:0:0:
256,184,240747,1,0,0:0:0:0:
240,168,241072,1,8,0:0:0:0:
240,168,241395,1,4,0:0:0:0:
0,168,242045,1,8,0:0:0:0:
0,168,242369,1,8,0:0:0:0:
184,160,242530,1,0,0:0:0:0:
216,160,242855,1,0,0:0:0:0:
240,192,243180,1,0,0:0:0:0:
240,184,243342,1,8,0:0:0:0:
240,192,243504,1,8,0:0:0:0:
240,192,243666,1,0,0:0:0:0:
240,192,243828,1,0,0:0:0:0:
248,192,243991,1,8,0:0:0:0:
256,192,244639,12,0,245774,0:0:0:0:
