osu file format v14

[General]
AudioFilename: audio.mp3
AudioLeadIn: 0
PreviewTime: 52017
Countdown: 0
SampleSet: Drum
StackLeniency: 0.7
Mode: 0
LetterboxInBreaks: 0
WidescreenStoryboard: 1

[Editor]
Bookmarks: 52570,82885,114464,142253,162464,183937,214253,226885
DistanceSpacing: 1.2
BeatDivisor: 4
GridSize: 32
TimelineZoom: 1.9

[Metadata]
Title:Kimi to Watashi no Hitorigoto
TitleUnicode:キミとワタシのヒトリゴト
Artist:yuikonnu & ayaponzu*
ArtistUnicode:ゆいこんぬ & あやぽんず*
Creator:captin1
Version:Collab Hard
Source:
Tags:last note chocolate pop rlc xlni raose ascendance shurelia harrharrqi japanese rock haqi j-rock j-pop pop* c89 comiket 89 T-杉下 t-sugi t-sugishita めいこ meiko pino
BeatmapID:3602841
BeatmapSetID:457435

[Difficulty]
HPDrainRate:4
CircleSize:3.8
OverallDifficulty:6.5
ApproachRate:8
SliderMultiplier:1.5
SliderTickRate:1

[Events]
//Background and Video events
0,0,"54156251_p0.jpg",0,0
//Break Periods
2,174032,175608
2,176558,178135
//Storyboard Layer 0 (Background)
//Storyboard Layer 1 (Fail)
//Storyboard Layer 2 (Pass)
//Storyboard Layer 3 (Foreground)
//Storyboard Layer 4 (Overlay)
//Storyboard Sound Samples

[TimingPoints]
781,315.789473684211,4,3,2,75,1,0
10886,-100,4,3,2,85,0,0
20991,-100,4,3,2,60,0,0
21307,-100,4,3,1,60,0,0
38990,-100,4,3,2,60,0,0
39938,-100,4,3,1,60,0,0
42149,-100,4,3,1,40,0,0
43728,-100,4,3,1,60,0,0
44675,-100,4,3,1,40,0,0
45623,-100,4,3,1,50,0,0
46254,-100,4,3,1,70,0,0
50044,-100,4,3,1,75,0,0
52570,315.789473684211,4,3,1,85,1,1
61254,-100,4,3,1,85,0,0
62675,-100,4,3,1,85,0,1
75780,-100,4,3,2,85,0,1
77358,-100,4,3,1,85,0,1
82096,-100,4,3,1,85,0,0
82885,-100,4,3,1,50,0,0
86517,-100,4,3,2,50,0,0
91570,-100,4,3,2,60,0,0
93306,-100,4,3,1,60,0,0
100885,-100,4,3,2,60,0,0
101833,-100,4,3,1,60,0,0
104043,-100,4,3,1,40,0,0
105622,-100,4,3,1,60,0,0
106570,-100,4,3,1,40,0,0
107517,-100,4,3,1,50,0,0
108148,-100,4,3,1,70,0,0
111938,-100,4,3,1,75,0,0
114464,315.789473684211,4,3,1,85,1,1
123148,-100,4,3,1,85,0,0
124569,-100,4,3,1,85,0,1
137674,-100,4,3,2,85,0,1
139252,-100,4,3,1,85,0,1
142253,-100,4,3,1,85,0,0
146042,-100,4,3,2,85,0,0
147306,-100,4,3,1,85,0,0
148095,-100,4,3,2,85,0,0
148253,-100,4,3,1,85,0,0
149042,-100,4,3,2,85,0,0
149832,-100,4,3,1,85,0,0
151095,-100,4,3,2,85,0,0
151885,-100,4,3,1,85,0,0
153148,-100,4,3,2,85,0,0
153778,-100,4,3,1,85,0,0
154094,-100,4,3,2,85,0,0
157095,-100,4,3,1,85,0,0
157885,-100,4,3,2,85,0,0
158674,-100,4,3,1,85,0,0
161200,-100,4,3,2,85,0,0
162464,-100,4,3,2,60,0,0
162779,-100,4,3,1,60,0,0
163411,-100,4,3,1,40,0,0
164990,-100,4,3,1,60,0,0
165937,-100,4,3,1,40,0,0
166885,-100,4,3,1,50,0,0
167516,-100,4,3,1,60,0,0
173832,-100,4,3,1,35,0,0
178885,-133.333333333333,4,3,1,40,0,0
180148,-133.333333333333,4,2,1,50,0,0
181411,-100,4,2,1,60,0,0
182516,-100,4,2,1,70,0,0
183937,315.789473684211,4,2,1,85,1,1
197042,-100,4,2,2,85,0,1
198620,-100,4,2,1,85,0,1
207147,-100,4,2,2,85,0,1
208725,-100,4,2,1,85,0,1
214252,-100,4,2,1,85,0,0

[Colours]
Combo1 : 255,128,64
Combo2 : 0,128,0
Combo3 : 255,128,192
Combo4 : 128,128,255

[HitObjects]
174,252,781,6,0,P|133:264|97:281,1,75,0|0,1:0|1:0,3:0:0:0:
249,291,1096,2,0,B|269:249|269:249|243:198|272:133,1,150,0|0,3:0|3:0,3:0:0:0:
410,39,1728,2,0,B|390:81|390:81|416:132|387:197,1,150,0|0,3:0|1:0,3:0:0:0:
332,318,2359,1,0,3:0:0:0:
415,352,2517,2,0,L|489:330,2,75,8|0|8,3:2|3:0|3:2,3:0:0:0:
346,292,2991,2,0,P|307:279|264:276,1,75,0|0,3:0|1:0,3:0:0:0:
197,324,3307,6,0,L|117:308,1,75,0|0,1:0|1:0,3:0:0:0:
36,335,3623,2,0,P|18:263|21:177,1,150,0|0,3:0|3:0,3:0:0:0:
160,75,4254,2,0,P|178:147|175:233,1,150,0|0,3:0|1:0,3:0:0:0:
305,348,4886,1,0,3:0:0:0:
352,273,5044,1,0,1:0:0:0:
352,273,5202,2,0,L|337:186,1,75,0|0,1:0|1:0,3:0:0:0:
254,169,5517,2,0,P|272:127|281:90,1,75,4|0,1:2|3:0,3:0:0:0:
407,16,5833,6,0,P|417:52|432:86,1,75,4|0,1:0|1:0,3:0:0:0:
506,139,6149,2,0,L|345:121,1,150,0|0,3:0|3:0,3:0:0:0:
155,61,6781,2,0,L|316:43,1,150,0|0,3:0|1:0,3:0:0:0:
363,215,7412,1,0,3:0:0:0:
426,278,7570,2,0,P|472:263|502:249,2,75,8|0|8,3:2|3:0|3:2,3:0:0:0:
365,345,8044,2,0,P|320:330|275:322,1,75,0|0,3:0|1:0,3:0:0:0:
209,357,8359,6,0,L|125:343,1,75,0|0,1:0|1:0,3:0:0:0:
71,280,8675,2,0,B|94:231|94:231|73:107,1,150,0|0,3:0|3:0,3:0:0:0:
222,27,9307,2,0,L|237:110,1,75,0|0,3:0|1:0,3:0:0:0:
298,167,9623,2,0,P|285:207|267:246,1,75,0|0,1:0|1:0,3:0:0:0:
375,192,9938,2,0,P|416:183|458:179,1,75,0|0,1:0|3:0,1:0:0:0:
359,113,10254,2,0,P|330:81|306:46,1,75,0|0,1:0|3:0,1:0:0:0:
223,36,10570,2,0,L|231:-1,3,37.5,0|0|0|0,1:0|1:0|1:0|1:0,3:0:0:0:
188,66,10886,6,0,L|201:155,1,75,4|0,1:0|3:0,3:0:0:0:
131,200,11202,1,0,1:0:0:0:
185,271,11359,2,0,L|352:249,1,150,0|2,1:0|3:2,3:0:0:0:
385,325,11833,1,0,1:0:0:0:
385,325,11991,2,0,P|415:293|401:190,1,150,2|0,3:2|3:0,3:0:0:0:
353,120,12465,1,0,1:0:0:0:
353,120,12623,2,0,P|323:152|337:255,1,150,0|2,1:0|3:2,3:0:0:0:
296,332,13096,1,4,3:2:0:0:
137,245,13412,6,0,L|211:236,1,75,4|0,3:0|3:0,3:0:0:0:
92,317,13728,1,0,1:0:0:0:
92,317,13886,2,0,L|113:160,1,150,0|2,1:0|3:2,3:0:0:0:
35,120,14359,1,2,1:2:0:0:
113,75,14517,2,0,P|130:34|136:0,1,75,4|0,1:0|3:0,3:0:0:0:
212,51,14833,1,0,1:0:0:0:
297,21,14991,1,8,1:0:0:0:
367,76,15149,2,0,L|386:152,1,75,0|0,1:0|1:0,3:0:0:0:
365,237,15465,2,0,P|415:232|453:211,2,75,8|8|0,1:0|1:0|1:0,3:0:0:0:
300,173,15938,6,0,L|202:161,1,75,4|0,1:0|3:0,3:0:0:0:
150,113,16254,1,0,1:0:0:0:
70,154,16412,2,0,P|42:233|82:298,1,150,0|2,1:0|3:2,3:0:0:0:
155,257,16886,1,0,1:0:0:0:
155,257,17044,2,0,L|323:280,1,150,2|0,3:2|3:0,3:0:0:0:
347,198,17517,1,0,1:0:0:0:
347,198,17675,2,0,L|179:175,1,150,0|2,1:0|3:2,3:0:0:0:
142,105,18149,1,4,3:2:0:0:
316,61,18465,6,0,P|363:44|392:27,1,75,4|0,3:0|3:0,3:0:0:0:
485,84,18781,1,0,1:0:0:0:
485,84,18938,2,0,B|437:103|437:103|413:207,1,150,0|2,1:0|3:2,3:0:0:0:
472,270,19412,1,0,1:0:0:0:
407,332,19570,2,0,L|246:309,1,150,2|0,1:2|1:0,3:0:0:0:
170,333,20044,1,8,1:0:0:0:
83,356,20202,2,0,P|39:312|54:212,1,150,0|8,1:0|1:0,1:0:0:0:
104,164,20675,1,8,1:0:0:0:
104,164,20833,1,0,1:0:0:0:
38,102,20991,6,0,L|16:20,1,75,4|0,1:0|3:0,3:0:0:0:
106,50,21307,2,0,P|157:74|236:12,2,150,8|0|8,2:0|2:0|2:0,3:0:0:0:
175,107,22096,2,0,P|190:158|194:193,1,75,0|0,3:0|3:0,3:0:0:0:
145,256,22412,1,0,3:0:0:0:
224,299,22570,2,0,L|327:280,1,75,8|0,2:0|3:0,3:0:0:0:
370,339,22886,2,0,L|449:352,1,75,0|2,2:0|1:2,3:0:0:0:
500,280,23202,2,0,P|510:238|513:195,1,75,0|2,3:0|1:2,3:0:0:0:
428,174,23517,6,0,L|401:19,1,150,0|8,3:0|2:0,3:0:0:0:
402,26,23991,1,0,3:0:0:0:
320,63,24149,2,0,P|278:55|243:40,2,75,0|0|8,2:0|3:0|2:0,3:0:0:0:
389,121,24623,2,0,B|396:173|396:173|367:274,1,150,0|0,3:0|3:0,3:0:0:0:
363,356,25096,2,0,P|322:331|286:323,1,75,8|0,2:0|3:0,3:0:0:0:
279,235,25412,2,0,P|236:258|211:285,1,75,0|2,2:0|1:2,3:0:0:0:
133,247,25728,2,0,P|131:295|142:330,1,75,8|2,3:1|1:2,3:0:0:0:
208,180,26044,6,0,L|187:21,2,150,4|8|0,3:2|2:0|2:0,3:0:0:0:
279,235,26833,2,0,P|274:275|261:319,1,75,0|8,3:0|2:0,3:0:0:0:
342,354,27149,2,0,P|347:314|360:270,1,75,0|0,3:0|3:0,3:0:0:0:
431,230,27465,1,0,3:0:0:0:
431,230,27623,2,0,L|411:144,1,75,8|0,2:0|3:0,3:0:0:0:
348,66,27938,2,0,L|328:152,1,75,2|2,1:2|1:2,3:0:0:0:
240,142,28254,2,0,L|260:228,1,75,8|2,3:1|1:2,3:0:0:0:
194,281,28570,6,0,P|145:266|118:248,2,75,0|0|8,1:0|1:0|3:1,3:0:0:0:
274,343,29044,1,8,3:0:0:0:
274,343,29123,1,8,3:0:0:0:
274,343,29202,1,0,1:0:0:0:
358,312,29359,2,0,L|442:321,1,75,0|8,1:0|1:0,0:0:0:0:
496,255,29675,1,2,1:2:0:0:
359,118,29991,1,2,1:2:0:0:
179,192,30307,1,2,1:2:0:0:
356,222,30623,2,0,L|452:203,2,75,8|8|8,3:1|3:1|3:1,3:0:0:0:
290,283,31096,6,0,P|240:275|192:280,1,75,4|0,1:0|3:0,3:0:0:0:
156,344,31412,2,0,L|178:176,2,150,8|0|8,2:0|2:0|2:0,3:0:0:0:
85,286,32202,2,0,P|66:246|58:205,1,75,2|0,1:2|3:0,3:0:0:0:
108,140,32517,1,0,3:0:0:0:
108,140,32675,2,0,P|127:100|135:59,1,75,8|0,2:0|3:0,3:0:0:0:
211,24,32991,2,0,L|227:103,1,75,2|2,1:2|1:2,3:0:0:0:
294,156,33307,2,0,P|336:146|372:124,1,75,8|2,2:0|1:2,3:0:0:0:
448,163,33623,6,0,P|483:216|446:309,1,150,0|8,3:0|2:0,3:0:0:0:
387,345,34096,1,2,1:2:0:0:
387,345,34254,2,0,L|303:323,2,75,0|2|8,2:0|1:2|2:0,3:0:0:0:
385,254,34728,2,0,L|232:214,1,150,2|0,1:2|3:0,3:0:0:0:
209,301,35202,2,0,L|133:313,1,75,8|0,2:0|3:0,3:0:0:0:
78,242,35517,2,0,L|154:230,1,75,0|0,2:0|3:0,3:0:0:0:
180,144,35833,2,0,L|105:155,1,75,8|8,2:0|1:3,3:0:0:0:
33,100,36149,6,0,B|59:58|59:58|171:40,2,150,4|8|0,3:2|2:0|2:0,3:0:0:0:
82,175,36938,2,0,P|75:220|62:259,1,75,0|8,3:0|2:0,3:0:0:0:
134,308,37254,2,0,P|171:286|201:254,1,75,2|0,1:2|2:0,3:0:0:0:
229,180,37570,1,0,3:0:0:0:
229,180,37728,2,0,L|315:159,1,75,8|0,2:0|3:0,3:0:0:0:
330,76,38044,2,0,P|376:102|391:140,1,75,2|0,1:2|3:0,3:0:0:0:
367,228,38359,2,0,P|321:254|281:248,1,75,8|0,2:0|3:0,3:0:0:0:
216,184,38675,6,0,L|198:91,2,75,4|0|8,1:0|3:0|3:2,3:0:0:0:
156,252,39149,1,8,3:2:0:0:
156,252,39307,2,0,L|138:345,2,75,4|0|8,1:2|3:0|3:0,3:0:0:0:
85,194,39781,1,8,3:0:0:0:
54,109,39938,1,12,1:2:0:0:
216,184,40254,1,12,1:2:0:0:
354,69,40570,2,0,L|431:53,1,75,8|8,1:0|1:0,3:0:0:0:
476,131,40886,2,0,L|469:177,3,37.5,8|8|8|8,1:0|1:0|1:0|1:0,3:0:0:0:
479,213,41202,6,0,P|441:171|341:182,2,150,4|8|4,3:2|2:0|3:2,2:0:0:0:
319,297,42149,2,0,L|306:370,1,75,8|8,2:0|2:0,2:0:0:0:
215,373,42465,2,0,L|228:300,1,75,0|0,3:0|3:0,2:0:0:0:
162,237,42781,1,8,2:0:0:0:
162,237,42938,1,0,1:0:0:0:
89,182,43096,2,0,L|65:21,1,150,0|0,3:0|3:0,2:0:0:0:
66,33,43570,1,8,2:0:0:0:
149,69,43728,6,0,B|245:57|245:57|294:6,2,150,4|8|4,3:2|2:0|3:2,2:0:0:0:
310,149,44675,2,0,P|329:183|340:227,1,75,8|8,2:0|2:0,2:0:0:0:
283,289,44991,2,0,P|264:255|253:211,1,75,0|0,3:0|3:0,2:0:0:0:
177,172,45307,1,8,2:0:0:0:
177,172,45465,1,8,2:0:0:0:
97,214,45623,2,0,P|80:257|145:351,1,150,2|0,1:2|1:0,2:0:0:0:
200,293,46096,1,8,2:3:0:0:
282,329,46254,6,0,L|441:308,1,150,4|8,3:1|2:0,2:0:0:0:
482,234,46728,1,0,3:0:0:0:
426,162,46886,2,0,P|418:124|416:79,1,75,2|2,1:2|1:2,2:0:0:0:
341,35,47202,1,8,2:0:0:0:
341,35,47359,2,0,L|329:120,1,75,0|0,1:0|2:0,2:0:0:0:
258,163,47675,1,0,3:0:0:0:
174,130,47833,2,0,L|87:142,1,75,8|0,2:0|3:0,2:0:0:0:
55,219,48149,2,0,P|11:167|24:90,1,150,2|8,2:0|2:0,2:0:0:0:
104,51,48623,1,0,3:0:0:0:
169,164,48781,6,0,L|159:250,1,75,4|0,1:2|1:0,2:0:0:0:
237,285,49096,2,0,L|245:359,2,75,8|0|8,2:0|1:0|1:0,2:0:0:0:
295,215,49570,1,8,2:3:0:0:
295,215,49728,2,0,P|329:203|391:204,1,75,8|4,2:3|2:3,2:0:0:0:
448,242,50044,1,12,2:0:0:0:
413,37,50359,1,12,2:0:0:0:
208,72,50675,1,12,2:0:0:0:
243,277,50991,1,12,2:0:0:0:
383,169,51307,6,0,L|372:80,1,75,8|8,2:0|2:0,2:0:0:0:
298,44,51623,1,8,2:0:0:0:
298,44,51781,1,8,2:0:0:0:
298,44,51938,1,8,2:0:0:0:
298,44,52570,6,0,P|238:63|146:40,1,150,4|8,1:0|1:0,1:0:0:0:
70,78,53043,1,2,1:3:0:0:
70,78,53201,2,0,L|77:166,1,75,4|4,3:0|3:0,1:0:0:0:
158,189,53517,1,8,1:0:0:0:
95,253,53675,6,0,L|262:233,1,150,2|2,3:2|1:2,1:0:0:0:
298,163,54148,1,8,1:0:0:0:
298,163,54306,2,0,P|336:213|317:299,1,150,2|8,1:2|1:0,1:0:0:0:
237,330,54780,1,8,1:0:0:0:
155,367,54938,6,0,L|325:357,1,150,0|0,3:0|1:0,1:0:0:0:
378,305,55412,1,8,1:0:0:0:
378,305,55570,2,0,L|468:313,1,75,2|4,1:3|3:0,1:0:0:0:
453,221,55885,2,0,L|363:229,1,75,4|8,3:0|1:0,1:0:0:0:
297,185,56201,6,0,B|266:122|266:122|285:25,2,150,2|2|8,3:2|1:2|1:0,1:0:0:0:
393,30,57148,2,0,L|271:44,1,112.5,8|0,1:0|1:0,1:0:0:0:
244,70,57464,6,0,L|65:54,1,150,8|2,1:0|1:2,1:0:0:0:
60,140,57938,2,0,P|52:187|54:227,1,75,10|2,1:2|1:2,1:0:0:0:
124,269,58254,2,0,P|132:316|130:356,2,75,2|2|10,1:3|1:2|1:2,1:0:0:0:
179,198,58727,6,0,P|236:180|342:165,1,150,2|2,1:2|1:2,1:0:0:0:
394,224,59201,2,0,P|412:283|416:312,1,75,8|2,1:0|1:2,1:0:0:0:
482,355,59517,2,0,P|489:318|502:282,1,75,2|10,1:3|1:2,1:0:0:0:
470,198,59833,1,10,1:2:0:0:
508,76,59991,6,0,L|348:53,1,150,4|0,1:0|1:0,1:0:0:0:
301,123,60464,1,8,1:0:0:0:
301,123,60622,1,8,3:0:0:0:
355,194,60780,2,0,L|397:209,2,37.5,4|0|2,3:0|1:0|1:2,1:0:0:0:
294,261,61096,1,2,1:2:0:0:
182,322,61254,6,0,B|103:352|103:352|37:352,2,150,6|2|2,1:0|1:0|1:0,1:0:0:0:
358,359,62201,2,0,L|454:375,2,75,2|2|2,1:2|1:2|1:2,1:0:0:0:
286,302,62675,6,0,P|237:240|256:165,1,150,4|8,1:0|1:0,1:0:0:0:
329,133,63148,1,2,1:3:0:0:
329,133,63306,2,0,P|351:81|348:40,1,75,4|4,3:0|3:0,1:0:0:0:
284,2,63622,1,8,1:0:0:0:
211,55,63780,6,0,L|49:67,1,150,2|2,3:2|1:2,1:0:0:0:
20,147,64254,1,8,1:0:0:0:
20,147,64412,2,0,L|180:137,1,150,2|8,1:2|1:0,1:0:0:0:
237,196,64885,1,8,1:0:0:0:
309,249,65043,6,0,P|349:233|365:117,1,150,0|0,3:0|1:0,1:0:0:0:
292,103,65517,1,8,1:0:0:0:
292,103,65675,2,0,P|223:100|184:98,1,75,2|4,1:3|3:0,1:0:0:0:
169,22,65991,2,0,L|71:23,1,75,4|8,3:0|1:0,1:0:0:0:
23,78,66306,6,0,B|14:139|14:139|50:246,2,150,2|2|8,3:2|1:2|1:0,1:0:0:0:
153,204,67254,2,0,L|22:226,1,112.5,8|0,1:0|1:0,1:0:0:0:
1,243,67570,6,0,L|161:260,1,150,8|0,1:0|1:0,1:0:0:0:
212,324,68043,2,0,P|240:281|239:238,1,75,8|0,1:0|1:0,1:0:0:0:
332,252,68359,2,0,P|321:201|290:172,2,75,0|2|8,3:0|3:2|1:2,1:0:0:0:
304,338,68833,6,0,P|386:326|424:247,1,150,2|2,3:0|1:2,1:0:0:0:
510,261,69306,2,0,P|495:214|453:191,1,75,8|2,1:0|1:2,1:0:0:0:
385,190,69622,2,0,P|400:143|442:120,1,75,0|8,1:0|1:0,1:0:0:0:
509,118,69938,2,0,P|494:71|452:48,1,75,8|0,1:0|3:0,1:0:0:0:
396,11,70254,6,0,B|348:44|348:44|236:28,1,150,0|8,1:0|1:0,1:0:0:0:
168,15,70727,1,2,3:2:0:0:
101,76,70885,2,0,P|87:125|85:164,2,75,8|2|8,1:0|3:2|1:0,1:0:0:0:
165,187,71359,6,0,L|330:170,1,150,4|0,1:0|3:0,1:0:0:0:
369,99,71833,1,8,1:0:0:0:
436,158,71991,1,0,3:0:0:0:
385,232,72148,2,0,L|378:285,3,37.5,0|0|0|0,1:0|1:0|1:0|1:0,2:0:0:0:
409,304,72464,2,0,L|416:357,3,37.5,0|0|0|0,3:0|3:0|3:0|3:0,2:0:0:0:
369,346,72780,6,0,L|210:336,1,150,4|8,3:1|1:0,2:0:0:0:
154,273,73254,1,2,3:2:0:0:
67,297,73412,2,2,L|74:373,2,75,2|0|8,1:3|3:1|1:2,2:1:0:0:
50,208,73885,1,2,1:0:0:0:
137,186,74043,6,0,B|183:152|183:152|184:25,1,150,4|8,3:1|1:0,1:0:0:0:
260,106,74517,2,0,L|260:200,2,75,2|2|0,3:2|1:3|3:1,2:0:0:0:
329,47,74991,2,0,L|329:5,2,37.5,10|0|10,1:0|1:0|2:1,2:0:0:0:
405,137,75306,5,4,1:0:0:0:
405,137,75464,1,2,1:2:0:0:
449,215,75622,1,8,1:0:0:0:
416,299,75780,2,0,L|260:287,1,150,2|2,1:0|1:2,2:0:0:0:
201,350,76254,5,8,1:0:0:0:
201,350,76412,1,2,1:2:0:0:
154,272,76570,1,2,1:2:0:0:
213,204,76727,2,0,L|362:215,1,150,2|8,1:0|1:0,2:0:0:0:
438,166,77201,2,2,P|447:114|448:73,1,75,4|10,1:2|1:0,2:1:0:0:
383,28,77517,1,4,1:2:0:0:
299,61,77675,1,10,1:0:0:0:
221,15,77833,6,0,L|50:1,1,150,4|8,1:0|1:0,2:0:0:0:
19,76,78306,1,2,3:2:0:0:
90,131,78464,2,2,L|92:215,1,75,2|0,1:3|3:1,2:1:0:0:
173,245,78780,2,2,L|175:329,1,75,8|2,1:0|1:0,2:1:0:0:
90,352,79096,6,0,L|262:341,1,150,4|8,3:1|1:0,2:0:0:0:
297,272,79570,1,2,3:2:0:0:
364,331,79727,2,2,L|438:325,1,75,2|0,1:3|3:1,2:1:0:0:
485,247,80043,1,10,1:0:0:0:
485,247,80122,1,0,1:0:0:0:
485,247,80201,1,10,1:0:0:0:
444,166,80359,5,4,1:0:0:0:
476,81,80517,1,0,1:0:0:0:
310,152,80833,2,0,L|154:141,1,150,0|0,1:0|1:0,2:0:0:0:
41,276,81464,2,0,L|190:286,1,150,0|0,1:0|1:0,2:0:0:0:
244,359,81938,5,8,1:0:0:0:
296,242,82096,1,8,1:0:0:0:
296,242,82885,6,0,L|445:256,1,150,4|0,3:1|3:0,3:0:0:0:
486,175,83359,1,0,3:2:0:0:
486,175,83517,2,0,L|479:25,1,150,0|0,1:0|2:0,3:0:0:0:
388,18,83991,2,0,B|346:24|346:24|329:52,1,75,0|0,1:0|3:0,3:0:0:0:
311,139,84306,1,0,1:2:0:0:
311,139,84464,2,0,L|236:135,1,75,0|0,3:0|3:0,3:0:0:0:
151,102,84780,1,0,1:0:0:0:
151,102,84938,1,2,3:2:0:0:
164,12,85096,1,0,3:0:0:0:
164,12,85254,1,0,3:0:0:0:
84,55,85412,6,0,L|118:200,2,150,4|0|0,3:1|3:0|1:0,3:0:0:0:
213,196,86359,1,0,3:0:0:0:
167,273,86517,1,8,1:2:0:0:
257,270,86675,2,0,L|259:345,1,75,0|8,3:0|1:2,3:0:0:0:
299,190,86991,2,0,L|296:115,1,75,0|0,3:0|3:0,3:0:0:0:
278,27,87306,6,0,B|336:17|336:17|423:43,1,150,4|4,1:2|1:2,3:0:0:0:
479,114,87780,2,0,L|480:152,1,37.5,8|8,2:1|2:1,3:0:0:0:
451,187,87938,2,0,L|455:340,1,150,4|0,3:1|3:0,3:0:0:0:
275,341,88570,2,0,L|278:191,1,150,0|0,1:0|2:0,3:0:0:0:
189,182,89043,2,0,L|171:254,1,75,0|0,1:0|3:0,3:0:0:0:
102,156,89359,2,0,L|95:81,1,75,0|0,1:0|3:0,3:0:0:0:
159,17,89675,1,0,3:0:0:0:
215,87,89833,2,0,L|289:93,1,75,0|0,1:0|1:0,3:0:0:0:
377,74,90148,1,8,2:3:0:0:
465,46,90306,1,8,2:1:0:0:
465,46,90464,5,8,2:1:0:0:
465,46,91570,2,0,B|504:113|504:113|486:183,2,150,2|2|2,1:2|1:2|1:2,3:0:0:0:
289,93,92517,1,8,3:1:0:0:
336,169,92675,1,8,3:1:0:0:
298,250,92833,1,8,3:1:0:0:
336,331,92991,5,4,1:0:0:0:
336,331,93148,1,2,1:2:0:0:
377,250,93306,2,0,P|406:273|440:287,1,75,8|2,2:0|1:2,3:0:0:0:
482,207,93622,1,0,2:0:0:0:
482,207,93780,2,0,P|472:133|482:59,1,150,2|2,1:2|1:2,3:0:0:0:
304,24,94412,1,0,3:0:0:0:
221,60,94570,2,0,B|172:70|124:42|72:49,1,150,8|0,2:0|3:2,3:0:0:0:
72,49,95201,2,0,P|88:82|88:119,1,75,8|0,1:0|3:2,3:0:0:0:
11,168,95517,6,0,P|39:238|34:312,1,150,2|8,1:2|2:0,3:0:0:0:
34,311,95991,1,2,1:2:0:0:
97,374,96148,2,0,P|169:353|243:363,1,150,0|8,2:0|2:0,3:0:0:0:
495,367,96780,2,0,P|458:357|423:347,1,75,0|2,3:0|1:2,3:0:0:0:
297,292,97096,2,0,P|334:283|370:273,1,75,10|0,1:2|3:2,3:0:0:0:
438,213,97412,2,0,P|417:140|392:70,1,150,2|8,1:2|2:0,3:0:0:0:
302,60,97885,1,8,1:3:0:0:
235,120,98043,6,0,P|247:156|249:193,1,75,4|0,3:2|3:0,3:0:0:0:
145,131,98359,2,0,P|147:93|158:58,1,75,8|2,2:0|1:2,3:0:0:0:
60,168,98675,2,0,P|40:240|32:314,1,150,0|8,2:0|2:0,3:0:0:0:
119,337,99148,1,2,1:2:0:0:
118,337,99306,2,0,P|193:328|268:323,2,150,0|8|0,3:0|2:0|2:0,3:0:0:0:
146,158,100254,1,8,2:0:0:0:
97,81,100412,1,0,3:0:0:0:
34,13,100570,6,0,P|105:39|179:39,1,150,4|8,1:0|3:2,3:0:0:0:
268,24,101043,1,8,3:2:0:0:
242,109,101201,2,0,P|316:110|386:135,1,150,4|8,1:2|3:0,3:0:0:0:
386,135,101833,2,0,P|424:138|459:126,1,75,12|0,1:2|3:0,3:0:0:0:
334,217,102148,2,0,P|296:219|261:207,1,75,12|0,1:2|3:0,3:0:0:0:
392,291,102464,1,8,1:0:0:0:
481,298,102622,1,8,1:0:0:0:
430,372,102780,1,8,1:0:0:0:
344,363,102938,1,8,1:0:0:0:
344,363,103017,1,8,1:0:0:0:
344,363,103096,6,0,P|269:363|194:367,2,150,4|8|4,3:2|2:0|3:2,2:0:0:0:
445,214,104043,1,8,2:0:0:0:
415,129,104201,1,8,2:0:0:0:
485,72,104359,2,0,P|492:36|495:-1,2,75,0|0|8,3:0|3:0|2:0,2:0:0:0:
398,44,104833,1,0,1:0:0:0:
325,97,104991,2,0,P|250:103|176:115,1,150,0|0,3:0|3:0,2:0:0:0:
133,194,105464,1,8,2:0:0:0:
202,254,105622,6,0,P|276:243|350:234,2,150,4|8|4,3:2|2:0|3:2,2:0:0:0:
59,365,106570,1,8,2:0:0:0:
40,186,106885,2,0,P|33:149|24:112,2,75,0|0|8,3:0|3:0|2:0,2:0:0:0:
128,203,107359,1,8,2:0:0:0:
207,160,107517,2,0,L|212:112,3,37.5,2|0|8|8,1:2|2:0|2:0|2:0,2:0:0:0:
251,144,107833,2,0,L|254:106,3,37.5,0|8|8|8,1:0|2:3|2:3|2:3,2:0:0:0:
295,125,108148,6,0,P|220:119|145:109,2,150,4|8|2,3:1|2:0|1:2,2:0:0:0:
459,50,109096,1,8,2:0:0:0:
374,19,109254,2,0,P|299:14|228:38,1,150,0|0,1:0|3:0,2:0:0:0:
139,29,109727,2,0,P|101:26|64:24,1,75,8|0,2:0|3:0,2:0:0:0:
0,118,110043,2,0,P|37:115|74:113,1,75,2|0,2:0|3:0,2:0:0:0:
143,209,110359,2,0,P|105:206|68:204,1,75,8|0,2:0|3:0,2:0:0:0:
4,288,110675,5,4,1:2:0:0:
94,288,110833,1,0,1:0:0:0:
44,363,110991,2,0,P|80:370|118:372,1,75,8|0,2:0|1:0,2:0:0:0:
193,324,111306,2,0,P|205:288|224:256,2,75,8|8|8,1:0|2:3|2:3,2:0:0:0:
271,371,111780,1,4,2:3:0:0:
311,291,111938,2,0,P|297:218|241:169,1,150,12|12,2:0|2:0,2:0:0:0:
158,135,112412,1,0,3:0:0:0:
216,66,112570,2,0,P|253:62|286:45,1,75,12|0,2:0|3:0,2:0:0:0:
376,42,112885,2,0,P|369:78|368:116,1,75,12|0,2:0|1:0,2:0:0:0:
450,155,113201,5,8,2:0:0:0:
373,203,113359,1,8,2:0:0:0:
448,252,113517,1,8,2:0:0:0:
367,291,113675,1,8,2:0:0:0:
442,340,113833,1,12,2:0:0:0:
262,342,114148,6,0,L|230:369,3,37.5,8|8|8|8,2:0|2:0|2:0|2:0,2:0:0:0:
222,321,114464,6,0,P|183:354|71:334,1,150,4|8,1:0|1:0,1:0:0:0:
106,259,114937,1,2,1:3:0:0:
26,216,115095,2,0,L|43:114,1,75,4|4,3:0|3:0,1:0:0:0:
4,57,115411,1,8,1:0:0:0:
84,15,115569,6,0,B|117:48|117:48|224:67,1,150,2|2,3:2|1:2,1:0:0:0:
180,149,116042,1,8,1:0:0:0:
180,149,116200,2,0,P|219:102|320:114,1,150,2|8,1:2|1:0,1:0:0:0:
379,53,116674,1,8,1:0:0:0:
457,8,116832,6,0,L|434:176,1,150,0|0,3:0|1:0,1:0:0:0:
371,219,117306,1,8,1:0:0:0:
371,219,117464,2,0,L|385:297,1,75,2|4,1:3|3:0,1:0:0:0:
474,292,117779,2,0,L|460:370,1,75,4|8,3:0|1:0,1:0:0:0:
321,364,118095,6,0,P|283:319|186:322,2,150,2|2|8,3:2|1:2|1:0,1:0:0:0:
229,212,119042,2,0,L|242:85,1,112.5,8|0,1:0|1:0,1:0:0:0:
216,61,119358,6,0,P|160:89|155:190,1,150,8|2,1:0|1:2,1:0:0:0:
59,201,119832,2,0,L|76:283,1,75,10|2,1:2|1:2,1:0:0:0:
81,364,120148,2,0,B|44:369|44:369|9:337,2,75,2|2|10,1:3|1:2|1:2,1:0:0:0:
155,314,120621,6,0,P|217:330|328:347,1,150,2|2,1:2|1:2,1:0:0:0:
387,372,121095,2,0,P|428:347|455:337,1,75,8|2,1:0|1:2,1:0:0:0:
496,257,121411,2,0,P|459:243|413:220,1,75,2|10,1:3|1:2,1:0:0:0:
341,256,121727,1,10,1:2:0:0:
411,140,121885,6,0,B|357:89|357:89|282:101,1,150,4|0,1:0|1:0,1:0:0:0:
209,47,122358,1,8,1:0:0:0:
153,117,122516,2,0,L|106:102,2,37.5,8|0|4,3:0|3:0|3:0,1:0:0:0:
229,175,122832,1,2,1:2:0:0:
229,175,122990,1,2,1:2:0:0:
155,262,123148,6,0,L|2:285,2,150,6|2|2,1:0|1:0|1:0,1:0:0:0:
64,118,124095,5,2,1:2:0:0:
64,118,124253,1,2,1:2:0:0:
64,118,124411,1,2,1:2:0:0:
143,75,124569,6,0,P|190:119|271:113,1,150,4|8,1:0|1:0,1:0:0:0:
330,45,125042,1,2,1:3:0:0:
330,45,125200,2,0,L|414:63,1,75,4|4,3:0|3:0,1:0:0:0:
481,14,125516,1,8,1:0:0:0:
508,99,125674,6,0,L|492:262,1,150,2|2,3:2|1:2,1:0:0:0:
418,295,126148,1,8,1:0:0:0:
418,295,126306,2,0,L|433:131,1,150,2|8,1:2|1:0,1:0:0:0:
403,60,126779,1,8,1:0:0:0:
326,108,126937,6,0,B|253:119|253:119|176:51,1,150,0|0,3:0|1:0,1:0:0:0:
105,57,127411,1,8,1:0:0:0:
105,57,127569,2,0,L|119:134,1,75,2|4,1:3|3:0,1:0:0:0:
56,196,127885,2,0,L|70:273,1,75,4|8,3:0|1:0,1:0:0:0:
144,318,128200,6,0,B|202:309|202:309|254:388,2,150,2|2|8,3:2|1:2|1:0,1:0:0:0:
203,178,129148,2,0,L|328:197,1,112.5,8|0,1:0|1:0,1:0:0:0:
328,238,129464,6,0,B|307:278|307:278|371:371,1,150,8|0,1:0|1:0,1:0:0:0:
436,307,129937,2,0,L|523:327,1,75,8|0,1:0|1:0,1:0:0:0:
492,234,130253,2,0,L|418:217,2,75,0|2|8,3:0|3:2|1:0,1:0:0:0:
479,144,130727,6,0,P|443:85|352:96,1,150,2|2,3:0|1:2,1:0:0:0:
314,155,131200,2,0,P|284:121|284:81,1,75,8|2,1:0|1:2,1:0:0:0:
292,2,131516,2,0,P|246:4|218:33,1,75,0|8,1:0|1:0,1:0:0:0:
135,10,131832,2,0,P|137:55|166:83,1,75,8|0,1:0|1:0,1:0:0:0:
207,151,132148,6,0,B|145:173|145:173|117:284,1,150,0|8,1:0|1:0,1:0:0:0:
141,343,132621,1,2,3:2:0:0:
55,370,132779,2,0,L|-27:338,2,75,8|2|8,1:0|3:2|1:0,1:0:0:0:
30,251,133253,6,0,L|68:90,1,150,4|0,1:0|3:0,1:0:0:0:
13,29,133727,1,8,1:0:0:0:
100,9,133885,1,0,3:0:0:0:
154,80,134042,2,0,L|208:66,3,37.5,0|0|0|0,1:0|1:0|1:0|1:0,2:0:0:0:
220,36,134358,2,0,L|274:22,3,37.5,0|0|0|0,3:0|3:0|3:0|3:0,2:0:0:0:
286,61,134674,6,0,L|464:89,1,150,4|8,3:1|1:0,2:0:0:0:
505,139,135148,1,2,3:2:0:0:
427,184,135306,2,2,L|403:274,1,75,2|0,1:3|3:1,2:1:0:0:
466,324,135621,2,2,L|490:234,1,75,8|2,1:0|1:0,2:1:0:0:
335,282,135937,6,0,B|300:326|300:326|202:341,1,150,4|8,3:1|2:0,2:0:0:0:
133,297,136411,1,2,3:2:0:0:
133,297,136569,2,2,L|56:316,1,75,2|0,1:3|3:1,2:1:0:0:
28,230,136885,2,0,L|-16:241,2,37.5,10|0|10,1:0|1:0|1:0,2:0:0:0:
61,148,137200,5,4,1:0:0:0:
61,148,137358,1,2,1:2:0:0:
149,162,137516,1,8,1:0:0:0:
238,175,137674,2,0,L|210:13,1,150,2|2,1:0|1:2,2:0:0:0:
302,60,138148,5,8,1:0:0:0:
302,60,138306,1,2,1:2:0:0:
390,46,138464,1,2,1:2:0:0:
479,33,138621,2,0,L|451:195,1,150,2|8,1:0|1:0,2:0:0:0:
489,263,139095,2,2,P|457:295|439:327,1,75,4|10,1:2|1:0,2:1:0:0:
362,364,139411,1,4,1:2:0:0:
276,336,139569,1,10,1:0:0:0:
190,308,139727,6,0,B|217:249|217:249|196:148,1,150,4|8,3:1|1:0,2:0:0:0:
258,97,140200,1,2,3:2:0:0:
201,26,140358,2,2,L|122:50,1,75,2|0,1:3|3:1,2:1:0:0:
44,14,140674,2,2,L|22:85,1,75,8|2,1:0|1:0,2:1:0:0:
91,143,140990,6,0,B|32:203|32:203|31:278,1,150,4|0,3:1|1:0,2:0:0:0:
96,331,141464,1,2,1:2:0:0:
182,308,141621,2,0,L|261:326,1,75,2|0,1:3|1:0,2:0:0:0:
330,273,141937,2,0,L|337:232,3,37.5,2|0|2|0,1:0|1:0|1:0|1:0,2:0:0:0:
343,211,142253,6,0,L|416:226,1,75,4|4,1:0|3:0,2:0:0:0:
506,237,142569,2,0,L|474:90,1,150,8|0,1:0|1:0,2:0:0:0:
417,27,143042,1,0,2:0:0:0:
417,27,143200,1,8,1:0:0:0:
383,110,143358,1,2,1:0:0:0:
317,48,143516,2,0,L|242:57,1,75,4|4,3:0|3:0,2:0:0:0:
237,75,143753,1,2,3:2:0:0:
230,92,143832,2,0,L|155:101,1,75,8|2,1:0|1:2,2:0:0:0:
69,73,144148,2,0,P|53:38|35:5,1,75,0|0,1:0|2:0,2:0:0:0:
75,168,144464,1,8,1:0:0:0:
36,248,144621,1,2,1:0:0:0:
0,330,144779,6,0,P|74:334|145:358,1,150,4|8,3:0|1:0,2:0:0:0:
324,329,145411,1,0,1:0:0:0:
404,289,145569,1,0,2:0:0:0:
325,242,145727,2,0,P|289:247|259:269,1,75,8|2,1:0|1:0,2:0:0:0:
169,268,146042,2,0,P|165:230|161:193,1,75,2|0,1:0|3:0,2:0:0:0:
174,179,146279,1,0,3:0:0:0:
187,167,146358,1,8,1:0:0:0:
276,156,146516,2,0,P|276:119|277:82,1,75,0|10,3:0|1:0,2:0:0:0:
225,8,146832,1,0,3:0:0:0:
399,51,147148,1,0,3:0:0:0:
486,28,147306,6,2,P|476:102|471:177,1,150,2|10,1:0|1:0,2:1:0:0:
498,355,147937,1,4,3:0:0:0:
410,332,148095,1,8,3:2:0:0:
326,367,148253,2,0,P|290:359|253:354,1,75,10|2,1:2|1:2,2:0:0:0:
164,371,148569,2,0,P|127:378|90:383,1,75,0|0,3:0|3:0,2:0:0:0:
72,374,148806,1,0,3:0:0:0:
56,366,148885,1,8,1:0:0:0:
85,281,149042,2,0,P|121:273|158:267,1,75,8|4,3:2|3:0,2:0:0:0:
246,242,149358,1,8,3:2:0:0:
328,279,149516,1,8,1:0:0:0:
408,239,149674,1,2,1:2:0:0:
325,200,149832,6,0,P|319:125|309:50,1,150,2|10,1:0|1:0,2:0:0:0:
131,19,150464,1,10,1:0:0:0:
131,19,150621,1,2,3:2:0:0:
76,90,150779,1,10,1:0:0:0:
76,90,150937,1,2,3:2:0:0:
132,160,151095,2,0,P|169:157|206:152,1,75,6|0,1:0|3:0,2:0:0:0:
220,140,151332,1,0,3:0:0:0:
235,129,151411,1,8,1:0:0:0:
285,54,151569,2,0,P|322:56|359:61,1,75,10|0,1:0|2:1,2:0:0:0:
432,114,151885,1,2,3:1:0:0:
365,173,152042,5,10,1:0:0:0:
368,191,152121,1,0,1:0:0:0:
372,209,152200,1,8,1:0:0:0:
376,227,152279,1,0,1:0:0:0:
382,244,152358,6,2,P|451:239|474:305,1,150,4|8,1:0|1:0,2:1:0:0:
306,372,152990,1,6,3:2:0:0:
229,323,153148,1,10,3:2:0:0:
292,259,153306,2,0,P|277:226|269:189,1,75,8|10,1:0|1:2,2:0:0:0:
222,75,153621,2,2,P|214:111|198:145,1,75,4|2,1:0|3:1,2:1:0:0:
189,162,153858,1,2,3:2:0:0:
179,178,153937,2,0,L|104:188,1,75,8|10,1:0|1:2,2:0:0:0:
28,139,154253,1,6,3:2:0:0:
16,228,154411,1,10,3:2:0:0:
92,276,154569,2,0,P|114:306|134:337,1,75,8|10,1:0|1:2,2:0:0:0:
211,291,154885,6,2,P|285:304|358:320,1,150,4|8,3:1|1:0,2:1:0:0:
449,164,155516,1,6,3:2:0:0:
506,94,155674,1,10,3:2:0:0:
460,16,155832,2,0,P|424:28|388:37,1,75,8|10,1:0|1:2,2:0:0:0:
305,72,156148,2,0,P|268:61|232:52,1,75,2|2,1:0|1:2,2:0:0:0:
213,48,156385,1,0,2:0:0:0:
194,41,156464,2,0,P|193:79|190:116,1,75,10|2,1:0|1:2,2:0:0:0:
114,220,156779,2,2,P|113:182|110:145,1,75,10|0,1:0|2:0,2:1:0:0:
93,60,157095,1,10,1:0:0:0:
93,60,157253,1,10,1:0:0:0:
4,78,157411,6,2,P|8:152|5:227,1,150,4|8,1:0|1:0,2:1:0:0:
0,318,157885,2,0,P|74:309|149:302,1,150,8|8,1:2|3:2,2:0:0:0:
234,345,158358,1,8,1:0:0:0:
234,345,158516,1,0,3:0:0:0:
290,275,158674,2,0,L|281:200,1,75,2|2,1:0|3:2,2:0:0:0:
265,189,158911,1,2,3:2:0:0:
252,175,158990,2,0,L|260:100,1,75,10|2,1:0|3:2,2:0:0:0:
332,4,159306,2,0,P|339:40|343:77,1,75,10|2,1:0|3:2,2:0:0:0:
478,77,159621,2,0,P|447:98|416:120,1,75,10|2,1:0|3:2,2:0:0:0:
404,135,159858,1,0,3:0:0:0:
392,150,159937,6,2,P|448:142|504:135,2,112.5,4|2|2,1:0|3:2|1:0,2:1:0:0:
503,293,160727,1,2,1:2:0:0:
460,372,160885,1,10,1:0:0:0:
389,316,161042,1,2,1:2:0:0:
388,316,161200,2,0,P|351:314|314:318,1,75,2|0,3:1|3:0,2:0:0:0:
300,332,161437,1,0,3:0:0:0:
288,347,161516,2,0,P|250:350|213:349,1,75,8|8,1:0|1:0,2:0:0:0:
140,294,161832,2,0,L|127:258,3,37.5,2|0|0|0,1:0|1:0|1:0|1:0,2:0:0:0:
218,262,162148,2,0,L|205:226,3,37.5,4|0|4|0,3:0|3:0|3:0|3:0,2:0:0:0:
298,239,162464,6,0,P|334:190|434:222,2,150,4|8|4,3:2|2:0|3:2,2:0:0:0:
428,362,163411,1,8,2:0:0:0:
340,381,163569,1,8,2:0:0:0:
271,322,163727,2,0,P|234:309|189:300,2,75,0|0|8,3:0|3:0|2:0,2:0:0:0:
358,301,164200,1,0,1:0:0:0:
419,235,164358,2,0,P|429:185|442:147,1,75,0|8,3:0|2:0,2:0:0:0:
363,107,164674,2,0,P|348:66|327:27,1,75,0|8,3:0|2:0,2:0:0:0:
247,65,164990,6,0,L|99:40,2,150,4|8|4,3:2|2:0|3:2,2:0:0:0:
324,227,165937,2,0,L|246:214,1,75,8|8,2:0|2:0,2:0:0:0:
179,158,166253,2,0,L|83:184,1,75,0|0,3:0|3:0,2:0:0:0:
45,110,166569,1,8,2:0:0:0:
15,195,166727,1,8,2:0:0:0:
80,257,166885,2,0,P|92:292|100:334,1,75,2|8,1:2|2:0,2:0:0:0:
69,362,167121,1,8,2:0:0:0:
69,362,167200,2,0,L|146:378,1,75,0|8,1:0|2:3,2:0:0:0:
195,303,167516,6,0,P|242:264|342:291,1,150,4|8,3:1|2:0,2:0:0:0:
391,337,167990,1,0,3:0:0:0:
475,306,168148,2,0,L|448:148,1,150,2|8,1:2|2:0,2:0:0:0:
498,82,168621,2,0,P|453:66|420:45,1,75,0|0,1:0|2:0,2:0:0:0:
346,16,168937,1,0,3:0:0:0:
304,95,169095,2,0,P|307:132|314:169,1,75,8|0,2:0|2:0,2:0:0:0:
209,228,169411,2,0,P|218:180|220:139,1,75,2|0,2:0|3:0,2:0:0:0:
152,101,169727,1,8,2:0:0:0:
152,101,169885,1,0,3:0:0:0:
62,95,170042,6,0,L|80:11,1,75,4|0,1:2|1:0,2:0:0:0:
124,185,170358,2,0,L|106:269,1,75,8|0,2:0|1:0,2:0:0:0:
24,284,170674,1,8,1:0:0:0:
24,284,170832,1,8,2:3:0:0:
74,358,170990,1,8,2:3:0:0:
163,344,171148,1,4,2:3:0:0:
194,259,171306,6,0,P|235:273|287:279,1,75,12|0,2:0|3:0,2:0:0:0:
373,210,171621,2,0,P|332:196|280:190,1,75,12|0,2:0|3:0,2:0:0:0:
225,139,171937,2,0,L|214:52,1,75,12|0,2:0|3:0,2:0:0:0:
293,17,172253,1,12,2:0:0:0:
373,79,172411,1,0,1:0:0:0:
373,79,172490,1,0,1:0:0:0:
373,79,172569,2,0,L|455:60,1,75,8|8,2:0|2:0,2:0:0:0:
502,133,172885,5,8,2:0:0:0:
487,221,173042,1,8,2:0:0:0:
473,309,173200,1,8,2:0:0:0:
144,160,173832,5,4,3:2:0:0:
368,224,176358,5,4,3:2:0:0:
234,238,178885,6,0,L|217:365,1,112.5,0|0,3:0|3:0,2:0:0:0:
114,306,179516,2,0,L|97:179,1,112.5,0|0,3:0|3:0,2:0:0:0:
27,175,179990,2,0,P|55:131|134:134,1,112.5,0|0,2:0|2:0,2:0:0:0:
186,124,180464,6,0,L|203:-3,2,112.5,0|0|0,3:0|3:0|3:0,2:0:0:0:
226,193,181253,1,0,2:0:0:0:
226,193,181411,6,0,L|306:180,1,75,4|0,3:2|3:0,2:0:0:0:
356,253,181727,2,0,L|394:181,1,75,8|8,2:1|2:1,2:0:0:0:
445,115,182042,1,8,2:1:0:0:
409,32,182200,1,8,2:3:0:0:
322,38,182358,1,8,2:1:0:0:
322,38,182516,1,2,1:2:0:0:
166,129,182832,5,2,1:2:0:0:
78,97,182990,1,0,3:0:0:0:
78,97,183069,1,0,3:0:0:0:
78,97,183148,1,8,1:0:0:0:
90,276,183464,6,0,L|111:182,2,75,8|8|8,2:0|2:0|2:0,2:0:0:0:
141,349,183937,2,0,B|214:337|214:337|287:355,1,150,4|8,1:0|1:0,1:0:0:0:
375,335,184410,2,0,P|381:298|384:260,1,75,2|4,1:3|3:0,1:0:0:0:
473,276,184726,2,0,P|470:238|463:201,1,75,4|8,3:0|1:0,1:0:0:0:
377,172,185042,2,0,P|309:198|292:268,2,150,2|2|2,3:2|1:2|1:2,1:0:0:0:
486,29,185989,5,8,1:0:0:0:
396,17,186147,1,8,1:0:0:0:
306,27,186305,2,0,P|232:40|157:47,1,150,0|0,3:0|1:0,1:0:0:0:
72,18,186779,1,8,1:0:0:0:
24,95,186937,2,0,P|42:167|50:242,1,150,2|4,1:3|3:0,1:0:0:0:
55,331,187410,1,8,1:0:0:0:
130,282,187568,2,0,P|205:273|278:258,2,150,2|2|8,3:2|1:2|1:0,1:0:0:0:
115,105,188515,2,0,P|142:80|157:46,1,75,8|4,1:0|1:2,1:0:0:0:
245,26,188831,1,8,1:0:0:0:
244,26,188989,6,0,P|319:36|394:41,1,150,4|8,1:0|1:0,1:0:0:0:
466,206,189621,2,0,P|391:210|316:221,1,150,0|8,3:0|1:0,1:0:0:0:
252,157,190094,2,0,P|225:224|258:289,1,150,2|2,3:0|1:2,1:0:0:0:
347,301,190568,1,8,1:0:0:0:
171,345,190884,1,0,1:0:0:0:
32,229,191200,1,8,1:0:0:0:
32,229,191279,1,0,1:0:0:0:
32,229,191358,1,0,1:0:0:0:
112,191,191515,6,0,P|98:119|39:76,1,150,0|8,1:0|1:0,1:0:0:0:
116,29,191989,1,2,3:2:0:0:
195,68,192147,2,0,P|270:66|345:56,1,150,8|8,1:0|1:0,1:0:0:0:
432,32,192621,2,0,P|447:66|459:101,1,75,4|0,1:0|1:0,1:0:0:0:
381,147,192937,1,0,3:0:0:0:
460,188,193094,2,0,P|444:222|432:257,1,75,8|0,1:0|3:0,1:0:0:0:
399,342,193410,2,0,L|406:378,3,37.5,0|0|0|0,1:0|1:0|1:0|1:0,2:0:0:0:
342,349,193726,2,0,L|334:312,3,37.5,0|0|0|0,3:0|3:0|3:0|3:0,2:0:0:0:
285,358,194042,6,0,P|248:355|211:351,1,75,4|0,1:0|3:0,2:0:0:0:
135,241,194358,2,0,P|172:245|210:248,1,75,8|2,1:0|3:2,2:0:0:0:
286,328,194673,2,0,P|248:325|211:321,1,75,2|2,1:0|3:2,2:0:0:0:
136,209,194989,2,0,P|173:213|210:215,1,75,10|2,1:0|3:1,2:0:0:0:
99,313,195305,5,4,1:0:0:0:
99,313,195463,1,0,3:0:0:0:
30,254,195621,1,8,1:0:0:0:
30,254,195779,1,2,3:2:0:0:
42,164,195937,1,2,1:3:0:0:
42,164,196094,1,2,3:2:0:0:
125,129,196252,1,10,1:0:0:0:
143,133,196331,1,2,1:2:0:0:
161,137,196410,1,10,1:0:0:0:
250,126,196568,6,0,L|243:51,2,75,4|2|8,1:0|1:2|1:0,2:0:0:0:
326,174,197042,2,0,L|342:323,1,150,2|2,1:0|1:2,2:0:0:0:
427,294,197515,2,0,L|433:368,2,75,8|2|2,1:0|1:2|1:2,2:0:0:0:
512,263,197989,2,0,L|495:113,1,150,2|8,1:0|1:0,2:0:0:0:
455,32,198463,2,2,P|380:31|307:13,1,150,4|4,1:2|1:2,2:1:0:0:
137,72,199094,6,0,P|133:34|125:-1,1,75,4|0,1:0|3:0,2:0:0:0:
50,94,199410,2,0,P|41:130|38:167,1,75,8|2,1:0|3:2,2:0:0:0:
124,89,199726,2,2,P|120:51|112:15,1,75,2|2,1:3|3:2,2:1:0:0:
37,111,200042,2,2,P|28:147|25:184,1,75,8|2,1:0|3:2,2:1:0:0:
143,176,200358,5,2,1:0:0:0:
143,176,200515,1,2,3:0:0:0:
90,249,200673,1,8,1:0:0:0:
90,249,200831,1,2,3:2:0:0:
137,325,200989,1,2,1:3:0:0:
137,325,201147,1,2,3:2:0:0:
187,250,201305,1,10,1:0:0:0:
244,319,201463,1,10,1:0:0:0:
255,334,201542,1,2,1:2:0:0:
268,345,201621,6,0,P|341:333|416:335,1,150,4|8,3:1|1:0,2:0:0:0:
493,171,202252,2,0,P|443:226|371:247,1,150,8|8,3:0|1:0,2:0:0:0:
309,77,202884,2,0,P|380:86|398:154,2,150,8|8|4,3:0|1:0|1:2,2:0:0:0:
153,165,203831,1,4,1:2:0:0:
153,165,203910,1,0,1:0:0:0:
153,165,203989,1,8,1:0:0:0:
74,208,204147,6,0,P|66:133|63:58,1,150,4|8,1:0|1:0,2:0:0:0:
151,36,204621,1,2,3:2:0:0:
151,36,204779,2,0,P|225:46|300:47,1,150,2|10,1:0|1:0,2:0:0:0:
393,57,205252,1,2,3:1:0:0:
393,57,205410,2,0,P|388:129|444:175,1,150,4|8,1:0|1:0,2:0:0:0:
493,251,205884,1,2,3:2:0:0:
420,305,206042,2,0,P|390:241|320:251,1,150,2|2,1:0|1:0,2:1:0:0:
276,330,206515,1,2,3:1:0:0:
260,340,206594,1,2,3:2:0:0:
241,344,206673,6,0,P|204:344|166:342,2,75,4|2|8,1:0|1:2|1:0,2:0:0:0:
235,253,207147,1,2,1:0:0:0:
62,305,207463,1,2,1:2:0:0:
58,286,207542,1,2,1:2:0:0:
57,266,207621,2,0,P|21:259|-15:250,2,75,8|2|2,1:0|1:2|1:2,2:0:0:0:
108,191,208094,1,2,1:0:0:0:
108,191,208410,1,8,1:0:0:0:
29,146,208568,2,0,P|22:110|16:73,1,75,4|10,1:2|1:0,2:0:0:0:
95,28,208884,2,0,P|162:34|208:-5,1,112.5,4|0,1:2|2:0,2:0:0:0:
197,10,209200,6,0,P|241:41|240:136,1,150,4|8,1:0|1:0,2:0:0:0:
189,302,209831,2,0,P|192:339|193:376,1,75,2|0,1:0|3:1,2:0:0:0:
283,365,210147,2,0,P|284:327|287:290,1,75,10|2,1:0|3:2,2:0:0:0:
378,285,210463,2,0,P|381:322|382:359,1,75,4|0,1:0|3:0,2:0:0:0:
472,348,210779,2,0,P|473:310|476:273,1,75,8|2,1:0|3:2,2:0:0:0:
423,207,211094,5,2,1:2:0:0:
423,207,211252,1,0,3:2:0:0:
483,140,211410,1,10,1:0:0:0:
409,88,211568,1,10,1:0:0:0:
404,69,211647,1,2,1:2:0:0:
401,50,211726,6,0,P|438:53|475:53,1,75,4|0,1:0|1:0,2:0:0:0:
239,34,212200,2,0,P|202:41|164:45,1,75,0|4,1:0|3:0,2:0:0:0:
182,133,212515,2,0,P|219:128|256:121,1,75,0|4,1:0|3:0,2:0:0:0:
272,210,212831,2,0,P|235:217|197:221,1,75,0|0,1:0|1:0,1:0:0:0:
207,311,213147,1,0,1:0:0:0:
296,298,213305,1,8,1:0:0:0:
207,311,213463,1,8,1:0:0:0:
378,365,213779,1,0,1:0:0:0:
459,326,213937,2,0,P|442:273|427:218,1,112.5,8|0,1:3|3:0,2:0:0:0:
462,189,214252,6,0,L|373:176,1,75,4|0,1:0|3:0,3:0:0:0:
300,203,214568,1,0,1:0:0:0:
322,115,214726,2,0,L|155:137,1,150,0|2,1:0|3:2,3:0:0:0:
122,61,215200,1,0,1:0:0:0:
122,61,215358,2,0,P|92:93|106:196,1,150,2|0,3:2|3:0,3:0:0:0:
154,266,215831,1,0,1:0:0:0:
154,266,215989,2,0,P|184:234|170:131,1,150,0|2,1:0|3:2,3:0:0:0:
211,54,216463,1,4,1:2:0:0:
375,139,216779,6,0,L|301:148,1,75,4|0,1:3|3:0,3:0:0:0:
420,67,217094,1,0,1:2:0:0:
420,67,217252,2,0,L|399:224,1,150,0|2,1:0|3:2,3:0:0:0:
477,264,217726,1,2,1:2:0:0:
399,309,217884,2,0,P|382:350|376:384,1,75,4|0,1:0|3:0,3:0:0:0:
300,333,218200,1,0,1:0:0:0:
215,363,218358,1,8,1:0:0:0:
145,308,218515,2,0,L|126:232,1,75,0|0,1:0|1:0,3:0:0:0:
147,147,218831,2,0,P|97:152|59:173,2,75,8|8|0,1:0|1:0|1:0,3:0:0:0:
212,211,219305,6,0,L|310:223,1,75,4|0,1:0|3:0,3:0:0:0:
362,271,219621,1,0,1:0:0:0:
442,230,219779,2,0,P|470:151|430:86,1,150,0|2,1:0|3:2,3:0:0:0:
357,127,220252,1,0,1:0:0:0:
357,127,220410,2,0,L|189:104,1,150,2|0,3:2|3:0,3:0:0:0:
165,186,220884,1,0,1:0:0:0:
165,186,221042,2,0,L|333:209,1,150,0|2,1:0|3:2,3:0:0:0:
370,279,221515,1,4,3:2:0:0:
196,323,221831,6,0,P|149:340|120:357,1,75,4|0,3:0|3:0,3:0:0:0:
27,300,222147,1,0,1:0:0:0:
27,300,222305,2,0,B|75:281|75:281|99:177,1,150,0|2,1:0|3:2,3:0:0:0:
40,114,222779,1,0,1:0:0:0:
105,52,222937,2,0,L|266:75,1,150,4|0,1:0|1:0,3:0:0:0:
342,51,223410,1,8,1:0:0:0:
429,28,223568,2,0,P|473:72|458:172,1,150,0|8,1:0|1:0,3:0:0:0:
408,220,224042,1,8,1:0:0:0:
464,303,224200,5,0,1:0:0:0:
464,303,224279,1,0,1:0:0:0:
464,303,224358,1,4,1:0:0:0:
256,192,224515,12,0,226884,1:0:0:0:
