osu file format v14

[General]
AudioFilename: audio.mp3
AudioLeadIn: 0
PreviewTime: 60817
Countdown: 0
SampleSet: Soft
StackLeniency: 0.7
Mode: 0
LetterboxInBreaks: 0
WidescreenStoryboard: 1

[Editor]
DistanceSpacing: 1.8
BeatDivisor: 4
GridSize: 8
TimelineZoom: 1.8

[Metadata]
Title:petit bonheur
TitleUnicode:petit bonheur
Artist:yuiko
ArtistUnicode:yuiko
Creator:yuniore
Version:Ren`ai
Source:あなたに恋する恋愛ルセット
Tags:yuikonnu ゆいこんぬ Meis Clauson anata ni koisuru ren'ai recette visual novel eroge opening
BeatmapID:2259325
BeatmapSetID:864448

[Difficulty]
HPDrainRate:7
CircleSize:4
OverallDifficulty:9
ApproachRate:9.3
SliderMultiplier:1.8
SliderTickRate:1

[Events]
//Background and Video events
0,0,"maxresdefault 4.jpg",0,0
//Break Periods
//Storyboard Layer 0 (Background)
//Storyboard Layer 1 (Fail)
//Storyboard Layer 2 (Pass)
//Storyboard Layer 3 (Foreground)
//Storyboard Layer 4 (Overlay)
//Storyboard Sound Samples

[TimingPoints]
-16,333.333333333333,4,2,43,20,1,0
983,-133.333333333333,4,2,43,20,0,0
1317,-133.333333333333,4,2,43,30,0,0
2650,-133.333333333333,4,2,43,35,0,0
9317,-133.333333333333,4,2,43,35,0,0
15983,-285.714285714284,4,2,43,35,0,0
17317,-200,4,2,43,40,0,0
18317,-100,4,2,1,40,0,0
18650,-100,4,2,1,60,0,0
27650,-100,4,2,1,60,0,0
27983,-80,4,2,1,60,0,0
28483,-66.6666666666667,4,2,1,60,0,0
28817,-100,4,2,56,55,0,0
28983,-57.1428571428571,4,2,56,50,0,0
29150,-100,4,2,56,45,0,0
29317,-133.333333333333,4,2,25,45,0,0
33900,-133.333333333333,4,2,25,5,0,0
33983,-133.333333333333,4,2,25,45,0,0
34233,-133.333333333333,4,2,25,5,0,0
34317,-133.333333333333,4,2,25,45,0,0
38650,-133.333333333333,4,2,1,55,0,0
39150,-133.333333333333,4,2,1,58,0,0
39483,-133.333333333333,4,2,1,55,0,0
39650,-133.333333333333,4,2,1,50,0,0
39983,-117.647058823529,4,2,1,50,0,0
49817,-117.647058823529,4,2,56,45,0,0
50317,-117.647058823529,4,2,56,40,0,0
50650,-222.222222222222,4,2,1,53,0,0
55983,-117.647058823529,4,2,1,53,0,0
58233,-117.647058823529,4,2,1,5,0,0
58317,-117.647058823529,4,2,1,55,0,0
58567,-117.647058823529,4,2,1,5,0,0
58650,-117.647058823529,4,2,1,57,0,0
59150,-117.647058823529,4,2,1,58,0,0
59483,-117.647058823529,4,2,1,59,0,0
59817,-117.647058823529,4,2,1,60,0,0
60150,-117.647058823529,4,2,1,61,0,0
60317,-117.647058823529,4,2,1,62,0,0
60650,-117.647058823529,4,2,1,40,0,0
60983,-117.647058823529,4,2,99,30,0,0
61317,-90.9090909090909,4,2,1,65,0,1
71650,-90.9090909090909,4,2,1,60,0,1
71983,-90.9090909090909,4,2,1,65,0,1
72317,-90.9090909090909,4,2,1,65,0,1
81650,-90.9090909090909,4,2,1,65,0,1
82317,-90.9090909090909,4,2,1,60,0,1
82650,-90.9090909090909,4,2,1,65,0,1
87650,-90.9090909090909,4,2,1,60,0,1
87983,-100,4,2,43,60,0,0
88317,-100,4,2,1,60,0,0
98317,-100,4,2,56,60,0,0
98650,-100,4,2,1,60,0,0
108817,-100,4,2,1,50,0,0
109317,-200,4,2,1,50,0,0

[Colours]
Combo1 : 195,240,222
Combo2 : 251,244,218
Combo3 : 250,200,212
Combo4 : 224,192,229

[HitObjects]
397,89,983,5,0,0:0:0:0:
377,93,1317,2,0,B|306:93|244:77,1,135.000005149842,2|0,0:0|0:0,0:0:0:0:
219,68,1817,1,0,0:0:0:0:
46,51,2150,2,0,P|38:95|45:121,1,67.5000025749208,2|0,0:0|0:0,0:0:0:0:
138,152,2483,2,0,P|146:196|139:222,1,67.5000025749208,0|2,0:0|0:0,0:0:0:0:
356,309,3317,6,0,P|412:342|438:333,2,67.5000025749208,0|0|0,0:0|0:0|0:0,0:0:0:0:
355,266,3817,1,0,0:0:0:0:
296,214,3984,2,0,P|347:187|415:220,1,135.000005149842,2|2,0:0|0:0,0:0:0:0:
412,99,4484,2,0,P|355:130|296:103,1,135.000005149842,2|2,0:0|0:0,0:0:0:0:
354,51,4984,1,0,0:0:0:0:
355,172,5150,5,0,0:0:0:0:
282,270,5317,2,0,P|212:304|137:305,1,135.000005149842,2|0,0:0|0:0,0:0:0:0:
227,209,5817,2,0,P|193:139|192:64,1,135.000005149842,2|0,0:0|0:0,0:0:0:0:
200,51,6317,1,0,0:0:0:0:
315,88,6484,2,0,P|309:121|317:153,1,67.5000025749208,0|2,0:0|0:0,0:0:0:0:
413,189,6817,2,0,P|418:222|410:254,1,67.5000025749208,0|2,0:0|0:0,0:0:0:0:
324,341,7150,1,0,0:0:0:0:
343,220,7317,1,2,0:0:0:0:
66,330,7650,5,2,0:0:0:0:
184,301,7817,1,0,0:0:0:0:
72,253,7983,2,0,B|33:197|33:197|33:119,1,135.000005149842,2|2,0:0|0:0,0:0:0:0:
100,28,8483,2,0,B|139:84|139:84|139:162,1,135.000005149842,2|0,0:0|0:0,0:0:0:0:
140,182,8983,1,0,0:0:0:0:
138,303,9150,6,0,P|132:267|141:232,1,67.5000025749208,0|2,0:0|0:0,0:0:0:0:
269,127,9483,2,0,P|274:91|269:53,2,67.5000025749208
208,266,9983,1,2,0:0:0:0:
91,61,10317,5,0,0:0:0:0:
91,182,10483,1,0,0:0:0:0:
127,65,10650,2,0,P|192:99|204:158,1,135.000005149842,2|2,0:0|0:0,0:0:0:0:
364,64,11150,2,0,P|299:98|287:157,1,135.000005149842,2|0,0:0|0:0,0:0:0:0:
285,185,11650,1,2,0:0:0:0:
406,173,11817,1,0,0:0:0:0:
404,322,11983,6,0,P|369:332|336:319,1,67.5000025749208,2|2,0:0|0:0,0:0:0:0:
218,325,12317,2,0,P|183:335|150:322,1,67.5000025749208,2|2,0:0|0:0,0:0:0:0:
76,232,12650,1,2,0:0:0:0:
183,288,12817,1,2,0:0:0:0:
289,230,12983,1,2,0:0:0:0:
182,174,13150,1,2,0:0:0:0:
46,44,13317,6,0,P|86:39|125:49,1,67.5000025749208,2|2,0:0|0:0,0:0:0:0:
254,42,13650,2,0,P|294:37|333:47,1,67.5000025749208,2|2,0:0|0:0,0:0:0:0:
427,135,13983,1,2,0:0:0:0:
287,108,14150,1,2,0:0:0:0:
155,162,14317,1,2,0:0:0:0:
295,189,14484,1,2,0:0:0:0:
111,277,14650,6,0,P|185:296|248:276,1,135.000005149842,2|2,0:0|0:0,0:0:0:0:
179,175,15150,1,2,0:0:0:0:
80,102,15317,2,0,P|74:59|86:30,1,67.5000025749208,2|2,0:0|0:0,0:0:0:0:
177,109,15650,2,0,P|185:141|178:174,1,67.5000025749208,2|2,0:0|0:0,0:0:0:0:
161,200,15983,1,2,0:0:0:0:
359,327,16317,1,0,0:0:0:0:
364,324,16483,1,0,0:0:0:0:
483,127,16817,1,0,0:0:0:0:
344,69,17317,2,0,B|303:45|261:71|261:71|212:39|159:81,1,180,2|0,0:0|0:0,0:0:0:0:
459,279,18317,5,14,0:0:0:0:
429,299,18400,1,0,0:0:0:0:
395,311,18483,1,0,0:0:0:0:
358,314,18567,1,0,0:0:0:0:
322,309,18650,2,0,B|253:299|198:334|198:334|143:329,1,180,6|10,0:0|0:0,0:0:0:0:
33,213,19150,1,0,0:0:0:0:
184,271,19317,1,0,0:0:0:0:
56,171,19483,1,0,0:0:0:0:
218,180,19650,2,0,P|265:191|312:173,1,90,10|0,0:0|0:0,0:0:0:0:
400,123,19983,6,0,B|386:67|336:53|336:53|256:53,1,180,2|8,0:0|0:0,0:0:0:0:
96,69,20483,1,0,0:0:0:0:
46,223,20650,1,0,0:0:0:0:
161,108,20817,1,0,0:0:0:0:
20,188,20983,1,10,0:0:0:0:
182,188,21150,1,0,0:0:0:0:
182,188,21233,1,0,0:0:0:0:
182,188,21317,1,0,0:0:0:0:
182,188,21650,6,0,B|224:128|203:71|203:71|256:49,1,180,10|0,0:0|0:0,0:0:0:0:
328,194,22150,1,0,0:0:0:0:
426,65,22317,1,10,0:0:0:0:
426,65,22483,1,0,0:0:0:0:
255,51,22650,2,0,B|158:50|158:50|117:74|68:53,1,180,0|10,0:0|0:0,0:0:0:0:
25,147,23150,2,0,B|63:129|104:153|104:153|201:152,1,180,0|0,0:0|0:0,0:0:0:0:
65,271,23650,1,10,0:0:0:0:
231,339,23817,1,0,0:0:0:0:
231,339,23900,1,0,0:0:0:0:
231,339,23983,1,6,0:0:0:0:
231,339,24317,6,0,B|251:282|204:229|204:229|185:184|201:158,1,180,10|0,0:0|0:0,0:0:0:0:
311,283,24817,1,0,0:0:0:0:
150,301,24983,2,0,P|103:313|63:298,1,90,10|0,0:0|0:0,0:0:0:0:
109,199,25317,2,0,B|166:179|219:226|219:226|264:245|290:229,1,180,0|10,0:0|0:0,0:0:0:0:
324,313,25817,2,0,P|363:231|327:155,1,180,0|0,0:0|0:0,0:0:0:0:
187,238,26317,6,0,L|110:188,1,90,10|0,0:0|0:0,0:0:0:0:
104,184,26567,1,0,0:0:0:0:
95,178,26650,1,6,0:0:0:0:
234,83,26817,1,0,0:0:0:0:
187,238,26983,2,0,L|110:288,1,90,10|0,0:0|0:0,0:0:0:0:
33,143,27317,1,0,0:0:0:0:
384,80,27650,6,0,P|337:88|291:80,1,90,10|0,0:0|0:0,0:0:0:0:
384,168,27983,2,0,P|276:183|160:168,1,225,14|0,0:0|0:0,0:0:0:0:
384,256,28483,2,0,P|246:286|112:256,1,270.000010299683,14|0,0:0|0:0,0:0:0:0:
37,80,28983,2,0,L|37:242,1,157.500001502037,14|0,0:0|0:0,0:0:0:0:
124,323,29317,6,0,P|191:316|194:258,1,135.000005149842,10|10,0:0|0:0,0:0:0:0:
82,211,29817,2,0,P|90:149|152:147,1,135.000005149842,0|0,0:0|0:0,0:0:0:0:
195,258,30317,2,0,P|227:265|264:256,1,67.5000025749208,10|0,0:0|0:0,0:0:0:0:
366,198,30650,2,0,P|398:205|435:196,2,67.5000025749208,10|10|10,0:0|0:0|0:0,0:0:0:0:
91,31,31317,5,10,0:0:0:0:
101,47,31483,1,0,0:0:0:0:
245,120,31650,5,10,0:0:0:0:
235,104,31816,1,0,0:0:0:0:
72,113,31983,2,0,B|59:151|63:179|63:179|88:209|136:204,1,135.000005149842,10|10,0:0|0:0,0:0:0:0:
238,106,32483,2,0,B|228:60|228:60|268:32|314:51,1,135.000005149842,10|0,0:0|0:0,0:0:0:0:
425,166,32983,2,0,P|456:133|463:109,2,67.5000025749208,10|10|10,0:0|0:0|0:0,0:0:0:0:
112,306,33650,5,10,0:0:0:0:
120,287,33817,1,0,0:0:0:0:
249,290,33983,5,10,0:0:0:0:
239,271,34150,1,0,0:0:0:0:
350,209,34317,5,10,0:0:0:0:
328,200,34484,1,0,0:0:0:0:
211,167,34650,2,0,P|175:189|155:228,1,67.5000025749208,10|0,0:0|0:0,0:0:0:0:
148,88,34983,2,0,P|112:110|92:149,1,67.5000025749208,10|0,0:0|0:0,0:0:0:0:
211,167,35317,1,10,0:0:0:0:
452,193,35650,5,10,0:0:0:0:
359,271,35817,1,10,0:0:0:0:
240,297,35983,1,0,0:0:0:0:
127,250,36150,2,0,B|81:262|81:262|51:240,2,67.5000025749208,2|10|10,0:0|0:0|0:0,0:0:0:0:
241,209,36650,5,0,0:0:0:0:
359,271,36817,1,2,0:0:0:0:
452,196,36983,1,10,0:0:0:0:
342,142,37150,2,0,P|336:106|343:69,1,67.5000025749208,10|0,0:0|0:0,0:0:0:0:
359,271,37483,5,0,0:0:0:0:
342,142,37650,2,0,P|306:148|269:141,2,67.5000025749208,10|10|0,0:0|0:0|0:0,0:0:0:0:
463,135,38150,1,0,0:0:0:0:
369,52,38317,1,10,0:0:0:0:
310,226,38483,1,10,0:0:0:0:
79,127,38650,5,10,0:0:0:0:
276,171,38817,1,10,0:0:0:0:
463,135,38983,5,10,0:0:0:0:
274,209,39150,1,10,0:0:0:0:
272,246,39483,5,10,0:0:0:0:
83,171,39650,5,14,0:0:0:0:
107,189,39733,1,0,0:0:0:0:
131,207,39817,1,0,0:0:0:0:
154,225,39900,1,0,0:0:0:0:
181,245,39983,2,0,B|212:271|212:271|263:308|328:271,1,153.000002918243,6|10,0:0|0:0,0:0:0:0:
184,167,40483,6,0,P|118:200|108:273,1,153.000002918243,0|0,0:0|0:0,0:0:0:0:
243,248,40983,2,0,P|285:218|294:182,1,76.5000014591217,10|0,0:0|0:0,0:0:0:0:
155,137,41317,1,0,0:0:0:0:
23,230,41484,1,0,0:0:0:0:
243,248,41650,1,10,0:0:0:0:
243,248,41983,6,0,P|234:211|241:173,1,76.5000014591217,0|0,0:0|0:0,0:0:0:0:
397,129,42317,2,0,P|405:92|398:54,1,76.5000014591217,10|0,0:0|0:0,0:0:0:0:
229,30,42650,2,0,P|213:97|245:178,1,153.000002918243,0|10,0:0|0:0,0:0:0:0:
82,147,43150,2,0,P|118:205|197:240,1,153.000002918243,0|0,0:0|0:0,0:0:0:0:
156,82,43650,2,0,P|122:52|75:49,2,76.5000014591217,10|0|0,0:0|0:0|0:0,0:0:0:0:
347,280,44317,5,10,0:0:0:0:
331,296,44483,1,0,0:0:0:0:
193,295,44650,5,0,0:0:0:0:
177,279,44816,1,0,0:0:0:0:
244,158,44983,5,10,0:0:0:0:
267,158,45149,1,0,0:0:0:0:
350,269,45317,6,0,P|314:276|263:262,1,76.5000014591217,6|0,0:0|0:0,0:0:0:0:
137,268,45650,2,0,P|101:275|50:261,1,76.5000014591217,10|0,0:0|0:0,0:0:0:0:
109,137,45983,1,0,0:0:0:0:
109,137,46317,5,10,0:0:0:0:
229,242,46483,1,0,0:0:0:0:
386,206,46650,1,0,0:0:0:0:
250,118,46817,2,0,B|273:83|273:83|309:69,2,76.5000014591217,0|10|0,0:0|0:0|0:0,0:0:0:0:
229,242,47317,5,0,0:0:0:0:
386,206,47483,2,0,B|421:229|421:229|435:265,2,76.5000014591217,0|10|0,0:0|0:0|0:0,0:0:0:0:
238,271,47983,2,0,P|168:311|87:322,1,153.000002918243,0|10,0:0|0:0,0:0:0:0:
185,187,48483,2,0,P|145:117|134:36,1,153.000002918243,0|0,0:0|0:0,0:0:0:0:
288,91,48983,1,10,0:0:0:0:
439,37,49150,1,10,0:0:0:0:
476,193,49317,5,10,0:0:0:0:
324,332,49483,1,10,0:0:0:0:
178,185,49650,1,10,0:0:0:0:
330,46,49816,1,8,0:0:0:0:
205,194,49983,5,8,0:0:0:0:
324,314,50150,1,8,0:0:0:0:
448,201,50316,1,8,0:0:0:0:
325,274,50483,5,8,0:0:0:0:
296,293,50650,2,0,P|256:298|214:293,1,80.9999975280763,6|0,0:0|0:0,0:0:0:0:
130,224,51150,2,0,L|106:183,1,40.4999987640381,0|10,0:0|0:0,0:0:0:0:
34,58,51483,2,0,L|55:93,1,40.4999987640381,0|0,0:0|0:0,0:0:0:0:
161,64,51817,5,0,0:0:0:0:
190,83,51984,2,0,P|230:88|272:83,1,80.9999975280763,0|0,0:0|0:0,0:0:0:0:
374,51,52483,2,0,L|374:105,1,40.4999987640381,0|10,0:0|0:0,0:0:0:0:
376,241,52817,2,0,L|376:201,1,40.4999987640381
372,91,53150,1,0,0:0:0:0:
374,200,53317,6,2,B|305:242,1,80.9999975280763,0|0,0:0|0:0,0:0:0:0:
177,321,53817,2,2,B|143:343,1,40.4999987640381,0|10,0:0|0:0,0:0:0:0:
180,213,54150,1,0,0:0:0:0:
305,242,54317,2,0,B|349:214,2,40.4999987640381,0|0|0,0:0|0:0|0:0,0:0:0:0:
212,300,54817,1,10,0:0:0:0:
88,202,54983,1,0,0:0:0:0:
84,43,55150,1,10,0:0:0:0:
125,195,55317,5,14,0:0:0:0:
276,152,55483,1,0,0:0:0:0:
434,158,55650,5,6,0:0:0:0:
266,110,55816,1,10,0:0:0:0:
112,158,55983,2,0,P|176:200|255:213,1,153.000002918243,6|10,0:0|0:0,0:0:0:0:
387,298,56483,2,0,P|429:234|390:164,1,153.000002918243,6|0,0:0|0:0,0:0:0:0:
285,283,56983,2,0,P|266:251|263:213,1,76.5000014591217,10|0,0:0|0:0,0:0:0:0:
346,102,57317,1,0,0:0:0:0:
431,209,57483,1,0,0:0:0:0:
371,333,57650,1,14,0:0:0:0:
371,333,57983,5,6,0:0:0:0:
141,269,58150,1,0,0:0:0:0:
392,236,58317,5,6,0:0:0:0:
110,332,58483,1,0,0:0:0:0:
36,125,58650,2,0,P|112:104|205:138,1,153.000002918243,6|10,0:0|0:0,0:0:0:0:
314,332,59150,5,10,0:0:0:0:
263,72,59317,1,10,0:0:0:0:
74,291,59483,1,10,0:0:0:0:
125,31,59650,1,10,0:0:0:0:
314,332,59817,1,10,0:0:0:0:
74,291,60150,5,10,0:0:0:0:
369,234,60317,1,10,0:0:0:0:
57,94,60650,5,0,0:0:0:0:
73,109,60733,1,0,0:0:0:0:
93,120,60817,1,0,0:0:0:0:
114,126,60900,1,0,0:0:0:0:
151,131,60983,1,0,0:0:0:0:
185,113,61067,5,0,0:0:0:0:
215,89,61150,1,0,0:0:0:0:
250,74,61233,1,0,0:0:0:0:
299,75,61317,2,0,B|362:72|432:103|432:103|416:141|379:154,1,198.000006042481,0|10,0:0|0:0,0:0:0:0:
198,188,61817,2,0,P|286:236|391:230,1,198.000006042481,0|0,0:0|0:0,0:0:0:0:
200,313,62317,2,0,P|150:286|118:251,1,99.0000030212403,10|0,0:0|0:0,0:0:0:0:
214,80,62650,1,0,0:0:0:0:
433,196,62817,1,2,0:0:0:0:
433,196,62900,1,2,0:0:0:0:
433,196,62983,1,10,0:0:0:0:
433,196,63317,5,0,0:0:0:0:
260,100,63483,1,0,0:0:0:0:
84,191,63650,1,10,0:0:0:0:
261,214,63817,1,0,0:0:0:0:
127,301,63983,2,0,P|227:328|326:329,1,198.000006042481,0|10,0:0|0:0,0:0:0:0:
489,225,64483,2,0,P|389:198|290:197,1,198.000006042481,0|0,0:0|0:0,0:0:0:0:
320,329,64983,1,10,0:0:0:0:
489,225,65150,5,2,0:0:0:0:
489,225,65233,1,2,0:0:0:0:
486,223,65317,2,0,B|465:172|473:123|473:123|459:72|397:64,1,198.000006042481,2|10,0:0|0:0,0:0:0:0:
219,28,65817,2,0,B|240:79|232:128|232:128|246:179|308:187,1,198.000006042481,0|0,0:0|0:0,0:0:0:0:
406,296,66317,2,0,P|349:317|292:314,1,99.0000030212403,10|0,0:0|0:0,0:0:0:0:
193,157,66650,5,6,0:0:0:0:
430,228,66817,1,0,0:0:0:0:
186,266,66983,1,10,0:0:0:0:
284,38,67150,1,2,0:0:0:0:
284,38,67233,1,2,0:0:0:0:
284,38,67317,1,2,0:0:0:0:
284,38,67650,5,10,0:0:0:0:
412,189,67817,1,0,0:0:0:0:
290,344,67983,2,0,B|259:320|211:325|211:325|159:358|84:311,1,198.000006042481,0|10,0:0|0:0,0:0:0:0:
17,198,68483,2,0,B|74:161|126:194|126:194|174:199|205:175,1,198.000006042481,0|0,0:0|0:0,0:0:0:0:
290,344,68983,1,10,0:0:0:0:
290,344,69317,5,14,0:0:0:0:
483,306,69483,1,0,0:0:0:0:
267,269,69650,1,0,0:0:0:0:
481,229,69817,2,0,B|420:237|349:170|271:200,1,198.000006042481,14|0,0:0|0:0,0:0:0:0:
218,275,70317,1,0,0:0:0:0:
222,106,70483,2,0,P|177:198|261:294,1,198.000006042481,14|0,0:0|0:0,0:0:0:0:
307,120,70983,1,0,0:0:0:0:
343,335,71150,1,8,0:0:0:0:
457,149,71317,5,10,0:0:0:0:
444,175,71400,1,2,0:0:0:0:
430,201,71483,2,0,L|403:254,1,49.5000015106202,10|2,0:0|0:0,0:0:0:0:
339,343,71650,6,0,L|315:284,1,49.5000015106202,8|8,0:0|0:0,0:0:0:0:
279,192,71817,1,8,0:0:0:0:
272,153,71900,1,8,0:0:0:0:
279,115,71983,2,0,B|257:59|202:40|202:40|200:107|162:122,1,198.000006042481,6|10,0:0|0:0,0:0:0:0:
94,30,72483,6,0,P|54:126|103:213,1,198.000006042481,0|0,0:0|0:0,0:0:0:0:
245,331,72983,1,10,0:0:0:0:
331,116,73150,1,0,0:0:0:0:
203,209,73317,1,0,0:0:0:0:
439,198,73483,1,2,0:0:0:0:
439,198,73567,1,2,0:0:0:0:
439,198,73650,1,10,0:0:0:0:
439,198,73983,5,0,0:0:0:0:
242,217,74149,1,0,0:0:0:0:
481,120,74316,1,10,0:0:0:0:
275,35,74483,1,0,0:0:0:0:
362,287,74650,2,0,P|270:323|169:277,1,198.000006042481,0|10,0:0|0:0,0:0:0:0:
90,113,75150,2,0,P|180:79|270:115,1,198.000006042481,0|0,0:0|0:0,0:0:0:0:
179,290,75650,1,10,0:0:0:0:
297,130,75817,5,2,0:0:0:0:
297,130,75900,1,2,0:0:0:0:
297,130,75983,2,0,B|396:90|491:129,1,198.000006042481,2|10,0:0|0:0,0:0:0:0:
372,288,76483,2,0,B|274:329|179:290,1,198.000006042481,0|0,0:0|0:0,0:0:0:0:
277,42,76983,1,10,0:0:0:0:
369,288,77150,5,2,0:0:0:0:
369,288,77233,1,2,0:0:0:0:
369,288,77317,1,6,0:0:0:0:
176,246,77483,1,0,0:0:0:0:
399,202,77650,1,10,0:0:0:0:
174,163,77817,1,0,0:0:0:0:
296,345,77983,1,0,0:0:0:0:
296,345,78317,5,10,0:0:0:0:
399,202,78483,1,0,0:0:0:0:
342,36,78650,2,0,P|237:58|152:29,1,198.000006042481,0|10,0:0|0:0,0:0:0:0:
144,207,79150,2,0,P|237:235|332:213,1,198.000006042481,0|0,0:0|0:0,0:0:0:0:
183,116,79650,2,0,L|142:214,1,99.0000030212403,10|0,0:0|0:0,0:0:0:0:
282,320,79983,5,6,0:0:0:0:
359,110,80150,1,0,0:0:0:0:
147,47,80317,1,10,0:0:0:0:
79,295,80483,1,2,0:0:0:0:
79,295,80567,1,2,0:0:0:0:
79,295,80650,1,2,0:0:0:0:
79,295,80983,5,10,0:0:0:0:
272,338,81150,1,0,0:0:0:0:
453,258,81317,2,0,P|367:214|282:257,1,198.000006042481,6|10,0:0|0:0,0:0:0:0:
339,67,81817,2,0,P|248:96|218:187,1,198.000006042481,6|0,0:0|0:0,0:0:0:0:
369,315,82317,1,10,0:0:0:0:
369,315,82650,5,10,0:0:0:0:
126,261,82817,1,0,0:0:0:0:
291,369,82984,5,10,0:0:0:0:
247,96,83150,1,0,0:0:0:0:
198,369,83316,5,10,0:0:0:0:
320,76,83483,1,0,0:0:0:0:
141,328,83650,5,10,0:0:0:0:
399,224,83816,1,0,0:0:0:0:
86,271,83983,5,10,0:0:0:0:
422,319,84150,1,0,0:0:0:0:
93,183,84317,5,10,0:0:0:0:
337,348,84483,1,0,0:0:0:0:
191,93,84650,5,10,0:0:0:0:
232,349,84817,1,0,0:0:0:0:
65,300,84983,5,10,0:0:0:0:
325,72,85150,1,0,0:0:0:0:
325,72,85233,1,0,0:0:0:0:
325,72,85317,1,14,0:0:0:0:
308,329,85483,1,0,0:0:0:0:
68,329,85650,1,10,0:0:0:0:
68,89,85817,1,0,0:0:0:0:
306,90,85983,1,10,0:0:0:0:
363,289,86150,5,0,0:0:0:0:
401,299,86233,1,0,0:0:0:0:
436,280,86316,1,14,0:0:0:0:
452,243,86400,1,0,0:0:0:0:
443,204,86483,1,0,0:0:0:0:
414,176,86566,1,0,0:0:0:0:
377,160,86650,2,0,P|272:190|182:158,1,198.000006042481,10|0,0:0|0:0,0:0:0:0:
72,57,87150,2,0,P|45:150|75:243,1,198.000006042481,10|0,0:0|0:0,0:0:0:0:
280,106,87650,1,14,0:0:0:0:
258,300,87817,1,0,0:0:0:0:
258,300,87900,1,0,0:0:0:0:
258,300,87983,1,14,0:0:0:0:
256,192,88150,12,0,90650,0:0:0:0:
438,302,90983,6,0,P|399:314|344:298,1,90,10|0,0:0|0:0,0:0:0:0:
253,257,91317,2,0,P|214:245|159:261,1,90,0|0,0:0|0:0,0:0:0:0:
76,314,91650,1,10,0:0:0:0:
151,150,91817,1,0,0:0:0:0:
195,323,91983,2,0,P|285:299|368:328,1,180,0|10,0:0|0:0,0:0:0:0:
470,304,92483,2,0,P|496:219|472:134,1,180,0|0,0:0|0:0,0:0:0:0:
404,217,92983,1,10,0:0:0:0:
315,80,93150,5,0,0:0:0:0:
315,80,93233,1,0,0:0:0:0:
315,80,93317,1,6,0:0:0:0:
311,219,93483,2,0,L|312:311,2,90,0|10|0,0:0|0:0|0:0,0:0:0:0:
226,75,93983,1,0,0:0:0:0:
226,75,94317,5,10,0:0:0:0:
97,40,94483,1,0,0:0:0:0:
78,245,94650,2,0,P|52:209|46:165,1,90,0|0,0:0|0:0,0:0:0:0:
97,40,94983,1,10,0:0:0:0:
201,125,95150,2,0,P|229:213|192:301,1,180,0|0,0:0|0:0,0:0:0:0:
96,206,95650,1,10,0:0:0:0:
292,60,95817,5,0,0:0:0:0:
292,60,95900,1,0,0:0:0:0:
292,60,95983,1,6,0:0:0:0:
379,163,96150,1,0,0:0:0:0:
489,84,96317,1,10,0:0:0:0:
434,207,96483,1,0,0:0:0:0:
418,72,96650,1,0,0:0:0:0:
418,72,96983,5,10,0:0:0:0:
315,198,97150,1,0,0:0:0:0:
223,64,97317,2,0,P|199:166|230:234,1,180,14|0,0:0|0:0,0:0:0:0:
174,334,97817,2,0,P|128:308|113:272,1,90,14|0,0:0|0:0,0:0:0:0:
113,248,98067,5,0,0:0:0:0:
119,222,98150,1,0,0:0:0:0:
134,200,98233,1,0,0:0:0:0:
156,184,98317,1,14,0:0:0:0:
182,180,98400,1,0,0:0:0:0:
207,188,98483,1,0,0:0:0:0:
230,202,98567,1,0,0:0:0:0:
251,218,98650,2,0,P|337:253|427:234,1,180,6|10,0:0|0:0,0:0:0:0:
342,161,99150,5,0,0:0:0:0:
269,80,99317,2,0,P|356:64|438:99,1,180,0|10,0:0|0:0,0:0:0:0:
418,234,99817,1,0,0:0:0:0:
311,316,99983,2,0,B|205:334|145:269,1,180,0|10,0:0|0:0,0:0:0:0:
260,198,100483,1,0,0:0:0:0:
367,115,100650,6,0,B|340:75|290:69,1,90,0|0,0:0|0:0,0:0:0:0:
129,166,100983,2,0,B|156:206|206:212,1,90,10|0,0:0|0:0,0:0:0:0:
217,217,101233,1,0,0:0:0:0:
239,219,101317,1,0,0:0:0:0:
348,132,101483,1,0,0:0:0:0:
231,69,101650,1,10,0:0:0:0:
137,238,101816,1,0,0:0:0:0:
293,69,101983,1,0,0:0:0:0:
293,69,102317,5,10,0:0:0:0:
409,135,102483,1,0,0:0:0:0:
277,165,102650,2,0,B|190:136|190:136|173:82|135:62,1,180,0|10,0:0|0:0,0:0:0:0:
12,108,103150,2,0,B|99:137|99:137|116:191|154:211,1,180,0|0,0:0|0:0,0:0:0:0:
276,166,103650,1,10,0:0:0:0:
166,328,103817,5,0,0:0:0:0:
166,328,103901,1,0,0:0:0:0:
166,328,103984,1,6,0:0:0:0:
300,316,104151,1,0,0:0:0:0:
229,201,104317,1,10,0:0:0:0:
234,336,104484,1,0,0:0:0:0:
298,187,104651,1,0,0:0:0:0:
294,183,104983,5,10,0:0:0:0:
131,244,105150,1,0,0:0:0:0:
109,62,105317,2,0,P|200:45|290:65,1,180,0|10,0:0|0:0,0:0:0:0:
383,191,105817,2,0,P|292:208|202:188,1,180
109,62,106317,1,10,0:0:0:0:
285,65,106483,5,0,0:0:0:0:
292,74,106567,1,0,0:0:0:0:
300,84,106650,1,6,0:0:0:0:
317,218,106817,1,0,0:0:0:0:
441,166,106983,1,10,0:0:0:0:
306,148,107150,1,0,0:0:0:0:
441,237,107317,1,0,0:0:0:0:
327,315,107650,6,0,P|282:332|232:301,1,90,10|0,0:0|0:0,0:0:0:0:
364,211,107983,2,0,P|278:235|193:205,1,180,14|10,0:0|0:0,0:0:0:0:
364,105,108483,2,0,P|282:142|200:100,1,180,14|14,0:0|0:0,0:0:0:0:
184,88,108900,1,0,0:0:0:0:
158,79,108983,1,10,0:0:0:0:
132,87,109067,1,10,0:0:0:0:
110,103,109150,1,10,0:0:0:0:
94,125,109233,1,10,0:0:0:0:
90,138,109317,2,0,B|87:228|213:294|213:294|341:252|390:148|342:37|220:105|220:105|143:59|94:124,1,720,14|2,0:0|0:0,0:0:0:0:
