osu file format v14

[General]
AudioFilename: audio.mp3
AudioLeadIn: 0
PreviewTime: 60817
Countdown: 0
SampleSet: Soft
StackLeniency: 0.7
Mode: 0
LetterboxInBreaks: 0
WidescreenStoryboard: 1

[Editor]
DistanceSpacing: 1
BeatDivisor: 4
GridSize: 4
TimelineZoom: 1.2

[Metadata]
Title:petit bonheur
TitleUnicode:petit bonheur
Artist:yuiko
ArtistUnicode:yuiko
Creator:yuniore
Version:Normal
Source:あなたに恋する恋愛ルセット
Tags:yuikonnu ゆいこんぬ Meis Clauson anata ni koisuru ren'ai recette visual novel eroge opening
BeatmapID:1807907
BeatmapSetID:864448

[Difficulty]
HPDrainRate:4
CircleSize:3.5
OverallDifficulty:4
ApproachRate:5
SliderMultiplier:1.2
SliderTickRate:1

[Events]
//Background and Video events
0,0,"maxresdefault 4.jpg",0,0
//Break Periods
//Storyboard Layer 0 (Background)
//Storyboard Layer 1 (Fail)
//Storyboard Layer 2 (Pass)
//Storyboard Layer 3 (Foreground)
//Storyboard Layer 4 (Overlay)
//Storyboard Sound Samples

[TimingPoints]
-16,333.333333333333,4,2,43,20,1,0
983,-133.333333333333,4,2,43,20,0,0
1317,-133.333333333333,4,2,43,30,0,0
2650,-133.333333333333,4,2,43,35,0,0
3317,-133.333333333333,4,2,43,30,0,0
9317,-133.333333333333,4,2,43,35,0,0
10233,-133.333333333333,4,2,43,32,0,0
11983,-133.333333333333,4,2,43,32,0,0
15983,-200,4,2,43,32,0,0
17317,-200,4,2,43,40,0,0
18317,-133.333333333333,4,2,1,40,0,0
18650,-133.333333333333,4,2,1,60,0,0
28983,-133.333333333333,4,2,56,50,0,0
29317,-133.333333333333,4,2,25,45,0,0
38650,-133.333333333333,4,2,1,55,0,0
39150,-133.333333333333,4,2,1,58,0,0
39483,-133.333333333333,4,2,1,55,0,0
39650,-133.333333333333,4,2,1,50,0,0
39983,-117.647058823529,4,2,1,50,0,0
50317,-117.647058823529,4,2,56,40,0,0
50650,-133.333333333333,4,2,56,53,0,0
55317,-133.333333333333,4,2,1,53,0,0
55983,-117.647058823529,4,2,1,53,0,0
58233,-117.647058823529,4,2,1,5,0,0
58317,-117.647058823529,4,2,1,55,0,0
58567,-117.647058823529,4,2,1,5,0,0
58650,-117.647058823529,4,2,1,57,0,0
59650,-117.647058823529,4,2,1,59,0,0
59817,-117.647058823529,4,2,1,60,0,0
60150,-117.647058823529,4,2,1,61,0,0
60317,-117.647058823529,4,2,1,62,0,0
60983,-117.647058823529,4,2,99,50,0,0
61317,-111.111111111111,4,2,1,65,0,1
68317,-111.111111111111,4,2,1,55,0,1
68483,-111.111111111111,4,2,1,55,0,1
68817,-111.111111111111,4,2,1,60,0,1
71650,-111.111111111111,4,2,1,60,0,1
71983,-111.111111111111,4,2,1,65,0,1
81650,-111.111111111111,4,2,1,65,0,1
82317,-111.111111111111,4,2,1,60,0,1
82650,-111.111111111111,4,2,1,65,0,1
86650,-111.111111111111,4,2,1,65,0,1
87650,-111.111111111111,4,2,1,60,0,1
87983,-117.647058823529,4,2,43,60,0,0
90983,-117.647058823529,4,2,1,60,0,0
98317,-117.647058823529,4,2,56,60,0,0
98650,-117.647058823529,4,2,1,60,0,0
104317,-117.647058823529,4,2,1,60,0,0
105650,-117.647058823529,4,2,1,60,0,0
108817,-117.647058823529,4,2,1,50,0,0

[HitObjects]
126,72,983,5,2,0:0:0:0:
105,159,1317,2,0,P|109:222|203:274,1,180.000006866455,2|2,0:0|0:0,0:0:0:0:
191,185,2317,2,0,B|214:133|214:133|258:116,1,90.0000034332276,2|2,0:0|0:0,0:0:0:0:
394,46,3317,6,0,B|410:105|350:151|350:151|384:206,1,180.000006866455
462,238,4317,2,0,P|428:275|386:291,1,90.0000034332277
253,252,5317,6,0,P|220:196|215:154,1,90.0000034332276,2|2,0:0|0:0,0:0:0:0:
305,177,5983,2,0,P|293:133|267:97,1,90.0000034332276,2|2,0:0|0:0,0:0:0:0:
177,87,6650,1,2,0:0:0:0:
62,225,7317,1,2,0:0:0:0:
96,308,7650,5,2,0:0:0:0:
185,310,7983,2,0,B|292:308|292:308|353:257,1,180.000006866455,2|2,0:0|0:0,0:0:0:0:
318,175,8983,2,0,P|261:164|229:178,1,90.0000034332276,2|2,0:0|0:0,0:0:0:0:
80,271,9983,1,2,0:0:0:0:
179,122,10650,6,0,B|194:65|194:65|231:33|295:56|278:115,1,180.000006866455,2|2,0:0|0:0,0:0:0:0:
239,180,11650,1,2,0:0:0:0:
295,250,11983,1,2,0:0:0:0:
95,55,12650,6,0,P|74:108|90:153,1,90.0000034332276,2|2,0:0|0:0,0:0:0:0:
169,121,13317,2,0,P|190:174|167:212,1,90.0000034332276,2|2,0:0|0:0,0:0:0:0:
142,283,13983,2,0,P|188:295|235:276,1,90.0000034332277,2|2,0:0|0:0,0:0:0:0:
271,203,14650,2,0,P|319:190|356:204,1,90.0000034332276,2|2,0:0|0:0,0:0:0:0:
422,264,15317,1,2,0:0:0:0:
345,111,15983,6,0,B|287:89|232:119|232:119|210:149|210:149|174:136|126:150,1,240
182,302,18317,5,14,0:0:0:0:
128,229,18650,2,0,P|108:173|117:126,1,90.0000034332276,0|10,0:0|0:0,0:0:0:0:
198,165,19317,2,0,P|199:120|180:79,1,90.0000034332276,0|10,0:0|0:0,0:0:0:0:
105,31,19983,1,0,0:0:0:0:
51,103,20317,1,10,0:0:0:0:
120,160,20650,2,0,P|112:184|95:198,2,45.0000017166138,0|0|10,0:0|0:0|0:0,0:0:0:0:
169,84,21317,6,0,P|220:71|264:93,1,90.0000034332277,0|10,0:0|0:0,0:0:0:0:
210,163,21983,1,0,0:0:0:0:
293,197,22317,1,10,0:0:0:0:
382,196,22650,2,0,B|393:230|368:272|316:311|261:287,1,180.000006866455,6|0,0:0|0:0,0:0:0:0:
211,216,23650,1,10,0:0:0:0:
126,246,23983,2,0,P|90:149|125:64,1,180.000006866455,6|0,0:0|0:0,0:0:0:0:
188,31,24983,5,10,0:0:0:0:
269,69,25317,2,0,P|326:85|372:66,1,90.0000034332276,0|10,0:0|0:0,0:0:0:0:
399,71,25817,2,0,P|414:128|397:172,1,90.0000034332276
378,192,26317,1,10,0:0:0:0:
289,178,26650,2,0,B|236:139|192:169|192:169|211:215|184:250,1,180.000006866455,6|0,0:0|0:0,0:0:0:0:
107,203,27650,1,10,0:0:0:0:
63,124,27983,1,6,0:0:0:0:
118,52,28317,2,0,L|167:38,1,45.0000017166138,10|6,0:0|0:0,0:0:0:0:
224,103,28817,2,0,L|164:122,1,45.0000017166138,10|6,0:0|0:0,0:0:0:0:
140,196,29317,6,0,B|209:240|275:196|275:196|309:206,1,180.000006866455,10|10,0:0|0:0,0:0:0:0:
366,136,30317,1,10,0:0:0:0:
306,68,30650,2,0,B|223:101|173:66|173:66|131:82,1,180.000006866455,10|10,0:0|0:0,0:0:0:0:
105,165,31650,1,10,0:0:0:0:
39,226,31983,2,0,B|76:291|162:247|162:247|200:270,1,180.000006866455,10|10,0:0|0:0,0:0:0:0:
281,293,32983,1,10,0:0:0:0:
341,226,33317,1,10,0:0:0:0:
302,144,33650,6,0,P|330:132|398:155,2,90.0000034332277,10|10|10,0:0|0:0|0:0,0:0:0:0:
240,209,34650,2,0,P|211:220|144:198,2,90.0000034332277,10|10|10,0:0|0:0|0:0,0:0:0:0:
255,80,35650,6,0,L|156:79,1,90.0000034332277,10|10,0:0|0:0,0:0:0:0:
130,162,36317,2,0,L|219:162,1,90.0000034332277,10|10,0:0|0:0,0:0:0:0:
243,248,36983,2,0,P|199:254|149:248,1,90.0000034332277,10|10,0:0|0:0,0:0:0:0:
156,339,37650,2,0,P|200:343|245:337,1,90.0000034332277,10|10,0:0|0:0,0:0:0:0:
338,343,38317,6,0,P|369:309|389:262,1,90.0000034332277,10|10,0:0|0:0,0:0:0:0:
350,187,38983,1,10,0:0:0:0:
274,137,39317,2,0,P|277:89|296:49,1,90.0000034332277,10|14,0:0|0:0,0:0:0:0:
189,64,39983,6,0,P|128:78|96:118,1,102.000001945496,6|0,0:0|0:0,0:0:0:0:
187,160,40650,1,2,0:0:0:0:
103,217,40983,2,0,P|140:250|189:258,1,102.000001945496
275,202,41650,1,0,0:0:0:0:
340,280,41983,6,0,P|398:263|426:235,1,102.000001945496,2|0,0:0|0:0,0:0:0:0:
426,132,42650,2,0,P|368:149|340:177,1,102.000001945496,2|0,0:0|0:0,0:0:0:0:
258,114,43317,1,2,0:0:0:0:
170,62,43650,2,0,P|157:109|170:163,1,102.000001945496,0|2,0:0|0:0,0:0:0:0:
78,207,44317,6,0,P|85:274|101:309,2,102.000001945496,0|2|0,0:0|0:0|0:0,0:0:0:0:
108,109,45317,2,0,P|148:70|211:64,1,102.000001945496,2|2,0:0|0:0,0:0:0:0:
259,137,45983,1,2,0:0:0:0:
210,226,46317,6,0,L|244:279,1,51.0000009727478,2|2,0:0|0:0,0:0:0:0:
305,192,46817,2,0,L|333:234,2,51.0000009727478,2|2|0,0:0|0:0|0:0,0:0:0:0:
265,98,47483,1,2,0:0:0:0:
224,66,47650,2,0,P|168:56|113:71,1,102.000001945496,2|2,0:0|0:0,0:0:0:0:
118,188,48317,2,0,P|152:222|207:252,1,102.000001945496,2|2,0:0|0:0,0:0:0:0:
276,183,48983,1,0,0:0:0:0:
374,211,49317,2,0,P|395:257|375:307,2,102.000001945496,10|10|10,0:0|0:0|0:0,0:0:0:0:
458,162,50317,1,10,0:0:0:0:
410,83,50650,6,0,B|363:83|363:83|319:115|271:82|271:82|237:82,1,180.000006866455,14|2,0:0|0:0,0:0:0:0:
176,148,51650,1,2,0:0:0:0:
162,236,51983,2,0,B|209:236|209:236|253:204|301:237|301:237|335:237,1,180.000006866455,14|2,0:0|0:0,0:0:0:0:
406,181,52983,1,0,0:0:0:0:
448,260,53317,2,0,B|448:307|428:332|428:332|369:345|320:328,1,180.000006866455,10|2,0:0|0:0,0:0:0:0:
253,274,54317,1,10,0:0:0:0:
202,199,54650,1,10,0:0:0:0:
278,151,54983,1,10,0:0:0:0:
229,55,55317,6,0,P|246:47|280:51,2,45.0000017166138,2|2|2,0:0|0:0|0:0,0:0:0:0:
154,147,55983,2,0,B|132:222|190:243|190:243|230:225|230:225|277:258,1,204.000003890991,6|0,0:0|0:0,0:0:0:0:
358,295,56983,1,2,0:0:0:0:
436,229,57317,1,2,0:0:0:0:
411,130,57650,1,2,0:0:0:0:
318,87,57983,6,0,P|268:78|213:89,2,102.000001945496
350,183,58983,2,0,P|347:249|309:281,1,102.000001945496
223,286,59650,2,0,P|188:277|174:252,1,51.0000009727478,10|10,0:0|0:0,0:0:0:0:
238,183,60150,2,0,P|219:166|194:163,1,51.0000009727478,10|10,0:0|0:0,0:0:0:0:
98,102,60983,5,2,0:0:0:0:
200,66,61317,2,0,P|283:43|391:108,1,215.999993408203,6|0,0:0|0:0,0:0:0:0:
284,132,62317,1,10,0:0:0:0:
179,160,62650,2,0,P|265:219|368:199,1,215.999993408203
386,91,63650,6,0,B|345:74|345:74|274:74,1,107.999996704102,10|0,0:0|0:0,0:0:0:0:
174,92,64317,1,10,0:0:0:0:
206,194,64650,2,0,P|236:223|266:229,1,53.9999983520508
299,239,64983,1,10,0:0:0:0:
396,191,65317,2,0,P|408:249|389:302,1,107.999996704102,0|10,0:0|0:0,0:0:0:0:
290,325,65983,2,0,L|233:303,1,53.9999983520508
187,288,66317,1,10,0:0:0:0:
83,319,66650,2,0,B|60:255|60:255|128:214|133:134,1,215.999993408203,6|0,0:0|0:0,0:0:0:0:
223,73,67650,6,0,P|278:60|331:74,1,107.999996704102,10|0,0:0|0:0,0:0:0:0:
393,157,68317,2,0,P|365:185|340:193,1,53.9999983520508,10|10,0:0|0:0,0:0:0:0:
244,184,68817,2,0,P|220:171|203:150,1,53.9999983520508,10|10,0:0|0:0,0:0:0:0:
112,69,69317,6,0,B|57:91|54:176,1,107.999996704102,14|0,0:0|0:0,0:0:0:0:
57,208,69817,2,0,L|142:280,1,107.999996704102,14|0,0:0|0:0,0:0:0:0:
210,313,70317,1,0,0:0:0:0:
279,271,70483,2,0,P|311:188|286:119,1,161.999995056153,14|10,0:0|0:0,0:0:0:0:
205,191,71317,1,10,0:0:0:0:
149,98,71650,5,0,0:0:0:0:
54,150,71983,2,0,B|25:215|55:258|55:258|115:232|171:263,1,215.999993408203,6|0,0:0|0:0,0:0:0:0:
240,188,72983,2,0,P|291:155|353:158,1,107.999996704102,10|0,0:0|0:0,0:0:0:0:
323,261,73650,1,10,0:0:0:0:
428,239,73983,2,0,P|424:274|414:296,1,53.9999983520508
380,331,74317,1,10,0:0:0:0:
272,333,74650,2,0,B|212:333|212:333|167:316,1,107.999996704102,0|10,0:0|0:0,0:0:0:0:
237,233,75317,2,0,P|269:218|281:202,1,53.9999983520508
287,150,75650,1,10,0:0:0:0:
180,168,75983,6,0,P|154:138|156:68,1,107.999996704102,0|10,0:0|0:0,0:0:0:0:
164,53,76483,2,0,P|225:56|280:35,1,107.999996704102
322,35,76983,1,10,0:0:0:0:
412,93,77317,2,0,P|439:141|435:201,2,107.999996704102,6|10|0,0:0|0:0|0:0,0:0:0:0:
310,129,78317,5,10,0:0:0:0:
354,227,78650,2,0,P|329:275|260:279,1,107.999996704102,0|10,0:0|0:0,0:0:0:0:
240,249,79150,2,0,P|210:214|149:204,1,107.999996704102
100,221,79650,2,0,P|72:169|97:115,1,107.999996704102,10|6,0:0|0:0,0:0:0:0:
156,42,80317,2,0,P|206:58|242:98,1,107.999996704102,10|0,0:0|0:0,0:0:0:0:
222,204,80983,5,10,0:0:0:0:
119,238,81317,2,0,P|144:187|148:133,1,107.999996704102,14|10,0:0|0:0,0:0:0:0:
142,82,81817,2,0,P|182:47|244:46,1,107.999996704102,14|0,0:0|0:0,0:0:0:0:
282,68,82317,1,10,0:0:0:0:
370,82,82650,6,0,P|387:142|378:188,1,107.999996704102,10|10,0:0|0:0,0:0:0:0:
275,153,83317,1,10,0:0:0:0:
206,262,83650,1,10,0:0:0:0:
151,144,83983,1,10,0:0:0:0:
56,233,84317,1,10,0:0:0:0:
131,309,84650,2,0,B|111:336|111:336|87:345,2,53.9999983520508,10|0|10,0:0|0:0|0:0,0:0:0:0:
223,252,85317,6,0,P|272:228|291:176,1,107.999996704102,10|10,0:0|0:0,0:0:0:0:
269,74,85983,2,0,P|229:92|211:119,2,53.9999983520508,10|0|10,0:0|0:0|0:0,0:0:0:0:
375,92,86650,2,0,P|418:128|432:181,1,107.999996704102,14|0,0:0|0:0,0:0:0:0:
430,230,87150,2,0,P|407:302|368:333,1,107.999996704102,14|0,0:0|0:0,0:0:0:0:
337,349,87650,1,10,0:0:0:0:
256,192,87983,12,0,89650,0:0:0:0:
100,73,89983,6,0,P|88:129|100:184,1,102.000001945496,0|10,0:0|0:0,0:0:0:0:
190,135,90650,2,0,P|193:196|181:255,1,102.000001945496,0|10,0:0|0:0,0:0:0:0:
131,322,91317,2,0,P|88:326|69:318,2,51.0000009727478,0|0|10,0:0|0:0|0:0,0:0:0:0:
225,283,91983,1,0,0:0:0:0:
318,323,92317,1,10,0:0:0:0:
412,285,92650,2,0,P|433:319|434:345,2,51.0000009727478,0|0|10,0:0|0:0|0:0,0:0:0:0:
327,227,93317,2,0,P|308:175|321:125,1,102.000001945496,6|10,0:0|0:0,0:0:0:0:
257,49,93983,2,0,P|237:92|232:111,1,51.0000009727478
216,142,94317,1,10,0:0:0:0:
207,243,94650,5,0,0:0:0:0:
132,312,94983,1,10,0:0:0:0:
117,210,95317,2,0,L|134:161,1,51.0000009727478
153,114,95650,1,10,0:0:0:0:
251,87,95983,2,0,P|253:137|230:183,2,102.000001945496,6|10|0,0:0|0:0|0:0,0:0:0:0:
350,63,96983,6,0,P|371:96|378:120,1,51.0000009727478,10|0,0:0|0:0,0:0:0:0:
394,154,97317,2,0,P|406:216|406:263,1,102.000001945496,14|0,0:0|0:0,0:0:0:0:
395,304,97817,2,0,P|365:337|309:342,1,102.000001945496,14|0,0:0|0:0,0:0:0:0:
264,319,98317,2,0,P|209:306|156:318,1,102.000001945496,14|0,0:0|0:0,0:0:0:0:
67,342,98983,5,10,0:0:0:0:
63,239,99317,2,0,P|34:258|12:290,2,51.0000009727478,0|0|10,0:0|0:0|0:0,0:0:0:0:
152,190,99983,2,0,P|211:181|257:190,1,102.000001945496,0|10,0:0|0:0,0:0:0:0:
212,282,100650,2,0,P|278:290|313:282,1,102.000001945496,0|10,0:0|0:0,0:0:0:0:
387,213,101317,2,0,P|421:259|426:314,2,102.000001945496,6|10|0,0:0|0:0|0:0,0:0:0:0:
317,137,102317,6,0,P|303:114|280:97,1,51.0000009727478,10|0,0:0|0:0,0:0:0:0:
238,76,102650,2,0,P|183:70|132:75,1,102.000001945496,0|10,0:0|0:0,0:0:0:0:
100,110,103150,2,0,P|72:159|72:211,1,102.000001945496
97,246,103650,1,10,0:0:0:0:
167,319,103983,6,0,P|105:341|54:346,2,102.000001945496,6|10|0,0:0|0:0|0:0,0:0:0:0:
246,255,104983,2,0,P|317:244|363:263,1,102.000001945496,10|0,0:0|0:0,0:0:0:0:
429,195,105650,1,10,0:0:0:0:
352,127,105983,2,0,P|326:137|295:138,1,51.0000009727478
251,137,106317,1,10,0:0:0:0:
154,104,106650,2,0,P|90:91|53:107,2,102.000001945496,6|10|0,0:0|0:0|0:0,0:0:0:0:
163,205,107650,6,0,P|171:248|180:267,1,51.0000009727478,10|0,0:0|0:0,0:0:0:0:
198,298,107983,2,0,P|249:316|302:309,1,102.000001945496,14|0,0:0|0:0,0:0:0:0:
342,289,108483,2,0,P|392:264|408:217,1,102.000001945496,14|0,0:0|0:0,0:0:0:0:
408,172,108983,1,14,0:0:0:0:
256,192,109317,12,2,111983,0:0:0:0:
