osu file format v14

[General]
AudioFilename: audio.mp3
AudioLeadIn: 0
PreviewTime: 60817
Countdown: 0
SampleSet: Soft
StackLeniency: 0.7
Mode: 0
LetterboxInBreaks: 0
WidescreenStoryboard: 1

[Editor]
DistanceSpacing: 1.5
BeatDivisor: 4
GridSize: 8
TimelineZoom: 1.4

[Metadata]
Title:petit bonheur
TitleUnicode:petit bonheur
Artist:yuiko
ArtistUnicode:yuiko
Creator:yuniore
Version:Hard
Source:あなたに恋する恋愛ルセット
Tags:yuikonnu ゆいこんぬ Meis Clauson anata ni koisuru ren'ai recette visual novel eroge opening
BeatmapID:2255043
BeatmapSetID:864448

[Difficulty]
HPDrainRate:4
CircleSize:3.8
OverallDifficulty:6
ApproachRate:7.5
SliderMultiplier:1.2
SliderTickRate:1

[Events]
//Background and Video events
0,0,"maxresdefault 4.jpg",0,0
//Break Periods
//Storyboard Layer 0 (Background)
//Storyboard Layer 1 (Fail)
//Storyboard Layer 2 (Pass)
//Storyboard Layer 3 (Foreground)
//Storyboard Layer 4 (Overlay)
//Storyboard Sound Samples

[TimingPoints]
-16,333.333333333333,4,2,43,20,1,0
983,-133.333333333333,4,2,43,20,0,0
1317,-133.333333333333,4,2,43,30,0,0
2650,-133.333333333333,4,2,43,35,0,0
3317,-133.333333333333,4,2,43,30,0,0
9317,-133.333333333333,4,2,43,35,0,0
10233,-133.333333333333,4,2,43,32,0,0
11983,-133.333333333333,4,2,43,32,0,0
15983,-200,4,2,43,32,0,0
17317,-200,4,2,43,40,0,0
18317,-100,4,2,1,40,0,0
18650,-100,4,2,1,60,0,0
28983,-100,4,2,56,50,0,0
29317,-133.333333333333,4,2,25,45,0,0
38650,-100,4,2,1,55,0,0
39150,-100,4,2,1,58,0,0
39483,-100,4,2,1,55,0,0
39650,-100,4,2,1,50,0,0
39983,-105.263157894737,4,2,1,50,0,0
50317,-105.263157894737,4,2,56,40,0,0
50650,-133.333333333333,4,2,56,53,0,0
55317,-133.333333333333,4,2,1,53,0,0
55983,-117.647058823529,4,2,1,53,0,0
58233,-117.647058823529,4,2,1,5,0,0
58317,-117.647058823529,4,2,1,55,0,0
58567,-117.647058823529,4,2,1,5,0,0
58650,-117.647058823529,4,2,1,57,0,0
59650,-117.647058823529,4,2,1,59,0,0
59817,-117.647058823529,4,2,1,60,0,0
60150,-117.647058823529,4,2,1,61,0,0
60317,-117.647058823529,4,2,1,62,0,0
60983,-117.647058823529,4,2,99,50,0,0
61317,-100,4,2,1,65,0,1
68317,-100,4,2,1,55,0,1
68483,-100,4,2,1,55,0,1
68817,-100,4,2,1,60,0,1
71650,-100,4,2,1,60,0,1
71983,-100,4,2,1,65,0,1
81650,-100,4,2,1,65,0,1
82317,-100,4,2,1,60,0,1
82650,-100,4,2,1,65,0,1
86650,-100,4,2,1,65,0,1
87650,-100,4,2,1,60,0,1
87983,-100,4,2,43,60,0,0
90983,-100,4,2,1,60,0,0
98317,-100,4,2,56,60,0,0
98650,-100,4,2,1,60,0,0
104317,-100,4,2,1,60,0,0
105650,-100,4,2,1,60,0,0
108817,-100,4,2,1,50,0,0

[HitObjects]
92,69,983,5,2,0:0:0:0:
47,147,1317,2,0,P|35:188|52:237,1,90.0000034332277,2|2,0:0|0:0,0:0:0:0:
77,266,1817,1,2,0:0:0:0:
166,262,2150,2,0,B|196:214|126:180|180:124,1,135.000005149841,2|2,0:0|0:0,0:0:0:0:
321,32,3317,5,2,0:0:0:0:
391,88,3650,1,2,0:0:0:0:
466,39,3983,2,0,P|484:109|471:142,1,90.0000034332277,2|2,0:0|0:0,0:0:0:0:
457,162,4483,2,0,P|440:210|447:260,1,90.0000034332277,2|2,0:0|0:0,0:0:0:0:
389,320,5150,5,2,0:0:0:0:
344,326,5317,2,0,P|294:332|253:323,1,90.0000034332277,2|2,0:0|0:0,0:0:0:0:
223,292,5817,2,0,P|213:249|228:202,1,90.0000034332277,2|2,0:0|0:0,0:0:0:0:
341,163,6650,2,0,L|438:163,2,90.0000034332277,2|2|2,0:0|0:0|0:0,0:0:0:0:
386,241,7650,5,2,0:0:0:0:
390,151,7983,2,0,B|390:95|390:95|364:67,1,90.0000034332277,2|2,0:0|0:0,0:0:0:0:
323,82,8483,2,0,P|272:92|236:75,1,90.0000034332277,2|2,0:0|0:0,0:0:0:0:
106,47,9317,2,0,L|17:18,2,90.0000034332277,2|2|2,0:0|0:0|0:0,0:0:0:0:
196,47,10317,5,2,0:0:0:0:
285,50,10650,2,0,P|325:40|374:53,1,90.0000034332277,2|2,0:0|0:0,0:0:0:0:
410,74,11150,2,0,B|425:114|425:114|425:172,1,90.0000034332277,2|2,0:0|0:0,0:0:0:0:
423,206,11650,1,2,0:0:0:0:
364,274,11983,5,2,0:0:0:0:
347,309,12150,1,2,0:0:0:0:
322,329,12317,2,0,L|272:329,1,45.0000017166138,2|2,0:0|0:0,0:0:0:0:
231,329,12650,1,2,0:0:0:0:
141,329,12983,1,2,0:0:0:0:
138,228,13317,5,2,0:0:0:0:
154,190,13483,1,2,0:0:0:0:
183,172,13650,2,0,L|228:172,1,45.0000017166138,2|2,0:0|0:0,0:0:0:0:
274,172,13983,1,2,0:0:0:0:
363,176,14317,1,2,0:0:0:0:
354,79,14650,2,0,B|293:66|293:66|267:90|267:90|218:63|203:100|203:100|160:71|107:93,1,270.000010299683,2|2,0:0|0:0,0:0:0:0:
53,197,15983,5,2,0:0:0:0:
76,298,16317,1,2,0:0:0:0:
104,306,16483,1,2,0:0:0:0:
206,308,16817,1,2,0:0:0:0:
324,307,17317,2,0,B|314:286|287:274|287:274|287:224|287:224|311:217|324:192,1,150
396,139,18317,6,0,L|432:139,3,30
468,123,18650,2,0,B|495:75|495:75|486:44|445:34,1,120,0|10,0:0|0:0,0:0:0:0:
267,44,19317,5,0,0:0:0:0:
224,123,19483,1,0,0:0:0:0:
175,198,19650,2,0,B|153:233|153:233|128:242,1,60,10|0,0:0|0:0,0:0:0:0:
63,184,19983,2,0,P|74:122|141:87,1,120,0|10,0:0|0:0,0:0:0:0:
291,41,20650,5,0,0:0:0:0:
328,122,20817,1,0,0:0:0:0:
366,202,20983,2,0,B|386:232|386:232|391:263,1,60,10|0,0:0|0:0,0:0:0:0:
333,326,21317,2,0,P|268:340|211:323,1,120,0|10,0:0|0:0,0:0:0:0:
323,181,21983,6,0,L|357:125,1,60
323,44,22317,1,10,0:0:0:0:
253,100,22483,1,0,0:0:0:0:
197,171,22650,2,0,P|184:231|201:290,1,120,0|10,0:0|0:0,0:0:0:0:
128,342,23150,2,0,P|101:284|100:218,1,120
98,138,23650,1,10,0:0:0:0:
277,141,23983,2,0,B|307:187|307:187|308:262,2,120,6|10|0,0:0|0:0|0:0,0:0:0:0:
117,56,24983,6,0,P|110:100|126:134,1,60,10|0,0:0|0:0,0:0:0:0:
174,182,25317,2,0,P|225:126|227:75,1,120,0|10,0:0|0:0,0:0:0:0:
317,33,25817,2,0,P|383:28|449:41,1,120
464,122,26317,1,10,0:0:0:0:
306,208,26650,2,0,P|285:148|297:76,2,120,6|10|0,0:0|0:0|0:0,0:0:0:0:
272,339,27650,5,0,0:0:0:0:
208,275,27817,1,0,0:0:0:0:
140,333,27983,2,0,P|76:312|64:257,1,120,14|0,0:0|0:0,0:0:0:0:
63,176,28483,2,0,B|63:111|63:111|78:81|130:82,1,120,14|0,0:0|0:0,0:0:0:0:
198,84,28983,1,14,0:0:0:0:
325,39,29317,6,0,P|368:48|417:38,1,90.0000034332277
457,90,29817,2,0,P|448:133|458:182,1,90.0000034332277
489,220,30317,1,0,0:0:0:0:
409,292,30650,2,0,L|447:326,2,45.0000017166138
271,272,31317,5,0,0:0:0:0:
247,247,31650,1,0,0:0:0:0:
226,219,31983,2,0,P|212:174|227:132,1,90.0000034332277
276,152,32483,2,0,P|318:165|360:151,1,90.0000034332277
398,113,32983,1,0,0:0:0:0:
472,34,33317,5,0,0:0:0:0:
364,34,33650,1,0,0:0:0:0:
353,40,33983,1,0,0:0:0:0:
341,44,34317,1,0,0:0:0:0:
234,60,34650,2,0,P|179:70|143:59,2,90.0000034332277
422,76,35650,5,0,0:0:0:0:
453,120,35817,2,0,P|463:175|444:224,1,90.0000034332277
423,251,36317,1,0,0:0:0:0:
369,242,36483,2,0,P|314:232|265:251,1,90.0000034332277
256,259,36983,2,0,B|223:295|223:295|169:295,1,90.0000034332277
79,331,37650,5,0,0:0:0:0:
45,288,37817,2,0,P|32:244|54:200,1,90.0000034332277
86,166,38317,1,10,0:0:0:0:
197,109,38650,1,10,0:0:0:0:
202,117,38817,1,10,0:0:0:0:
314,236,39150,1,10,0:0:0:0:
435,118,39483,2,0,L|473:169,2,60,0|10|0,0:0|0:0|0:0,0:0:0:0:
340,43,39983,6,0,P|297:79|272:135,1,113.999996955872,2|10,0:0|0:0,0:0:0:0:
131,85,40483,2,0,P|155:136|199:173,1,113.999996955872
275,211,40983,1,10,0:0:0:0:
343,159,41150,1,0,0:0:0:0:
411,107,41317,2,0,L|461:69,2,56.9999984779358,0|0|10,0:0|0:0|0:0,0:0:0:0:
426,277,41983,6,0,P|409:298|378:308,1,56.9999984779358
250,276,42317,2,0,P|268:297|295:307,1,56.9999984779358,10|0,0:0|0:0,0:0:0:0:
344,135,42650,2,0,P|353:188|339:248,1,113.999996955872,0|10,0:0|0:0,0:0:0:0:
271,194,43150,2,0,P|257:138|266:82,1,113.999996955872
346,52,43650,2,0,L|411:52,2,56.9999984779358,10|0|0,0:0|0:0|0:0,0:0:0:0:
174,49,44317,6,0,P|146:65|128:86,1,56.9999984779358,10|0,0:0|0:0,0:0:0:0:
82,154,44650,2,0,P|63:180|56:207,1,56.9999984779358
59,289,44983,1,10,0:0:0:0:
229,303,45317,2,0,P|284:320|346:298,2,113.999996955872,0|10|0,0:0|0:0|0:0,0:0:0:0:
378,219,46317,6,0,L|413:266,2,56.9999984779358,10|0|0,0:0|0:0|0:0,0:0:0:0:
368,138,46817,2,0,L|425:153,2,56.9999984779358,0|10|0,0:0|0:0|0:0,0:0:0:0:
287,110,47317,1,0,0:0:0:0:
208,142,47483,2,0,L|151:157,2,56.9999984779358,0|10|0,0:0|0:0|0:0,0:0:0:0:
287,110,47983,2,0,B|243:60|243:60|188:58,1,113.999996955872,0|10,0:0|0:0,0:0:0:0:
110,55,48483,2,0,B|50:77|50:149,1,113.999996955872
49,228,48983,1,10,0:0:0:0:
151,316,49317,6,0,L|178:260,1,56.9999984779358,10|10,0:0|0:0,0:0:0:0:
260,291,49650,2,0,L|254:229,1,56.9999984779358,10|10,0:0|0:0,0:0:0:0:
184,184,49983,1,10,0:0:0:0:
264,154,50150,1,10,0:0:0:0:
178,144,50317,1,10,0:0:0:0:
224,29,50650,6,0,L|318:29,1,90.0000034332277,14|0,0:0|0:0,0:0:0:0:
403,30,51150,2,0,L|449:30,3,45.0000017166138,0|10|0|0,0:0|0:0|0:0|0:0,0:0:0:0:
469,122,51817,1,0,0:0:0:0:
415,122,51983,2,0,L|321:122,1,90.0000034332277,10|0,0:0|0:0,0:0:0:0:
236,121,52483,2,0,L|190:121,3,45.0000017166138,0|10|0|0,0:0|0:0|0:0|0:0,0:0:0:0:
278,277,53317,6,0,P|283:232|275:189,1,90.0000034332277,10|0,0:0|0:0,0:0:0:0:
171,275,53817,2,0,P|203:244|223:204,1,90.0000034332277
242,151,54317,1,0,0:0:0:0:
280,79,54483,1,0,0:0:0:0:
198,74,54650,2,0,P|168:80|153:77,1,45.0000017166138,10|0,0:0|0:0,0:0:0:0:
31,55,54983,2,0,P|53:52|74:58,1,45.0000017166138
84,164,55317,5,10,0:0:0:0:
43,233,55483,1,0,0:0:0:0:
109,186,55650,1,0,0:0:0:0:
124,265,55817,1,0,0:0:0:0:
197,210,55983,2,0,B|227:260|201:313,1,102.000001945496,6|0,0:0|0:0,0:0:0:0:
284,353,56483,2,0,B|331:375|381:345,1,102.000001945496
427,305,56983,1,10,0:0:0:0:
453,233,57150,2,0,L|453:172,2,51.0000009727478
453,104,57650,1,10,0:0:0:0:
311,46,57983,5,10,0:0:0:0:
299,54,58317,1,10,0:0:0:0:
284,64,58650,2,0,B|253:89|253:89|220:79|184:93,1,102.000001945496,14|0,0:0|0:0,0:0:0:0:
135,142,59150,1,10,0:0:0:0:
185,199,59317,1,10,0:0:0:0:
307,140,59483,1,10,0:0:0:0:
261,201,59650,1,10,0:0:0:0:
217,264,59817,1,10,0:0:0:0:
355,207,60150,1,10,0:0:0:0:
265,331,60317,1,10,0:0:0:0:
127,263,60650,6,2,L|137:286,3,25.5000004863739
109,228,60983,2,2,L|119:252,3,25.5000004863739
102,214,61317,2,0,P|81:149|101:101,1,120,6|10,0:0|0:0,0:0:0:0:
162,38,61817,2,0,P|217:56|272:35,1,120
330,104,62317,2,0,P|348:159|327:214,1,120,10|0,0:0|0:0,0:0:0:0:
258,156,62817,1,0,0:0:0:0:
291,239,62983,1,10,0:0:0:0:
132,325,63317,6,0,P|90:330|68:319,1,60
46,237,63650,2,0,P|88:232|110:243,1,60,10|0,0:0|0:0,0:0:0:0:
186,272,63983,2,0,B|282:272|282:272|305:294,1,120,0|10,0:0|0:0,0:0:0:0:
371,342,64483,2,0,B|413:283|360:223,1,120
308,163,64983,1,10,0:0:0:0:
383,113,65150,1,0,0:0:0:0:
319,48,65317,2,0,P|249:58|200:47,1,120,0|10,0:0|0:0,0:0:0:0:
201,137,65817,2,0,P|131:147|82:136,1,120
138,65,66317,1,10,0:0:0:0:
87,246,66650,2,0,P|145:256|204:246,2,120,6|10|0,0:0|0:0|0:0,0:0:0:0:
84,65,67650,5,10,0:0:0:0:
263,61,67983,2,0,L|384:52,1,120,0|8,0:0|0:0,0:0:0:0:
417,125,68483,2,0,L|289:132,1,120
219,137,68983,1,10,0:0:0:0:
129,56,69317,6,0,B|85:92|85:92|85:159,1,120,10|0,0:0|0:0,0:0:0:0:
140,226,69817,2,0,B|184:190|184:190|183:124,1,120,10|0,0:0|0:0,0:0:0:0:
237,55,70317,1,0,0:0:0:0:
292,125,70483,2,0,B|292:176|292:176|344:222,1,120,10|0,0:0|0:0,0:0:0:0:
273,264,70983,1,10,0:0:0:0:
153,154,71317,1,14,0:0:0:0:
49,326,71650,5,10,0:0:0:0:
49,297,71983,2,0,B|49:239|49:239|93:193,1,120,14|0,0:0|0:0,0:0:0:0:
158,255,72483,2,0,P|175:200|161:140,1,120
105,69,72983,2,0,P|151:52|220:72,1,120,10|0,0:0|0:0,0:0:0:0:
161,140,73483,1,0,0:0:0:0:
209,204,73650,1,10,0:0:0:0:
282,332,73983,6,0,L|343:332,1,60
474,307,74317,2,0,L|415:307,1,60,10|0,0:0|0:0,0:0:0:0:
347,261,74650,2,0,P|326:203|340:149,1,120,0|10,0:0|0:0,0:0:0:0:
250,180,75150,2,0,P|265:116|303:78,1,120
384,81,75650,1,10,0:0:0:0:
422,152,75817,1,0,0:0:0:0:
385,224,75983,2,0,P|314:231|266:221,1,120,0|10,0:0|0:0,0:0:0:0:
57,216,76483,2,0,P|116:226|176:219,1,120
219,139,76983,1,10,0:0:0:0:
390,93,77317,2,0,B|420:117|420:117|421:212,2,120,0|10|0,0:0|0:0|0:0,0:0:0:0:
236,39,78317,5,10,0:0:0:0:
218,56,78650,2,0,L|117:124,1,120,0|10,0:0|0:0,0:0:0:0:
235,135,79150,2,0,L|135:201,1,120
61,253,79650,1,10,0:0:0:0:
241,241,79983,2,0,L|339:171,2,120,0|10|0,0:0|0:0|0:0,0:0:0:0:
369,342,80983,5,10,0:0:0:0:
336,343,81317,2,0,L|217:344,1,120,14|10,0:0|0:0,0:0:0:0:
133,307,81817,2,0,L|29:247,1,120,14|0,0:0|0:0,0:0:0:0:
24,156,82317,1,14,0:0:0:0:
121,88,82650,6,10,L|186:88,1,60,10|0,0:0|0:0,0:0:0:0:
235,142,82983,1,10,0:0:0:0:
287,80,83150,1,0,0:0:0:0:
358,119,83317,2,10,L|320:167,1,60,10|0,0:0|0:0,0:0:0:0:
389,209,83650,1,10,0:0:0:0:
441,147,83817,1,0,0:0:0:0:
494,83,83983,6,10,L|438:50,1,60,10|0,0:0|0:0,0:0:0:0:
364,50,84317,2,10,L|304:50,1,60,10|0,0:0|0:0,0:0:0:0:
255,111,84650,1,10,0:0:0:0:
204,174,84817,1,0,0:0:0:0:
140,124,84983,1,10,0:0:0:0:
191,61,85150,1,0,0:0:0:0:
112,41,85317,2,10,B|58:67|58:67|58:132,1,120
59,217,85817,1,0,0:0:0:0:
71,305,85983,2,10,B|119:337|119:337|181:337,1,120
268,309,86650,6,0,L|350:309,1,60,10|0,0:0|0:0,0:0:0:0:
418,310,86983,1,10,0:0:0:0:
468,235,87150,2,0,L|468:112,1,120,0|10,0:0|0:0,0:0:0:0:
379,97,87650,1,10,0:0:0:0:
300,141,87817,1,0,0:0:0:0:
266,220,87983,1,14,0:0:0:0:
256,192,88150,12,10,90983,0:0:0:0:
48,51,91317,5,0,0:0:0:0:
81,130,91483,1,0,0:0:0:0:
138,65,91650,2,0,L|201:65,1,60,10|0,0:0|0:0,0:0:0:0:
275,66,91983,2,0,B|352:67|352:67|379:101,1,120,0|10,0:0|0:0,0:0:0:0:
432,173,92483,2,0,B|416:192|416:192|318:192,1,120
239,153,92983,2,0,L|183:111,2,60,10|0|0,0:0|0:0|0:0,0:0:0:0:
110,279,93650,1,10,0:0:0:0:
261,333,93983,5,0,0:0:0:0:
334,308,94150,1,0,0:0:0:0:
398,265,94317,2,0,P|417:237|421:206,1,60,10|0,0:0|0:0,0:0:0:0:
482,145,94650,2,0,P|421:123|364:143,1,120,0|10,0:0|0:0,0:0:0:0:
296,190,95150,2,0,P|235:212|178:192,1,120
235,122,95650,1,10,0:0:0:0:
55,104,95983,2,0,B|94:67|94:67|176:67,2,120,0|10|0,0:0|0:0|0:0,0:0:0:0:
110,275,96983,5,10,0:0:0:0:
177,334,97150,1,0,0:0:0:0:
234,264,97317,2,0,P|269:320|323:323,1,120,14|0,0:0|0:0,0:0:0:0:
317,234,97817,2,0,P|383:229|412:186,1,120,14|0,0:0|0:0,0:0:0:0:
332,144,98317,1,14,0:0:0:0:
421,146,98483,1,2,0:0:0:0:
377,66,98650,6,0,P|314:37|261:37,1,120,0|10,0:0|0:0,0:0:0:0:
203,103,99150,1,0,0:0:0:0:
206,193,99317,2,0,P|227:261|265:294,1,120,0|10,0:0|0:0,0:0:0:0:
175,318,99817,1,0,0:0:0:0:
103,264,99983,2,0,P|61:222|46:164,1,120,0|10,0:0|0:0,0:0:0:0:
135,179,100483,1,0,0:0:0:0:
184,103,100650,2,0,L|229:150,1,60
247,233,100983,1,10,0:0:0:0:
311,169,101150,1,0,0:0:0:0:
383,115,101317,2,0,P|399:183|363:240,2,120,0|10|0,0:0|0:0|0:0,0:0:0:0:
211,59,102317,5,10,0:0:0:0:
126,88,102483,1,0,0:0:0:0:
185,155,102650,2,0,P|123:174|66:154,1,120,0|10,0:0|0:0,0:0:0:0:
73,248,103150,2,0,P|129:263|185:244,1,120
245,177,103650,2,0,L|293:117,2,60,10|0|0,0:0|0:0|0:0,0:0:0:0:
351,31,104317,1,10,0:0:0:0:
438,188,104650,5,0,0:0:0:0:
362,139,104817,1,0,0:0:0:0:
314,215,104983,1,10,0:0:0:0:
390,264,105150,1,0,0:0:0:0:
318,319,105317,2,0,P|254:330|194:319,1,120,0|10,0:0|0:0,0:0:0:0:
130,264,105817,2,0,P|119:200|130:140,1,120
197,202,106317,1,10,0:0:0:0:
384,146,106650,2,0,P|392:205|382:264,2,120,0|10|0,0:0|0:0|0:0,0:0:0:0:
241,35,107650,5,10,0:0:0:0:
241,125,107817,1,0,0:0:0:0:
241,214,107983,2,10,L|241:339,1,120,14|10,0:0|0:0,0:0:0:0:
321,293,108483,2,0,L|321:173,1,120,14|0,0:0|0:0,0:0:0:0:
241,125,108983,1,14,0:0:0:0:
256,192,109317,12,0,111983,0:0:0:0:
