osu file format v14

[General]
AudioFilename: audio.mp3
AudioLeadIn: 0
PreviewTime: 978
Countdown: 0
SampleSet: Soft
StackLeniency: 0.7
Mode: 0
LetterboxInBreaks: 0
WidescreenStoryboard: 1

[Editor]
DistanceSpacing: 1
BeatDivisor: 4
GridSize: 32
TimelineZoom: 1.4

[Metadata]
Title:petit bonheur
TitleUnicode:petit bonheur
Artist:yuiko
ArtistUnicode:yuiko
Creator:Lasse
Version:Normal.
Source:あなたに恋する恋愛ルセット
Tags:yuikonnu ゆいこんぬ Meis Clauson anata ni koisuru ren'ai recette visual novel eroge opening full version
BeatmapID:1322451
BeatmapSetID:627354

[Difficulty]
HPDrainRate:4
CircleSize:3.6
OverallDifficulty:4
ApproachRate:5
SliderMultiplier:1.1
SliderTickRate:1

[Events]
//Background and Video events
0,0,"bg02.jpg",0,0
//Break Periods
2,161353,166653
//Storyboard Layer 0 (Background)
//Storyboard Layer 1 (Fail)
//Storyboard Layer 2 (Pass)
//Storyboard Layer 3 (Foreground)
//Storyboard Sound Samples

[TimingPoints]
20,333.333333333333,4,2,43,20,1,0
1019,-125,4,2,43,20,0,0
1353,-125,4,2,43,30,0,0
11936,-125,4,2,99,5,0,0
12019,-125,4,2,43,32,0,0
16019,-125,4,2,43,35,0,0
16853,-125,4,2,43,38,0,0
17353,-125,4,2,43,40,0,0
17436,-125,4,2,43,10,0,0
18353,-125,4,2,99,40,0,0
18686,-100,4,2,1,60,0,0
20269,-100,4,2,99,5,0,0
20353,-100,4,2,1,60,0,0
22936,-100,4,2,99,5,0,0
23019,-100,4,2,1,60,0,0
28853,-100,4,2,56,55,0,0
29019,-100,4,2,56,50,0,0
29186,-100,4,2,56,45,0,0
29353,-125,4,2,25,45,0,0
38686,-125,4,2,1,55,0,0
39186,-125,4,2,1,58,0,0
39353,-125,4,2,1,30,0,0
39519,-125,4,2,1,55,0,0
39686,-125,4,2,1,50,0,0
40019,-111.111111111111,4,2,1,50,0,0
49853,-111.111111111111,4,2,56,50,0,0
50353,-111.111111111111,4,2,1,50,0,0
50686,-125,4,2,1,53,0,0
55186,-125,4,2,1,43,0,0
55269,-125,4,2,1,48,0,0
55353,-125,4,2,1,53,0,0
55686,-125,4,2,56,50,0,0
55853,-125,4,2,56,47,0,0
56019,-111.111111111111,4,2,1,55,0,0
56269,-111.111111111111,4,2,99,5,0,0
56353,-111.111111111111,4,2,1,55,0,0
57603,-111.111111111111,4,2,99,5,0,0
57687,-111.111111111111,4,2,1,55,0,0
58686,-111.111111111111,4,2,1,57,0,0
59186,-111.111111111111,4,2,1,58,0,0
59519,-111.111111111111,4,2,1,59,0,0
59853,-111.111111111111,4,2,1,60,0,0
60186,-111.111111111111,4,2,1,61,0,0
60353,-111.111111111111,4,2,1,62,0,0
60686,-99.9999999999999,4,2,99,40,0,0
61019,-111.111111111111,4,2,99,50,0,0
61061,-111.111111111111,4,2,99,30,0,0
61103,-111.111111111111,4,2,99,50,0,0
61144,-111.111111111111,4,2,99,30,0,0
61186,-111.111111111111,4,2,99,50,0,0
61228,-111.111111111111,4,2,99,30,0,0
61269,-111.111111111111,4,2,99,50,0,0
61311,-111.111111111111,4,2,99,30,0,0
61353,-90.9090909090909,4,2,1,65,0,1
61603,-90.9090909090909,4,2,99,5,0,1
61686,-90.9090909090909,4,2,1,65,0,1
64269,-90.9090909090909,4,2,99,5,0,1
64352,-90.9090909090909,4,2,1,65,0,1
65603,-90.9090909090909,4,2,99,5,0,1
65686,-90.9090909090909,4,2,1,65,0,1
68269,-90.9090909090909,4,2,99,5,0,1
68353,-90.9090909090909,4,2,1,65,0,1
69353,-90.9090909090909,4,2,1,66,0,1
69686,-90.9090909090909,4,2,1,67,0,1
70019,-90.9090909090909,4,2,1,40,0,1
70186,-90.9090909090909,4,2,1,68,0,1
70519,-90.9090909090909,4,2,1,69,0,1
70853,-90.9090909090909,4,2,1,66,0,1
71186,-90.9090909090909,4,2,1,70,0,1
71686,-90.9090909090909,4,2,1,60,0,0
72019,-90.9090909090909,4,2,1,65,0,1
72269,-90.9090909090909,4,2,99,5,0,1
72353,-90.9090909090909,4,2,1,65,0,1
74936,-90.9090909090909,4,2,99,5,0,1
75019,-90.9090909090909,4,2,1,65,0,1
76269,-90.9090909090909,4,2,99,5,0,1
76353,-90.9090909090909,4,2,1,65,0,1
78936,-90.9090909090909,4,2,99,5,0,1
79019,-90.9090909090909,4,2,1,65,0,1
81603,-90.9090909090909,4,2,99,5,0,1
81686,-90.9090909090909,4,2,1,65,0,1
82353,-90.9090909090909,4,2,1,60,0,0
82686,-90.9090909090909,4,2,1,65,0,1
85186,-90.9090909090909,4,2,1,65,0,1
85353,-90.9090909090909,4,2,1,67,0,1
86019,-90.9090909090909,4,2,1,57,0,1
86353,-90.9090909090909,4,2,1,63,0,1
86686,-90.9090909090909,4,2,1,65,0,1
87519,-90.9090909090909,4,2,1,62,0,1
87686,-90.9090909090909,4,2,1,60,0,1
88019,-100,4,2,78,60,0,0
88103,-100,4,2,1,60,0,0
89353,-100,4,2,1,60,0,0
89603,-100,4,2,99,5,0,0
89686,-100,4,2,1,60,0,0
90353,-100,4,2,1,60,0,0
90686,-100,4,2,1,60,0,0
92269,-100,4,2,99,5,0,0
92353,-100,4,2,1,60,0,0
98186,-100,4,2,1,50,0,0
98269,-100,4,2,1,52,0,0
98353,-100,4,2,1,54,0,0
98436,-100,4,2,1,56,0,0
98519,-100,4,2,1,56,0,0
98603,-100,4,2,1,60,0,0
98686,-117.647058823529,4,2,1,48,0,0
108019,-117.647058823529,4,2,1,55,0,0
108519,-117.647058823529,4,2,1,58,0,0
108686,-117.647058823529,4,2,1,30,0,0
108853,-117.647058823529,4,2,1,55,0,0
109019,-117.647058823529,4,2,1,50,0,0
109353,-111.111111111111,4,2,1,50,0,0
119186,-111.111111111111,4,2,56,50,0,0
119686,-111.111111111111,4,2,1,50,0,0
120019,-125,4,2,1,53,0,0
124519,-125,4,2,1,43,0,0
124603,-125,4,2,1,48,0,0
124686,-125,4,2,1,53,0,0
125019,-125,4,2,56,50,0,0
125186,-125,4,2,56,47,0,0
125353,-111.111111111111,4,2,1,55,0,0
125603,-111.111111111111,4,2,99,5,0,0
125686,-111.111111111111,4,2,1,55,0,0
126936,-111.111111111111,4,2,99,5,0,0
127019,-111.111111111111,4,2,1,55,0,0
128019,-111.111111111111,4,2,1,57,0,0
128519,-111.111111111111,4,2,1,58,0,0
128853,-111.111111111111,4,2,1,59,0,0
129186,-111.111111111111,4,2,1,60,0,0
129519,-111.111111111111,4,2,1,61,0,0
129686,-111.111111111111,4,2,1,62,0,0
130019,-99.9999999999999,4,2,99,40,0,0
130353,-99.9999999999999,4,2,99,50,0,0
130394,-99.9999999999999,4,2,99,30,0,0
130436,-99.9999999999999,4,2,99,50,0,0
130478,-99.9999999999999,4,2,99,30,0,0
130519,-99.9999999999999,4,2,99,50,0,0
130561,-99.9999999999999,4,2,99,30,0,0
130603,-99.9999999999999,4,2,99,50,0,0
130644,-99.9999999999999,4,2,99,30,0,0
130686,-90.9090909090909,4,2,1,65,0,1
130936,-90.9090909090909,4,2,99,5,0,1
131019,-90.9090909090909,4,2,1,65,0,1
133603,-90.9090909090909,4,2,99,5,0,1
133686,-90.9090909090909,4,2,1,65,0,1
134936,-90.9090909090909,4,2,99,5,0,1
135019,-90.9090909090909,4,2,1,65,0,1
137603,-90.9090909090909,4,2,99,5,0,1
137686,-90.9090909090909,4,2,1,65,0,1
138686,-90.9090909090909,4,2,1,66,0,1
139019,-90.9090909090909,4,2,1,67,0,1
139353,-90.9090909090909,4,2,1,40,0,1
139519,-90.9090909090909,4,2,1,68,0,1
139853,-90.9090909090909,4,2,1,69,0,1
140186,-90.9090909090909,4,2,1,66,0,1
140519,-90.9090909090909,4,2,1,70,0,1
141019,-90.9090909090909,4,2,1,60,0,0
141353,-90.9090909090909,4,2,1,65,0,1
141603,-90.9090909090909,4,2,99,5,0,1
141686,-90.9090909090909,4,2,1,65,0,1
144269,-90.9090909090909,4,2,99,5,0,1
144353,-90.9090909090909,4,2,1,65,0,1
145603,-90.9090909090909,4,2,99,5,0,1
145686,-90.9090909090909,4,2,1,65,0,1
148269,-90.9090909090909,4,2,99,5,0,1
148353,-90.9090909090909,4,2,1,65,0,1
150936,-90.9090909090909,4,2,99,5,0,1
151019,-90.9090909090909,4,2,1,65,0,1
151686,-90.9090909090909,4,2,1,60,0,0
152019,-90.9090909090909,4,2,1,65,0,1
154519,-90.9090909090909,4,2,1,65,0,1
154686,-90.9090909090909,4,2,1,67,0,1
155353,-90.9090909090909,4,2,1,57,0,1
155686,-90.9090909090909,4,2,1,63,0,1
156019,-90.9090909090909,4,2,1,65,0,1
156853,-90.9090909090909,4,2,1,62,0,1
157019,-90.9090909090909,4,2,1,60,0,1
157186,-90.9090909090909,4,2,1,40,0,1
157353,-117.647058823529,4,2,43,56,0,0
157436,-125,4,2,43,10,0,0
160019,-125,4,2,62,30,0,0
167853,-125,4,2,62,28,0,0
168019,-133.333333333333,4,2,62,32,0,0
178686,-125,4,2,62,35,0,0
184019,-117.647058823529,4,2,62,37,0,0
189353,-111.111111111111,4,2,62,40,0,0
189519,-111.111111111111,4,2,62,41,0,0
189686,-111.111111111111,4,2,62,42,0,0
189853,-111.111111111111,4,2,62,43,0,0
190019,-111.111111111111,4,2,62,44,0,0
190186,-111.111111111111,4,2,62,45,0,0
190353,-111.111111111111,4,2,62,46,0,0
190519,-111.111111111111,4,2,62,48,0,0
190686,-111.111111111111,4,2,62,50,0,0
190853,-111.111111111111,4,2,62,52,0,0
191019,-111.111111111111,4,2,62,54,0,0
191186,-111.111111111111,4,2,62,56,0,0
191353,-111.111111111111,4,2,99,58,0,0
191519,-111.111111111111,4,2,99,60,0,0
191686,-111.111111111111,4,2,99,62,0,0
191853,-111.111111111111,4,2,99,64,0,0
192686,-100,4,2,99,40,0,0
193019,-100,4,2,99,50,0,0
193061,-100,4,2,99,30,0,0
193103,-100,4,2,99,50,0,0
193144,-100,4,2,99,30,0,0
193186,-100,4,2,99,50,0,0
193228,-100,4,2,99,30,0,0
193269,-100,4,2,99,50,0,0
193311,-100,4,2,99,30,0,0
193353,-90.9090909090909,4,2,1,65,0,1
193603,-90.9090909090909,4,2,99,5,0,1
193686,-90.9090909090909,4,2,1,65,0,1
196269,-90.9090909090909,4,2,99,5,0,1
196353,-90.9090909090909,4,2,1,65,0,1
197603,-90.9090909090909,4,2,99,5,0,1
197686,-90.9090909090909,4,2,1,65,0,1
200269,-90.9090909090909,4,2,99,5,0,1
200353,-90.9090909090909,4,2,1,65,0,1
201353,-90.9090909090909,4,2,1,66,0,1
201686,-90.9090909090909,4,2,1,67,0,1
202019,-90.9090909090909,4,2,1,40,0,1
202186,-90.9090909090909,4,2,1,68,0,1
202519,-90.9090909090909,4,2,1,69,0,1
202853,-90.9090909090909,4,2,1,66,0,1
203186,-90.9090909090909,4,2,1,70,0,1
203686,-90.9090909090909,4,2,1,60,0,0
204019,-90.9090909090909,4,2,1,65,0,1
204269,-90.9090909090909,4,2,99,5,0,1
204353,-90.9090909090909,4,2,1,65,0,1
206936,-90.9090909090909,4,2,99,5,0,1
207019,-90.9090909090909,4,2,1,65,0,1
208269,-90.9090909090909,4,2,99,5,0,1
208353,-90.9090909090909,4,2,1,65,0,1
210936,-90.9090909090909,4,2,99,5,0,1
211019,-90.9090909090909,4,2,1,65,0,1
213603,-90.9090909090909,4,2,99,5,0,1
213686,-90.9090909090909,4,2,1,65,0,1
214353,-90.9090909090909,4,2,1,60,0,0
214686,-90.9090909090909,4,2,1,65,0,1
217186,-90.9090909090909,4,2,1,65,0,1
217353,-90.9090909090909,4,2,1,67,0,1
218019,-90.9090909090909,4,2,1,57,0,1
218353,-90.9090909090909,4,2,1,63,0,1
218686,-90.9090909090909,4,2,1,65,0,1
219519,-90.9090909090909,4,2,1,62,0,1
219686,-90.9090909090909,4,2,1,60,0,1
220019,-100,4,2,78,60,0,0
220186,-100,4,2,1,60,0,0
221603,-100,4,2,99,5,0,0
221686,-100,4,2,1,60,0,0
224269,-100,4,2,99,5,0,0
224353,-100,4,2,1,60,0,0
230353,-100,4,2,56,60,0,0
230686,-100,4,2,1,60,0,0
232269,-100,4,2,99,5,0,0
232353,-100,4,2,1,60,0,0
234936,-100,4,2,99,5,0,0
235019,-100,4,2,1,60,0,0
240853,-100,4,2,1,50,0,0
241019,-100,4,2,1,60,0,0
241103,-100,4,2,1,61,0,0
241186,-100,4,2,1,62,0,0
241269,-100,4,2,1,63,0,0
241353,-100,4,2,1,60,0,0
241436,-100,4,2,1,30,0,0
242019,-100,4,2,1,20,0,0
242686,-100,4,2,1,10,0,0
243353,-100,4,2,1,5,0,0
243978,-100,4,2,99,30,0,0

[Colours]
Combo1 : 250,140,140
Combo2 : 170,250,170
Combo3 : 250,190,230
Combo4 : 130,190,230

[HitObjects]
30,265,1019,5,2,0:0:0:0:
92,202,1353,6,0,B|124:158|112:84|112:84|160:67|208:100,1,220,2|2,0:1|0:0,0:0:0:0:
311,176,2686,1,2,0:1:0:0:
257,343,3353,1,2,0:0:0:0:
433,342,4019,6,0,B|457:279|412:211|412:211|397:254|360:272,1,220,2|2,0:1|0:0,0:0:0:0:
279,254,5186,1,2,0:0:0:0:
279,254,5353,2,0,B|190:218|196:277|104:244,1,176,2|2,0:1|0:1,0:0:0:0:
105,68,6686,6,0,B|218:38|202:115|319:84,1,220,2|2,0:1|0:1,0:0:0:0:
438,30,8019,1,2,0:1:0:0:
495,148,8519,1,2,0:0:0:0:
357,323,9353,6,0,B|289:341|254:298|254:298|195:265|145:300,1,220,2|2,0:1|0:1,0:0:0:0:
40,365,10686,2,0,B|76:306|45:241|45:241|45:164|121:145,1,264,2|2,0:1|0:1,0:0:0:0:
209,149,12019,5,2,0:1:0:0:
334,272,12686,2,0,P|374:281|428:268,1,88,2|2,0:1|0:0,0:0:0:0:
471,200,13353,1,2,0:1:0:0:
420,134,13686,1,2,0:1:0:0:
420,134,13853,2,0,P|377:125|334:135,1,88,2|2,0:0|0:0,0:0:0:0:
222,205,14686,5,2,0:1:0:0:
106,154,15186,1,2,0:0:0:0:
106,154,15353,2,0,L|102:63,1,88,2|2,0:1|0:1,0:0:0:0:
170,10,16019,1,10,0:2:0:0:
249,60,16353,1,2,0:1:0:0:
249,60,16519,2,0,P|282:74|341:72,1,88,2|2,0:1|0:1,0:0:0:0:
456,25,17353,6,0,P|342:92|383:209,1,264,10|10,0:1|0:1,0:0:0:0:
470,255,18686,6,0,P|483:306|467:365,1,110,6|8,0:0|0:0,0:0:0:0:
372,308,19353,1,10,0:3:0:0:
267,339,19686,1,8,0:0:0:0:
170,286,20019,2,0,L|57:272,1,110,10|8,0:3|0:0,0:0:0:0:
3,178,20686,1,10,0:3:0:0:
56,82,21019,1,8,0:0:0:0:
165,79,21353,6,0,B|201:72|239:79|239:79|276:79|302:56|302:56|338:60|375:94,1,220,10|8,0:3|0:3,0:0:0:0:
435,178,22353,2,0,P|437:203|441:250,1,55,10|2,0:0|0:0,0:0:0:0:
429,286,22686,1,10,0:3:0:0:
341,229,23019,1,8,0:0:0:0:
341,229,23186,2,0,P|265:203|173:211,1,165,2|8,0:0|0:0,0:0:0:0:
136,308,24019,6,0,B|193:331|244:292|244:292|313:297|341:347,1,220,6|8,0:2|0:3,0:0:0:0:
442,363,25019,1,10,0:0:0:0:
499,269,25353,1,10,0:3:0:0:
431,190,25686,1,8,0:0:0:0:
431,190,25853,2,0,B|412:159|363:151|363:151|373:103|352:65,1,165,2|8,0:0|0:0,0:0:0:0:
256,120,26686,6,0,B|200:144|154:102|154:102|95:75|49:105,1,220,10|8,0:3|0:3,0:0:0:0:
24,213,27686,2,0,P|22:235|20:278,1,55,10|2,0:0|0:0,0:0:0:0:
37,320,28019,1,10,0:3:0:0:
144,285,28353,1,10,0:0:0:0:
144,285,28519,2,0,P|178:283|210:284,1,55,10|8,0:3|0:3,0:0:0:0:
247,309,28853,2,0,P|273:315|299:324,1,55,10|4,0:3|0:3,0:0:0:0:
383,368,29353,6,0,L|392:182,1,176,6|8,0:0|0:0,0:0:0:0:
436,116,30353,1,10,0:0:0:0:
389,45,30686,2,0,P|351:25|307:26,1,88,8|8,0:0|0:0,0:0:0:0:
233,74,31353,1,10,0:0:0:0:
154,33,31686,1,10,0:0:0:0:
78,80,32019,6,0,B|44:148|44:148|39:205|82:247,1,176,10|8,0:0|0:0,0:0:0:0:
157,209,33019,1,10,0:0:0:0:
238,177,33353,2,0,P|281:174|323:186,1,88,8|10,0:0|0:0,0:0:0:0:
388,245,34019,1,10,0:0:0:0:
453,304,34353,1,10,0:0:0:0:
369,330,34686,6,0,L|194:312,1,176,10|8,0:0|0:0,0:0:0:0:
114,350,35686,1,10,0:0:0:0:
42,299,36019,2,0,L|32:124,1,176,8|8,0:0|0:0,0:0:0:0:
75,46,37019,1,10,0:0:0:0:
162,64,37353,5,8,0:3:0:0:
171,152,37686,1,10,0:0:0:0:
257,170,38019,2,0,L|357:163,1,88,8|10,0:0|0:0,0:0:0:0:
414,109,38686,1,6,0:0:0:0:
414,109,38853,1,10,0:3:0:0:
486,158,39186,1,12,0:0:0:0:
461,241,39519,2,0,B|452:269|452:269|454:300|454:300|445:330,1,88,10|8,0:3|0:0,0:0:0:0:
411,360,40019,5,6,0:0:0:0:
329,313,40353,1,10,0:0:0:0:
329,313,40519,2,0,P|275:304|224:302,1,98.9999969787599,2|10,0:0|0:3,0:0:0:0:
149,355,41186,1,2,0:0:0:0:
149,355,41353,2,0,L|142:249,1,98.9999969787599,8|8,0:3|0:0,0:0:0:0:
157,158,42019,1,10,0:3:0:0:
254,141,42353,1,10,0:0:0:0:
301,228,42686,5,10,0:3:0:0:
402,214,43019,1,10,0:0:0:0:
402,214,43186,2,0,L|503:203,1,98.9999969787599,2|10,0:0|0:3,0:0:0:0:
506,108,43853,1,2,0:0:0:0:
506,108,44019,2,0,L|405:97,1,98.9999969787599,8|10,0:3|0:0,0:0:0:0:
330,35,44686,1,10,0:3:0:0:
256,100,45019,1,10,0:0:0:0:
182,35,45353,6,0,B|82:18|82:18|18:39|36:104,1,197.99999395752,6|8,0:0|0:3,0:0:0:0:
64,184,46353,1,10,0:0:0:0:
160,204,46686,1,8,0:3:0:0:
225,130,47019,1,10,0:0:0:0:
225,130,47186,2,0,P|275:116|334:134,1,98.9999969787599,2|10,0:0|0:3,0:0:0:0:
387,206,47853,1,2,0:0:0:0:
387,206,48019,6,0,B|376:245|392:278|392:278|376:321|339:323,1,148.49999546814,8|2,0:3|0:0,0:0:0:0:
243,298,48853,1,10,0:3:0:0:
152,331,49186,1,2,0:0:0:0:
152,331,49353,2,0,P|99:333|53:313,1,98.9999969787599,10|12,0:3|0:0,0:0:0:0:
32,272,49853,2,0,B|31:249|40:237|40:237|28:215|28:215|41:193|41:193|34:177|34:177|44:155|39:130,1,148.49999546814,8|8,0:3|0:3,0:0:0:0:
85,58,50686,6,0,B|107:35|141:35|141:35|169:57|206:49,1,132,6|2,0:0|0:0,0:0:0:0:
291,25,51519,1,2,0:0:0:0:
343,103,51853,1,10,0:3:0:0:
343,103,52019,2,0,L|334:239,1,132,2|2,0:0|0:0,0:0:0:0:
288,309,52853,1,2,0:0:0:0:
171,247,53353,6,0,L|162:115,1,132,10|2,0:3|0:0,0:0:0:0:
104,48,54186,1,2,0:3:0:0:
14,144,54686,2,0,L|6:247,1,88,2|8,0:0|0:3,0:0:0:0:
30,317,55353,2,0,L|18:364,2,44,10|8|4,0:3|0:0|0:3,0:0:0:0:
119,275,56019,5,6,0:0:0:0:
212,322,56353,1,10,0:0:0:0:
212,322,56519,2,0,B|285:349|280:297|356:326,1,148.49999546814,2|8,0:0|0:0,0:0:0:0:
438,382,57353,2,0,L|449:280,1,98.9999969787599,10|8,0:3|2:0,0:0:0:0:
464,185,58019,1,10,0:3:0:0:
480,87,58353,1,10,2:0:0:0:
388,123,58686,6,0,P|333:120|285:88,1,98.9999969787599,14|8,0:2|0:3,0:0:0:0:
260,72,59186,1,10,0:3:0:0:
260,72,59353,2,0,P|216:48|167:47,1,98.9999969787599,10|10,0:3|0:0,0:0:0:0:
124,69,59853,1,10,0:3:0:0:
195,147,60186,1,10,0:0:0:0:
195,147,60353,1,10,0:0:0:0:
102,205,60686,6,0,B|86:244|86:244|87:319,1,110,2|2,0:0|0:0,0:0:0:0:
197,360,61353,5,6,0:0:0:0:
304,305,61686,1,10,0:0:0:0:
304,305,61853,2,0,B|335:286|378:300|378:300|423:336|485:313,1,181.500005538941,2|8,0:0|0:0,0:0:0:0:
502,197,62686,2,0,L|508:75,1,121.000003692627,10|8,0:3|0:0,0:0:0:0:
400,19,63353,2,0,P|362:20|321:30,1,60.5000018463135,10|10,0:3|0:3,0:0:0:0:
302,71,63686,1,10,0:0:0:0:
262,185,64019,5,10,0:3:0:0:
148,145,64353,1,10,0:0:0:0:
148,145,64519,2,0,B|84:121|84:121|41:167|62:240,1,181.500005538941,2|8,0:3|0:0,0:0:0:0:
134,321,65353,1,10,0:3:0:0:
240,261,65686,1,10,0:0:0:0:
240,261,65853,2,0,P|249:161|259:80,1,181.500005538941,2|8,0:0|0:0,0:0:0:0:
370,32,66686,6,0,B|410:6|454:23|454:23|453:75|431:97|431:97|453:135|436:173,1,242.000007385254,6|8,0:0|0:3,0:0:0:0:
390,280,67686,1,10,0:0:0:0:
277,231,68019,1,10,0:3:0:0:
228,344,68353,1,10,0:0:0:0:
228,344,68519,2,0,B|177:335|142:361|142:361|87:364|48:308,1,181.500005538941,2|8,0:0|0:0,0:0:0:0:
11,214,69353,5,6,0:0:0:0:
95,127,69686,1,10,0:0:0:0:
95,127,69853,2,0,P|161:115|225:118,1,121.000003692627,4|10,0:0|0:3,0:0:0:0:
267,145,70353,1,10,0:0:0:0:
267,145,70519,1,4,0:0:0:0:
378,288,71019,1,8,0:0:0:0:
378,288,71186,2,0,B|408:322|408:322|426:173,1,181.500005538941,6|10,0:0|0:0,0:0:0:0:
442,67,72019,5,6,0:0:0:0:
324,38,72353,1,10,0:0:0:0:
324,38,72519,2,0,B|231:17|236:67|126:30,1,181.500005538941,2|8,0:0|0:0,0:0:0:0:
49,112,73353,2,0,L|38:245,1,121.000003692627,10|8,0:3|0:0,0:0:0:0:
101,335,74019,2,0,P|133:338|166:325,1,60.5000018463135,10|10,0:3|0:3,0:0:0:0:
210,295,74353,1,10,0:0:0:0:
318,348,74686,5,10,0:3:0:0:
404,263,75019,1,10,0:0:0:0:
404,263,75186,2,0,B|433:212|433:212|437:143|382:89,1,181.500005538941,2|8,0:3|0:0,0:0:0:0:
284,44,76019,1,10,0:3:0:0:
222,148,76353,1,10,0:0:0:0:
222,148,76519,2,0,B|197:185|212:241|212:241|208:296|167:309,1,181.500005538941,2|8,0:0|0:0,0:0:0:0:
55,266,77353,6,0,B|54:232|36:205|36:205|29:164|64:128|64:128|45:82|70:31,1,242.000007385254,6|8,0:0|0:3,0:0:0:0:
177,86,78353,1,10,0:0:0:0:
289,41,78686,1,10,0:3:0:0:
404,92,79019,1,10,0:0:0:0:
404,92,79186,2,0,L|415:273,1,181.500005538941,2|8,0:0|0:0,0:0:0:0:
344,371,80019,6,0,B|309:302|250:308|250:308|193:346|132:312,1,242.000007385254,10|8,0:3|0:3,0:0:0:0:
46,231,81019,1,10,0:0:0:0:
97,120,81353,1,10,0:3:0:0:
222,138,81686,1,10,0:0:0:0:
222,138,81853,2,0,B|277:148|292:191|292:191|327:227|376:204,1,181.500005538941,2|8,0:0|0:0,0:0:0:0:
477,142,82686,6,0,L|484:0,1,121.000003692627,14|10,0:0|0:0,0:0:0:0:
378,83,83353,2,0,P|306:74|249:55,1,121.000003692627,10|10,0:0|0:0,0:0:0:0:
149,10,84019,1,10,0:0:0:0:
61,93,84353,1,10,0:0:0:0:
61,93,84519,2,0,L|51:286,1,181.500005538941,10|8,0:3|0:0,0:0:0:0:
141,355,85353,6,0,P|199:331|272:345,1,121.000003692627,6|8,0:0|0:0,0:0:0:0:
315,365,85853,1,10,0:3:0:0:
315,365,86019,2,0,L|320:244,1,121.000003692627,10|10,0:2|0:0,0:0:0:0:
268,134,86686,1,14,0:0:0:0:
337,34,87019,1,10,0:0:0:0:
337,34,87186,1,6,0:0:0:0:
458,43,87519,2,0,P|481:47|517:61,1,60.5000018463135,10|10,0:3|0:3,0:0:0:0:
459,153,88019,6,0,P|447:208|442:262,1,110,14|8,0:1|0:0,0:0:0:0:
432,371,88686,1,10,0:3:0:0:
341,307,89019,1,8,0:0:0:0:
240,353,89353,2,0,P|185:347|131:336,1,110,10|8,0:3|0:0,0:0:0:0:
55,257,90019,1,10,0:3:0:0:
86,152,90353,1,8,0:0:0:0:
192,126,90686,6,0,B|247:108|293:132|293:132|321:178|401:175,1,220,10|8,0:3|0:3,0:0:0:0:
489,118,91686,2,0,L|496:40,1,55,10|2,0:0|0:0,0:0:0:0:
472,12,92019,1,10,0:3:0:0:
366,43,92353,1,8,0:0:0:0:
366,43,92519,2,0,P|326:42|196:26,1,165,2|8,0:0|0:0,0:0:0:0:
92,40,93353,6,0,B|40:63|42:130|42:130|85:169|68:231,1,220,6|8,0:2|0:3,0:0:0:0:
22,330,94353,1,10,0:0:0:0:
131,319,94686,1,10,0:3:0:0:
239,336,95019,1,8,0:0:0:0:
239,336,95186,2,0,B|268:315|309:326|309:326|354:353|406:325,1,165,2|8,0:0|0:0,0:0:0:0:
455,236,96019,6,0,B|469:101|469:101|442:62|382:61,1,220,10|8,0:3|0:3,0:0:0:0:
308,126,97019,2,0,P|305:152|301:196,1,55,10|2,0:0|0:0,0:0:0:0:
306,235,97353,1,6,0:0:0:0:
223,307,97686,1,10,0:0:0:0:
223,307,97853,2,0,L|143:299,1,55,10|8,0:3|0:3,0:0:0:0:
123,332,98186,2,0,L|43:340,1,55,10|8,2:2|0:0,0:0:0:0:
16,259,98686,6,0,L|9:69,1,187.000003566742,6|8,0:0|0:3,0:0:0:0:
87,20,99686,1,10,0:0:0:0:
158,77,100019,2,0,P|202:88|248:77,1,93.500001783371,10|8,0:3|0:0,0:0:0:0:
326,25,100686,1,10,0:3:0:0:
399,83,101019,1,10,0:0:0:0:
366,170,101353,6,0,B|373:222|416:245|416:245|397:312|342:302,1,187.000003566742,10|8,0:3|0:3,0:0:0:0:
268,265,102353,1,10,0:0:0:0:
227,180,102686,2,0,L|218:86,1,93.500001783371,8|10,0:3|0:0,0:0:0:0:
144,29,103353,1,10,0:3:0:0:
58,65,103686,1,10,0:0:0:0:
46,157,104019,6,0,B|36:203|62:248|62:248|36:291|49:339,1,187.000003566742,6|8,0:0|0:3,0:0:0:0:
135,371,105019,1,10,0:0:0:0:
192,297,105353,2,0,P|272:276|385:298,1,187.000003566742,8|8,0:3|0:3,0:0:0:0:
430,367,106353,1,10,0:0:0:0:
505,310,106686,5,8,0:3:0:0:
448,235,107019,1,10,0:0:0:0:
391,160,107353,2,0,L|374:57,1,93.500001783371,8|10,0:3|0:0,0:0:0:0:
294,20,108019,1,6,0:0:0:0:
294,20,108186,1,10,0:3:0:0:
247,100,108519,1,12,0:0:0:0:
167,52,108853,2,0,B|133:42|133:42|102:44|102:44|70:36,1,93.500001783371,10|8,0:3|0:0,0:0:0:0:
37,64,109353,5,6,0:0:0:0:
91,153,109686,1,10,0:0:0:0:
91,153,109853,2,0,L|93:253,1,98.9999969787599,2|10,0:0|0:3,0:0:0:0:
151,339,110519,1,2,0:0:0:0:
151,339,110686,2,0,P|198:330|271:331,1,98.9999969787599,8|8,0:3|0:0,0:0:0:0:
341,364,111353,1,10,0:3:0:0:
419,303,111686,1,10,0:0:0:0:
405,204,112019,5,10,0:3:0:0:
317,171,112353,1,10,0:0:0:0:
317,171,112519,2,0,P|265:160|211:155,1,98.9999969787599,2|10,0:0|0:3,0:0:0:0:
134,203,113186,1,2,0:0:0:0:
134,203,113353,2,0,L|124:89,1,98.9999969787599,8|10,0:3|0:0,0:0:0:0:
168,14,114019,1,10,0:3:0:0:
267,28,114353,1,10,0:0:0:0:
284,126,114686,6,0,B|305:142|333:144|333:144|355:130|377:129|377:129|435:138|449:197,1,197.99999395752,6|8,0:0|0:3,0:0:0:0:
443,288,115686,1,10,0:0:0:0:
371,356,116019,1,8,0:3:0:0:
276,362,116353,1,10,0:0:0:0:
276,362,116519,2,0,L|170:347,1,98.9999969787599,2|10,0:0|0:3,0:0:0:0:
105,280,117186,1,2,0:0:0:0:
105,280,117353,6,0,B|84:207|84:207|113:129,1,148.49999546814,8|2,0:3|0:0,0:0:0:0:
197,92,118186,1,10,0:3:0:0:
261,175,118519,1,2,0:0:0:0:
261,175,118686,2,0,B|304:190|304:190|358:180,1,98.9999969787599,8|12,0:3|0:0,0:0:0:0:
403,162,119186,2,0,B|401:143|410:126|410:126|398:105|398:105|410:82|410:82|401:70|401:70|410:46|399:18,1,148.49999546814,8|8,0:3|0:3,0:0:0:0:
315,46,120019,6,0,B|281:45|254:26|254:26|207:19|186:58,1,132,6|2,0:0|0:0,0:0:0:0:
186,134,120853,1,2,0:0:0:0:
248,204,121186,1,10,0:3:0:0:
248,204,121353,2,0,P|270:266|241:337,1,132,2|2,0:0|0:0,0:0:0:0:
173,370,122186,1,2,0:0:0:0:
51,307,122686,6,0,L|42:175,1,132,10|2,0:3|0:0,0:0:0:0:
34,87,123519,1,2,0:3:0:0:
157,134,124019,2,0,P|200:132|242:118,1,88,2|8,0:0|0:3,0:0:0:0:
308,59,124686,2,0,L|312:-3,2,44,10|8|4,0:3|0:0|0:3,0:0:0:0:
334,154,125353,5,6,0:0:0:0:
435,142,125686,1,10,0:0:0:0:
435,142,125853,2,0,B|472:117|472:117|497:175|464:231,1,148.49999546814,2|8,0:0|0:0,0:0:0:0:
400,287,126686,2,0,L|281:274,1,98.9999969787599,10|8,0:3|2:0,0:0:0:0:
223,337,127353,1,10,0:3:0:0:
132,301,127686,1,10,2:0:0:0:
117,204,128019,6,0,L|109:83,1,98.9999969787599,14|8,0:2|0:3,0:0:0:0:
137,65,128519,1,10,0:3:0:0:
137,64,128686,2,0,P|180:51|236:62,1,98.9999969787599,10|10,0:3|0:0,0:0:0:0:
266,95,129186,1,10,0:3:0:0:
348,40,129519,1,10,0:0:0:0:
348,40,129686,1,10,0:0:0:0:
429,113,130019,6,0,B|447:152|447:152|444:224,1,110,10|2,0:2|0:0,0:0:0:0:
387,325,130686,5,6,0:0:0:0:
287,266,131019,1,10,0:0:0:0:
287,266,131186,2,0,B|239:250|196:283|196:283|152:296|114:271,1,181.500005538941,2|8,0:0|0:0,0:0:0:0:
15,202,132019,2,0,L|7:77,1,121.000003692627,10|8,0:3|0:0,0:0:0:0:
111,18,132686,2,0,P|149:19|190:29,1,60.5000018463135,10|10,0:3|0:3,0:0:0:0:
220,58,133019,1,10,0:0:0:0:
296,151,133353,5,10,0:3:0:0:
411,111,133686,1,10,0:0:0:0:
411,111,133853,2,0,B|464:77|464:77|505:132|458:207,1,181.500005538941,2|8,0:3|0:0,0:0:0:0:
416,298,134686,1,10,0:3:0:0:
322,231,135019,1,10,0:0:0:0:
322,231,135186,2,0,B|222:197|236:254|144:227,1,181.500005538941,2|8,0:0|0:0,0:0:0:0:
43,161,136019,6,0,B|85:237|31:303|31:303|39:352|98:356,1,242.000007385254,6|8,0:0|0:3,0:0:0:0:
208,318,137019,1,10,0:0:0:0:
328,344,137353,1,10,0:3:0:0:
448,309,137686,1,10,0:0:0:0:
448,309,137853,2,0,L|461:126,1,181.500005538941,2|8,0:0|0:0,0:0:0:0:
390,29,138686,5,6,0:0:0:0:
307,117,139019,1,10,0:0:0:0:
307,117,139186,2,0,P|248:109|180:102,1,121.000003692627,4|10,0:0|0:3,0:0:0:0:
145,146,139686,1,10,0:0:0:0:
145,146,139853,1,4,0:0:0:0:
61,307,140353,1,8,0:0:0:0:
61,307,140519,2,0,B|31:341|31:341|-11:293|13:192,1,181.500005538941,6|10,0:0|0:0,0:0:0:0:
36,93,141353,5,6,0:0:0:0:
149,150,141686,1,10,0:0:0:0:
149,150,141853,2,0,P|230:144|340:144,1,181.500005538941,2|8,0:0|0:0,0:0:0:0:
440,194,142686,2,0,L|432:324,1,121.000003692627,10|8,0:3|0:0,0:0:0:0:
323,367,143353,2,0,P|290:368|258:354,1,60.5000018463135,10|10,0:3|0:3,0:0:0:0:
216,324,143686,1,10,0:0:0:0:
310,249,144019,5,10,0:3:0:0:
231,164,144353,1,10,0:0:0:0:
231,164,144519,2,0,B|191:143|137:163|137:163|82:165|65:126,1,181.500005538941,2|8,0:3|0:0,0:0:0:0:
97,11,145353,1,10,0:3:0:0:
209,55,145686,1,10,0:0:0:0:
209,55,145853,2,0,B|249:66|293:44|293:44|346:35|394:61,1,181.500005538941,2|8,0:0|0:0,0:0:0:0:
477,134,146686,6,0,B|492:180|463:219|463:219|466:260|492:282|492:282|495:333|447:348,1,242.000007385254,6|8,0:0|0:3,0:0:0:0:
336,312,147686,1,10,0:0:0:0:
219,342,148019,1,10,0:3:0:0:
106,313,148353,1,10,0:0:0:0:
106,313,148519,2,0,B|84:267|116:224|116:224|130:170|101:134,1,181.500005538941,2|8,0:0|0:0,0:0:0:0:
0,80,149353,6,0,B|121:119|111:34|237:77,1,242.000007385254,10|8,0:3|0:3,0:0:0:0:
319,164,150353,1,10,0:0:0:0:
426,109,150686,1,10,0:3:0:0:
512,200,151019,1,10,0:0:0:0:
512,200,151186,2,0,B|517:235|496:263|496:263|487:279|500:298|500:298|510:348|470:372,1,181.500005538941,2|8,0:0|0:0,0:0:0:0:
382,291,152019,6,0,B|328:261|328:261|259:282,1,121.000003692627,14|10,0:0|0:0,0:0:0:0:
168,342,152686,2,0,B|111:359|111:359|57:329,1,121.000003692627,10|10,0:0|0:0,0:0:0:0:
19,214,153353,1,10,0:0:0:0:
76,108,153686,1,10,0:0:0:0:
76,108,153853,2,0,B|133:91|133:91|184:117|184:117|258:125,1,181.500005538941,10|8,0:3|0:0,0:0:0:0:
369,101,154686,6,0,P|428:93|506:124,1,121.000003692627,6|8,0:0|0:0,0:0:0:0:
506,172,155186,1,10,0:3:0:0:
506,172,155353,2,0,L|494:292,1,121.000003692627,10|10,0:2|0:0,0:0:0:0:
397,364,156019,1,14,0:0:0:0:
301,298,156353,1,10,0:0:0:0:
301,298,156519,1,6,0:0:0:0:
333,181,156853,2,0,P|339:140|338:113,1,60.5000018463135,10|8,0:2|0:0,0:0:0:0:
253,48,157353,6,0,B|194:3|125:-4|51:20|7:97|7:97|43:120|75:130|115:128|154:108|154:108|118:133|99:168|91:204|101:245|101:245|144:244|179:235|205:216|233:171,1,748.000014266968,10|2,0:1|3:0,0:0:0:0:
50,317,167853,5,8,0:0:0:0:
50,317,168019,6,0,P|132:321|157:205,1,206.250007867813,10|2,3:3|3:0,0:0:0:0:
110,105,169353,1,2,3:0:0:0:
298,21,170186,1,2,3:0:0:0:
368,122,170686,6,0,B|406:144|446:137|446:137|436:173|459:234,1,165.000006294251,10|8,3:3|0:0,0:0:0:0:
494,291,171686,1,10,0:3:0:0:
439,353,172019,2,0,B|332:371|351:301|240:322,1,206.250007867813,2|10,3:0|3:2,0:0:0:0:
165,361,173186,1,8,0:0:0:0:
165,361,173353,6,0,B|199:324|193:273|193:273|161:215|197:166,1,206.250007867813,14|2,3:3|3:0,0:0:0:0:
266,67,174686,1,2,3:0:0:0:
79,3,175519,1,2,3:0:0:0:
13,107,176019,6,0,B|9:151|32:186|32:186|7:227|22:269,1,165.000006294251,10|8,3:3|0:0,0:0:0:0:
67,332,177019,1,10,0:3:0:0:
138,290,177353,2,0,P|227:278|359:279,1,206.250007867813,2|10,3:3|3:2,0:0:0:0:
408,337,178519,1,8,0:0:0:0:
408,337,178686,6,0,B|368:279|398:220|398:220|360:173|298:181,1,220,14|2,3:3|3:0,0:0:0:0:
190,224,180019,1,2,0:0:0:0:
55,50,180853,1,2,3:0:0:0:
187,26,181353,6,0,B|232:41|255:78|255:78|277:41|322:26,1,176,10|8,3:3|0:0,0:0:0:0:
411,32,182353,1,10,0:3:0:0:
465,100,182686,2,0,P|494:208|446:310,1,220,2|10,3:0|3:2,0:0:0:0:
372,331,183853,1,8,0:0:0:0:
372,331,184019,6,0,L|123:308,1,233.750004458428,14|2,3:3|3:0,0:0:0:0:
11,367,185353,1,2,3:2:0:0:
3,133,186186,1,2,3:0:0:0:
118,53,186686,6,0,B|149:22|207:38|208:103|169:122|169:122|143:138|134:164|141:194,1,233.750004458428,10|2,3:3|3:0,0:0:0:0:
226,302,188019,2,0,P|315:353|438:305,1,233.750004458428,2|10,3:3|3:2,0:0:0:0:
481,172,189353,6,0,B|487:128|487:128|469:63|408:74,1,148.49999546814,10|8,3:3|0:3,0:0:0:0:
340,143,190186,1,8,0:3:0:0:
340,143,190353,2,0,L|225:132,1,98.9999969787599,10|10,0:3|0:3,0:0:0:0:
159,78,191019,1,8,0:3:0:0:
63,104,191353,2,0,L|54:168,1,49.4999984893799,8|8,0:0|0:0,0:0:0:0:
29,194,191686,2,0,L|20:258,1,49.4999984893799,8|8,0:0|0:0,0:0:0:0:
277,345,192686,6,0,B|313:334|313:334|397:348,1,110,2|10,0:0|0:2,0:0:0:0:
490,287,193353,5,6,0:0:0:0:
452,172,193686,1,10,0:0:0:0:
452,172,193853,2,0,B|360:146|368:211|276:181,1,181.500005538941,2|8,0:0|0:0,0:0:0:0:
174,111,194686,2,0,P|119:90|60:101,1,121.000003692627,10|8,0:3|0:0,0:0:0:0:
20,215,195353,2,0,L|13:289,1,60.5000018463135,10|10,0:3|0:3,0:0:0:0:
42,328,195686,1,10,0:0:0:0:
152,279,196019,5,10,0:3:0:0:
257,349,196353,1,10,0:0:0:0:
257,349,196519,2,0,L|280:151,1,181.500005538941,2|8,0:3|0:0,0:0:0:0:
345,68,197353,1,10,0:3:0:0:
419,171,197686,1,10,0:0:0:0:
419,171,197853,2,0,L|439:351,1,181.500005538941,2|8,0:0|0:0,0:0:0:0:
326,307,198686,6,0,B|254:281|203:332|203:332|134:340|95:299,1,242.000007385254,6|8,0:0|0:3,0:0:0:0:
14,220,199686,1,10,0:0:0:0:
12,98,200019,1,10,0:3:0:0:
100,15,200353,1,10,0:0:0:0:
100,15,200519,2,0,B|143:10|182:44|182:44|224:26|272:45,1,181.500005538941,2|8,0:0|0:0,0:0:0:0:
373,108,201353,5,6,0:0:0:0:
320,218,201686,1,10,0:0:0:0:
320,218,201853,2,0,P|262:226|193:203,1,121.000003692627,4|10,0:0|0:3,0:0:0:0:
163,171,202353,1,10,0:0:0:0:
163,171,202519,1,4,0:0:0:0:
126,348,203019,1,8,0:0:0:0:
126,348,203186,2,0,P|193:326|314:331,1,181.500005538941,6|10,0:0|0:0,0:0:0:0:
413,379,204019,5,6,0:0:0:0:
466,270,204353,1,10,0:0:0:0:
466,270,204519,2,0,B|491:223|491:223|503:141|449:99,1,181.500005538941,2|8,0:0|0:0,0:0:0:0:
342,63,205353,2,0,L|212:45,1,121.000003692627,10|8,0:3|0:0,0:0:0:0:
119,110,206019,2,0,P|109:143|106:182,1,60.5000018463135,10|10,0:3|0:3,0:0:0:0:
125,226,206353,1,10,0:0:0:0:
242,198,206686,5,10,0:3:0:0:
320,289,207019,1,10,0:0:0:0:
320,289,207186,2,0,P|388:304|451:218,1,181.500005538941,2|8,0:3|0:0,0:0:0:0:
420,107,208019,1,10,0:3:0:0:
298,106,208353,1,10,0:0:0:0:
298,106,208519,2,0,B|252:93|209:118|209:118|177:75|123:60,1,181.500005538941,2|8,0:0|0:0,0:0:0:0:
26,19,209353,6,0,B|52:42|44:96|44:96|26:113|22:149|34:172|34:172|15:202|33:251,1,242.000007385254,6|8,0:0|0:3,0:0:0:0:
90,353,210353,1,10,0:0:0:0:
210,330,210686,1,10,0:3:0:0:
225,208,211019,1,10,0:0:0:0:
225,208,211186,2,0,B|230:105|230:105|249:79|312:88,1,181.500005538941,2|8,0:0|0:0,0:0:0:0:
415,131,212019,6,0,B|422:171|398:204|398:204|419:229|421:260|421:260|402:292|402:292|417:321|395:365,1,242.000007385254,10|8,0:3|0:3,0:0:0:0:
282,323,213019,1,10,0:0:0:0:
165,355,213353,1,10,0:3:0:0:
52,327,213686,1,10,0:0:0:0:
52,327,213853,2,0,L|44:125,1,181.500005538941,2|8,0:0|0:0,0:0:0:0:
118,49,214686,6,0,B|158:38|158:38|190:53|190:53|233:41,1,121.000003692627,14|10,0:0|0:0,0:0:0:0:
349,73,215353,2,0,B|389:84|389:84|421:69|421:69|464:81,1,121.000003692627,10|10,0:0|0:0,0:0:0:0:
503,194,216019,1,10,0:0:0:0:
436,295,216353,1,10,0:0:0:0:
436,295,216519,2,0,B|356:340|356:340|265:281,1,181.500005538941,10|8,0:3|0:0,0:0:0:0:
231,180,217353,6,0,L|222:55,1,121.000003692627,6|8,0:0|0:0,0:0:0:0:
178,27,217853,1,10,0:3:0:0:
178,27,218019,2,0,P|110:19|53:48,1,121.000003692627,10|10,0:3|0:0,0:0:0:0:
2,144,218686,1,14,0:0:0:0:
62,249,219019,1,10,0:0:0:0:
62,249,219186,1,6,0:0:0:0:
182,249,219519,2,0,P|213:252|254:261,1,60.5000018463135,10|10,0:3|0:3,0:0:0:0:
323,332,220019,6,0,P|370:349|441:330,1,110,14|8,0:1|0:0,0:0:0:0:
505,260,220686,1,10,0:3:0:0:
505,150,221019,1,8,0:0:0:0:
427,72,221353,2,0,P|380:55|309:74,1,110,10|8,0:3|0:0,0:0:0:0:
244,143,222019,1,10,0:3:0:0:
244,253,222353,1,8,0:0:0:0:
166,330,222686,6,0,P|89:342|18:222,1,220,10|8,0:3|0:3,0:0:0:0:
67,139,223686,2,0,L|75:60,1,55,10|2,0:0|0:0,0:0:0:0:
108,42,224019,1,10,0:3:0:0:
201,100,224353,1,10,0:0:0:0:
201,100,224519,2,0,P|249:98|370:91,1,165,2|8,0:0|0:0,0:0:0:0:
448,17,225353,6,0,B|407:54|411:97|411:97|461:151|426:227,1,220,6|8,0:2|0:3,0:0:0:0:
364,304,226353,1,10,0:0:0:0:
256,320,226686,1,10,0:3:0:0:
172,258,227019,1,8,0:0:0:0:
172,258,227186,2,0,B|143:209|169:160|169:160|173:128|149:98,1,165,2|8,0:0|0:0,0:0:0:0:
59,42,228019,6,0,L|45:267,1,220,10|8,0:3|0:3,0:0:0:0:
111,347,229019,2,0,P|138:354|165:352,1,55,10|2,0:0|0:0,0:0:0:0:
214,326,229353,1,6,0:0:0:0:
312,276,229686,1,10,0:0:0:0:
312,276,229853,2,0,L|378:284,1,55,10|8,0:3|0:3,0:0:0:0:
410,316,230186,2,0,L|476:324,1,55,8|8,0:3|0:3,0:0:0:0:
493,216,230686,6,0,B|482:174|482:174|498:146|486:104,1,110,6|8,0:0|0:0,0:0:0:0:
408,30,231353,1,10,0:3:0:0:
301,59,231686,1,8,0:0:0:0:
272,166,232019,2,0,L|258:279,1,110,10|8,0:3|0:0,0:0:0:0:
193,364,232686,1,10,0:3:0:0:
84,353,233019,1,8,0:0:0:0:
39,253,233353,6,0,B|26:222|42:195|42:195|63:184|64:158|64:158|36:97|87:47,1,220,10|8,0:3|0:3,0:0:0:0:
188,80,234353,2,0,P|222:78|261:70,1,55,10|2,0:0|0:0,0:0:0:0:
289,45,234686,1,10,0:3:0:0:
384,99,235019,1,8,0:0:0:0:
384,99,235186,2,0,B|410:138|394:183|394:183|419:207|416:256,1,165,2|8,0:0|0:0,0:0:0:0:
353,344,236019,6,0,B|308:351|261:335|261:335|229:354|229:354|186:326|138:334,1,220,6|8,0:2|0:3,0:0:0:0:
37,361,237019,1,10,0:0:0:0:
9,255,237353,1,10,0:3:0:0:
115,227,237686,1,8,0:0:0:0:
115,227,237853,2,0,B|199:211|197:258|278:240,1,165,2|8,0:0|0:0,0:0:0:0:
370,182,238686,6,0,B|389:142|383:106|383:106|360:88|359:54|359:54|315:20|266:42,1,220,10|8,0:3|0:3,0:0:0:0:
181,81,239686,2,0,L|119:72,1,55,10|2,0:0|0:0,0:0:0:0:
71,68,240019,1,6,0:0:0:0:
35,172,240353,1,10,0:0:0:0:
35,172,240519,2,0,P|45:205|49:242,1,55,10|8,0:3|0:3,0:0:0:0:
28,277,240853,2,0,P|18:310|14:347,1,55,10|8,0:2|0:2,0:0:0:0:
116,373,241353,5,6,0:2:0:0:
256,192,241519,12,2,243978,0:0:0:0:
