osu file format v14

[General]
AudioFilename: audio.mp3
AudioLeadIn: 0
PreviewTime: 978
Countdown: 0
SampleSet: Soft
StackLeniency: 0.3
Mode: 0
LetterboxInBreaks: 0
WidescreenStoryboard: 0

[Editor]
DistanceSpacing: 0.9
BeatDivisor: 4
GridSize: 32
TimelineZoom: 2.3

[Metadata]
Title:petit bonheur
TitleUnicode:petit bonheur
Artist:yuiko
ArtistUnicode:yuiko
Creator:Lasse
Version:Insane.
Source:あなたに恋する恋愛ルセット
Tags:yuikonnu ゆいこんぬ Meis Clauson anata ni koisuru ren'ai recette visual novel eroge opening full version
BeatmapID:1327955
BeatmapSetID:627354

[Difficulty]
HPDrainRate:6
CircleSize:4
OverallDifficulty:8
ApproachRate:8.4
SliderMultiplier:1.6
SliderTickRate:1

[Events]
//Background and Video events
0,0,"bg04.jpg",0,0
//Break Periods
2,161353,166686
//Storyboard Layer 0 (Background)
//Storyboard Layer 1 (Fail)
//Storyboard Layer 2 (Pass)
//Storyboard Layer 3 (Foreground)
//Storyboard Sound Samples

[TimingPoints]
20,333.333333333333,4,2,43,20,1,0
1019,-200,4,2,43,20,0,0
1353,-200,4,2,43,30,0,0
11936,-200,4,2,99,5,0,0
12019,-200,4,2,43,32,0,0
16019,-200,4,2,43,35,0,0
16853,-200,4,2,43,38,0,0
17353,-200,4,2,43,40,0,0
17436,-200,4,2,43,10,0,0
18353,-200,4,2,99,40,0,0
18686,-100,4,2,1,60,0,0
20269,-100,4,2,99,5,0,0
20353,-100,4,2,1,60,0,0
22936,-100,4,2,99,5,0,0
23019,-100,4,2,1,60,0,0
28853,-100,4,2,56,55,0,0
29019,-100,4,2,56,50,0,0
29186,-100,4,2,56,45,0,0
29353,-142.857142857143,4,2,25,45,0,0
38686,-142.857142857143,4,2,1,55,0,0
39186,-142.857142857143,4,2,1,58,0,0
39353,-142.857142857143,4,2,1,30,0,0
39519,-142.857142857143,4,2,1,55,0,0
39686,-142.857142857143,4,2,1,50,0,0
40019,-117.647058823529,4,2,1,50,0,0
49853,-117.647058823529,4,2,56,50,0,0
50353,-117.647058823529,4,2,1,50,0,0
50686,-153.846153846153,4,2,1,53,0,0
55186,-153.846153846153,4,2,1,43,0,0
55269,-153.846153846153,4,2,1,48,0,0
55353,-153.846153846153,4,2,1,53,0,0
55686,-153.846153846153,4,2,56,50,0,0
55853,-153.846153846153,4,2,56,47,0,0
56019,-111.111111111111,4,2,1,55,0,0
56269,-111.111111111111,4,2,99,5,0,0
56353,-111.111111111111,4,2,1,55,0,0
57603,-111.111111111111,4,2,99,5,0,0
57687,-111.111111111111,4,2,1,55,0,0
58686,-111.111111111111,4,2,1,57,0,0
59186,-111.111111111111,4,2,1,58,0,0
59519,-111.111111111111,4,2,1,59,0,0
59853,-111.111111111111,4,2,1,60,0,0
60186,-111.111111111111,4,2,1,61,0,0
60353,-111.111111111111,4,2,1,62,0,0
60686,-111.111111111111,4,2,99,40,0,0
61019,-111.111111111111,4,2,99,50,0,0
61061,-111.111111111111,4,2,99,30,0,0
61103,-111.111111111111,4,2,99,50,0,0
61144,-111.111111111111,4,2,99,30,0,0
61186,-111.111111111111,4,2,99,50,0,0
61228,-111.111111111111,4,2,99,30,0,0
61269,-111.111111111111,4,2,99,50,0,0
61311,-111.111111111111,4,2,99,30,0,0
61353,-83.3333333333333,4,2,1,65,0,1
61603,-83.3333333333333,4,2,99,5,0,1
61686,-83.3333333333333,4,2,1,65,0,1
64269,-83.3333333333333,4,2,99,5,0,1
64352,-83.3333333333333,4,2,1,65,0,1
65603,-83.3333333333333,4,2,99,5,0,1
65686,-83.3333333333333,4,2,1,65,0,1
68269,-83.3333333333333,4,2,99,5,0,1
68353,-83.3333333333333,4,2,1,65,0,1
69353,-83.3333333333333,4,2,1,66,0,1
69686,-83.3333333333333,4,2,1,67,0,1
70019,-83.3333333333333,4,2,1,40,0,1
70186,-83.3333333333333,4,2,1,68,0,1
70519,-76.9230769230769,4,2,1,69,0,1
70853,-76.9230769230769,4,2,1,66,0,1
71186,-71.4285714285714,4,2,1,70,0,1
71686,-83.3333333333333,4,2,1,60,0,0
72019,-83.3333333333333,4,2,1,65,0,1
72269,-83.3333333333333,4,2,99,5,0,1
72353,-83.3333333333333,4,2,1,65,0,1
74936,-83.3333333333333,4,2,99,5,0,1
75019,-83.3333333333333,4,2,1,65,0,1
76269,-83.3333333333333,4,2,99,5,0,1
76353,-83.3333333333333,4,2,1,65,0,1
78936,-83.3333333333333,4,2,99,5,0,1
79019,-83.3333333333333,4,2,1,65,0,1
81603,-83.3333333333333,4,2,99,5,0,1
81686,-83.3333333333333,4,2,1,65,0,1
82353,-83.3333333333333,4,2,1,60,0,0
82686,-76.9230769230769,4,2,1,65,0,1
85186,-71.4285714285714,4,2,1,65,0,1
85353,-71.4285714285714,4,2,1,67,0,1
86019,-71.4285714285714,4,2,1,57,0,1
86103,-71.4285714285714,4,2,1,42,0,1
86186,-71.4285714285714,4,2,1,52,0,1
86269,-71.4285714285714,4,2,1,42,0,1
86353,-71.4285714285714,4,2,1,63,0,1
86686,-83.3333333333333,4,2,1,65,0,1
87519,-83.3333333333333,4,2,1,62,0,1
87686,-83.3333333333333,4,2,1,60,0,1
88019,-100,4,2,78,60,0,0
88103,-100,4,2,1,60,0,0
89353,-100,4,2,1,60,0,0
89603,-100,4,2,99,5,0,0
89686,-100,4,2,1,60,0,0
90353,-100,4,2,1,60,0,0
90686,-100,4,2,1,60,0,0
92269,-100,4,2,99,5,0,0
92353,-100,4,2,1,60,0,0
98186,-100,4,2,1,50,0,0
98269,-100,4,2,1,52,0,0
98353,-100,4,2,1,54,0,0
98436,-100,4,2,1,56,0,0
98519,-100,4,2,1,56,0,0
98603,-100,4,2,1,60,0,0
98686,-125,4,2,1,48,0,0
108019,-125,4,2,1,55,0,0
108519,-111.111111111111,4,2,1,58,0,0
108686,-125,4,2,1,30,0,0
108853,-125,4,2,1,55,0,0
109019,-125,4,2,1,50,0,0
109353,-117.647058823529,4,2,1,50,0,0
119186,-117.647058823529,4,2,56,50,0,0
119686,-117.647058823529,4,2,1,50,0,0
120019,-153.846153846153,4,2,1,53,0,0
124519,-153.846153846153,4,2,1,43,0,0
124603,-153.846153846153,4,2,1,48,0,0
124686,-153.846153846153,4,2,1,53,0,0
125019,-153.846153846153,4,2,56,50,0,0
125186,-153.846153846153,4,2,56,47,0,0
125353,-111.111111111111,4,2,1,55,0,0
125603,-111.111111111111,4,2,99,5,0,0
125686,-111.111111111111,4,2,1,55,0,0
126936,-111.111111111111,4,2,99,5,0,0
127019,-111.111111111111,4,2,1,55,0,0
128019,-111.111111111111,4,2,1,57,0,0
128519,-111.111111111111,4,2,1,58,0,0
128853,-111.111111111111,4,2,1,59,0,0
129186,-111.111111111111,4,2,1,60,0,0
129519,-111.111111111111,4,2,1,61,0,0
129686,-111.111111111111,4,2,1,62,0,0
130019,-111.111111111111,4,2,99,40,0,0
130353,-111.111111111111,4,2,99,50,0,0
130394,-111.111111111111,4,2,99,30,0,0
130436,-111.111111111111,4,2,99,50,0,0
130478,-111.111111111111,4,2,99,30,0,0
130519,-111.111111111111,4,2,99,50,0,0
130561,-111.111111111111,4,2,99,30,0,0
130603,-111.111111111111,4,2,99,50,0,0
130644,-111.111111111111,4,2,99,30,0,0
130686,-83.3333333333333,4,2,1,65,0,1
130936,-83.3333333333333,4,2,99,5,0,1
131019,-83.3333333333333,4,2,1,65,0,1
133603,-83.3333333333333,4,2,99,5,0,1
133686,-83.3333333333333,4,2,1,65,0,1
134936,-83.3333333333333,4,2,99,5,0,1
135019,-83.3333333333333,4,2,1,65,0,1
137603,-83.3333333333333,4,2,99,5,0,1
137686,-83.3333333333333,4,2,1,65,0,1
138686,-83.3333333333333,4,2,1,66,0,1
139019,-83.3333333333333,4,2,1,67,0,1
139353,-83.3333333333333,4,2,1,40,0,1
139519,-83.3333333333333,4,2,1,68,0,1
139853,-76.9230769230769,4,2,1,69,0,1
140186,-76.9230769230769,4,2,1,66,0,1
140519,-71.4285714285714,4,2,1,70,0,1
141019,-83.3333333333333,4,2,1,60,0,0
141353,-83.3333333333333,4,2,1,65,0,1
141603,-83.3333333333333,4,2,99,5,0,1
141686,-83.3333333333333,4,2,1,65,0,1
144269,-83.3333333333333,4,2,99,5,0,1
144353,-83.3333333333333,4,2,1,65,0,1
145603,-83.3333333333333,4,2,99,5,0,1
145686,-83.3333333333333,4,2,1,65,0,1
148269,-83.3333333333333,4,2,99,5,0,1
148353,-83.3333333333333,4,2,1,65,0,1
150936,-83.3333333333333,4,2,99,5,0,1
151019,-83.3333333333333,4,2,1,65,0,1
151686,-83.3333333333333,4,2,1,60,0,0
152019,-76.9230769230769,4,2,1,65,0,1
154519,-71.4285714285714,4,2,1,65,0,1
154686,-71.4285714285714,4,2,1,67,0,1
155353,-71.4285714285714,4,2,1,57,0,1
155436,-71.4285714285714,4,2,1,42,0,1
155519,-71.4285714285714,4,2,1,52,0,1
155603,-71.4285714285714,4,2,1,42,0,1
155686,-71.4285714285714,4,2,1,63,0,1
156019,-83.3333333333333,4,2,1,65,0,1
156853,-83.3333333333333,4,2,1,62,0,1
157019,-71.4285714285714,4,2,1,60,0,1
157186,-71.4285714285714,4,2,1,40,0,1
157353,-200,4,2,43,56,0,0
157436,-200,4,2,43,10,0,0
160019,-100,4,2,62,30,0,0
167686,-100,4,2,62,26,0,0
167853,-100,4,2,62,28,0,0
168019,-200,4,2,62,32,0,0
176853,-200,4,2,62,22,0,0
177019,-200,4,2,62,32,0,0
178686,-166.666666666667,4,2,62,35,0,0
184019,-142.857142857143,4,2,62,37,0,0
189353,-125,4,2,62,40,0,0
189519,-125,4,2,62,41,0,0
189686,-125,4,2,62,42,0,0
189853,-125,4,2,62,43,0,0
190019,-125,4,2,62,44,0,0
190186,-125,4,2,62,45,0,0
190353,-125,4,2,62,46,0,0
190519,-125,4,2,62,48,0,0
190686,-125,4,2,62,50,0,0
190853,-125,4,2,62,52,0,0
191019,-125,4,2,62,54,0,0
191186,-125,4,2,62,56,0,0
191353,-125,4,2,99,58,0,0
191519,-125,4,2,99,60,0,0
191686,-125,4,2,99,62,0,0
191853,-125,4,2,99,64,0,0
192686,-111.111111111111,4,2,99,40,0,0
193019,-83.3333333333333,4,2,99,50,0,0
193061,-83.3333333333333,4,2,99,30,0,0
193103,-83.3333333333333,4,2,99,50,0,0
193144,-83.3333333333333,4,2,99,30,0,0
193186,-83.3333333333333,4,2,99,50,0,0
193228,-83.3333333333333,4,2,99,30,0,0
193269,-83.3333333333333,4,2,99,50,0,0
193311,-83.3333333333333,4,2,99,30,0,0
193353,-83.3333333333333,4,2,1,65,0,1
193603,-83.3333333333333,4,2,99,5,0,1
193686,-83.3333333333333,4,2,1,65,0,1
196269,-83.3333333333333,4,2,99,5,0,1
196353,-83.3333333333333,4,2,1,65,0,1
197603,-83.3333333333333,4,2,99,5,0,1
197686,-83.3333333333333,4,2,1,65,0,1
200269,-83.3333333333333,4,2,99,5,0,1
200353,-83.3333333333333,4,2,1,65,0,1
201353,-83.3333333333333,4,2,1,66,0,1
201686,-83.3333333333333,4,2,1,67,0,1
202019,-83.3333333333333,4,2,1,40,0,1
202186,-83.3333333333333,4,2,1,68,0,1
202519,-76.9230769230769,4,2,1,69,0,1
202853,-76.9230769230769,4,2,1,66,0,1
203186,-71.4285714285714,4,2,1,70,0,1
203686,-83.3333333333333,4,2,1,60,0,0
204019,-83.3333333333333,4,2,1,65,0,1
204269,-83.3333333333333,4,2,99,5,0,1
204353,-83.3333333333333,4,2,1,65,0,1
206936,-83.3333333333333,4,2,99,5,0,1
207019,-83.3333333333333,4,2,1,65,0,1
208269,-83.3333333333333,4,2,99,5,0,1
208353,-83.3333333333333,4,2,1,65,0,1
210936,-83.3333333333333,4,2,99,5,0,1
211019,-83.3333333333333,4,2,1,65,0,1
213603,-83.3333333333333,4,2,99,5,0,1
213686,-83.3333333333333,4,2,1,65,0,1
214353,-83.3333333333333,4,2,1,60,0,0
214686,-76.9230769230769,4,2,1,65,0,1
217186,-71.4285714285714,4,2,1,65,0,1
217353,-71.4285714285714,4,2,1,67,0,1
218019,-71.4285714285714,4,2,1,57,0,1
218103,-71.4285714285714,4,2,1,42,0,1
218186,-71.4285714285714,4,2,1,52,0,1
218269,-71.4285714285714,4,2,1,42,0,1
218353,-71.4285714285714,4,2,1,63,0,1
218686,-83.3333333333333,4,2,1,65,0,1
218853,-83.3333333333333,4,2,1,65,0,1
219519,-83.3333333333333,4,2,1,62,0,1
219686,-83.3333333333333,4,2,1,60,0,1
220019,-100,4,2,78,60,0,0
220186,-100,4,2,1,60,0,0
221603,-100,4,2,99,5,0,0
221686,-100,4,2,1,60,0,0
224269,-100,4,2,99,5,0,0
224353,-100,4,2,1,60,0,0
230353,-100,4,2,56,60,0,0
230686,-100,4,2,1,60,0,0
232269,-100,4,2,99,5,0,0
232353,-100,4,2,1,60,0,0
234936,-100,4,2,99,5,0,0
235019,-100,4,2,1,60,0,0
240853,-100,4,2,1,50,0,0
241019,-100,4,2,1,60,0,0
241103,-100,4,2,1,61,0,0
241186,-100,4,2,1,62,0,0
241269,-100,4,2,1,63,0,0
241353,-100,4,2,1,60,0,0
241436,-100,4,2,1,30,0,0
242019,-100,4,2,1,20,0,0
242686,-100,4,2,1,10,0,0
243353,-100,4,2,1,5,0,0
243978,-100,4,2,99,30,0,0

[Colours]
Combo1 : 236,119,137
Combo2 : 150,240,190
Combo3 : 249,170,223
Combo4 : 130,180,220

[HitObjects]
96,320,1019,5,2,0:0:0:0:
96,320,1353,5,2,0:1:0:0:
173,263,1686,1,2,0:0:0:0:
173,263,1853,2,0,L|261:260,1,80,2|2,0:0|0:0,0:0:0:0:
253,260,2686,5,2,0:1:0:0:
252,260,3353,2,0,L|173:263,1,80,2|2,0:0|0:0,0:0:0:0:
172,263,4019,5,2,0:1:0:0:
250,180,4353,1,2,0:0:0:0:
250,180,4519,2,0,L|252:259,1,80,2|2,0:0|0:0,0:0:0:0:
254,340,5186,5,2,0:0:0:0:
254,340,5353,2,0,L|252:261,1,80,2|2,0:1|0:0,0:0:0:0:
250,180,5853,1,2,0:0:0:0:
250,180,6019,2,0,L|248:140,1,40,2|2,0:1|0:2,0:0:0:0:
248,140,6686,6,0,P|312:134|453:131,1,200,2|2,0:1|0:1,0:0:0:0:
447,130,7686,1,2,0:0:0:0:
470,226,8019,5,2,0:1:0:0:
389,271,8353,1,2,0:0:0:0:
389,271,8519,2,0,L|310:273,1,80,2|2,0:0|0:0,0:0:0:0:
309,273,9353,6,0,P|209:264|109:263,1,200,2|2,0:1|0:1,0:0:0:0:
109,263,10353,1,2,0:2:0:0:
41,202,10686,5,2,0:1:0:0:
133,167,11019,1,2,0:0:0:0:
133,167,11186,2,0,L|132:127,1,40,2|0,0:0|0:0,0:0:0:0:
193,85,11519,1,2,0:0:0:0:
193,85,11686,2,0,P|227:82|263:83,1,60,2|0,0:1|0:0,0:0:0:0:
253,83,12019,6,0,P|259:108|264:133,1,40,2|2,0:1|0:0,0:0:0:0:
321,211,12353,2,0,P|325:191|330:172,1,40,2|2,0:1|0:0,0:0:0:0:
332,72,12686,2,0,P|293:81|253:82,1,80,2|2,0:1|0:0,0:0:0:0:
253,82,13353,6,0,L|199:78,1,40,2|2,0:1|0:0,0:0:0:0:
146,34,13686,1,2,0:1:0:0:
141,115,13853,2,0,L|137:169,1,40,2|2,0:0|0:1,0:0:0:0:
135,238,14186,1,2,0:0:0:0:
135,238,14353,2,0,L|131:292,1,40,2|2,0:1|0:0,0:0:0:0:
78,337,14686,6,0,P|57:336|37:338,2,40,2|2|2,0:1|0:0|0:0,0:0:0:0:
156,353,15186,1,2,0:0:0:0:
212,295,15353,2,0,L|214:255,1,40,2|2,0:1|0:0,0:0:0:0:
250,183,15686,2,0,L|252:143,1,40,2|2,0:1|0:0,0:0:0:0:
321,32,16019,5,10,0:2:0:0:
321,32,16353,1,2,0:1:0:0:
252,143,16519,1,2,0:1:0:0:
252,143,16853,1,2,0:1:0:0:
252,143,17353,6,0,P|233:55|320:31,1,200,10|0,0:1|0:0,0:0:0:0:
377,154,18353,5,10,0:1:0:0:
366,155,18436,1,2,0:0:0:0:
354,157,18519,1,2,0:0:0:0:
342,158,18603,1,2,0:0:0:0:
331,159,18686,6,0,B|340:132|362:129|362:129|381:146|388:176|376:211|356:237,1,160,6|8,0:0|0:0,0:0:0:0:
150,330,19353,5,10,0:3:0:0:
150,330,19519,1,8,0:3:0:0:
140,251,19686,2,0,L|151:345,1,80,8|0,0:0|0:0,0:0:0:0:
28,265,20019,6,0,P|77:241|142:252,1,120,10|0,0:3|0:0,0:0:0:0:
140,251,20353,2,0,L|151:157,1,80,8|0,0:0|0:0,0:0:0:0:
290,122,20686,5,10,0:3:0:0:
290,122,20853,1,8,0:3:0:0:
300,202,21019,2,0,L|289:108,1,80,8|0,0:0|0:0,0:0:0:0:
379,253,21353,6,0,P|313:246|186:240,2,160,10|8|8,0:3|0:0|0:3,0:0:0:0:
379,253,22186,1,8,0:3:0:0:
289,365,22353,5,10,0:0:0:0:
219,240,22519,1,2,0:0:0:0:
289,365,22686,2,0,L|298:285,1,80,10|0,0:3|0:0,0:0:0:0:
309,122,23019,5,8,0:0:0:0:
299,201,23186,2,0,L|309:122,1,80,2|8,0:0|0:3,0:0:0:0:
387,260,23519,1,10,0:3:0:0:
387,260,23686,2,0,L|397:181,1,80,8|0,0:0|0:0,0:0:0:0:
450,316,24019,6,0,B|365:326|379:273|295:285,2,160,6|8|8,0:2|0:0|0:3,0:0:0:0:
450,316,24853,1,8,0:3:0:0:
397,180,25019,6,0,L|387:259,1,80,10|0,0:0|0:0,0:0:0:0:
307,364,25353,2,0,L|297:285,1,80,10|0,0:3|0:0,0:0:0:0:
287,121,25686,5,8,0:0:0:0:
297,200,25853,2,0,L|287:121,1,80,2|8,0:0|0:3,0:0:0:0:
397,180,26186,1,10,0:3:0:0:
397,180,26353,2,0,L|407:101,1,80,8|0,0:0|0:0,0:0:0:0:
249,38,26686,6,0,P|329:29|407:16,2,160,10|8|8,0:3|0:0|0:3,0:0:0:0:
249,38,27519,1,8,0:3:0:0:
125,102,27686,5,10,0:0:0:0:
241,182,27853,1,2,0:0:0:0:
114,242,28019,5,10,0:3:0:0:
160,174,28186,1,8,0:0:0:0:
150,316,28353,5,10,0:0:0:0:
114,242,28519,1,10,0:3:0:0:
97,239,28603,1,8,0:3:0:0:
81,236,28686,1,8,0:3:0:0:
125,102,28853,5,10,0:3:0:0:
160,174,29019,1,4,0:3:0:0:
195,247,29186,1,4,0:3:0:0:
205,108,29353,5,6,0:0:0:0:
205,108,29686,1,10,0:0:0:0:
125,102,29853,2,0,P|93:98|44:96,1,55.9999982910157,2|8,0:0|0:0,0:0:0:0:
170,36,30186,5,10,0:3:0:0:
205,108,30353,1,10,0:0:0:0:
170,36,30519,1,10,0:3:0:0:
162,28,30686,2,0,P|104:22|31:16,1,111.999996582031,8|8,0:0|0:0,0:0:0:0:
42,25,31186,1,8,0:3:0:0:
25,88,31353,6,0,P|28:60|34:33,1,55.9999982910157,10|8,0:0|0:3,0:0:0:0:
102,75,31686,2,0,P|98:102|93:130,1,55.9999982910157,10|8,0:0|0:3,0:0:0:0:
15,194,32019,5,10,0:0:0:0:
15,194,32353,1,10,0:0:0:0:
66,254,32519,2,0,L|144:245,1,55.9999982910157,2|8,0:0|0:0,0:0:0:0:
6,305,32853,5,10,0:3:0:0:
66,254,33019,1,10,0:0:0:0:
6,305,33186,1,10,0:3:0:0:
2,315,33353,2,0,P|24:330|51:339,1,55.9999982910157,8|0,0:0|0:0,0:0:0:0:
121,247,33686,6,0,P|143:231|170:222,1,55.9999982910157,10|8,0:0|0:3,0:0:0:0:
236,268,34019,2,0,P|258:283|285:292,1,55.9999982910157,10|8,0:0|0:3,0:0:0:0:
357,255,34353,2,0,P|384:252|412:258,1,55.9999982910157,10|8,0:0|0:3,0:0:0:0:
486,328,34686,6,0,P|490:270|504:194,2,111.999996582031,10|8|8,0:0|0:0|0:0,0:0:0:0:
492,337,35519,1,8,0:3:0:0:
412,258,35686,5,10,0:0:0:0:
339,296,35853,2,0,P|312:296|284:291,1,55.9999982910157,10|8,0:3|0:0,0:0:0:0:
399,180,36186,5,2,0:0:0:0:
412,258,36353,1,10,0:0:0:0:
399,180,36519,2,0,P|374:166|348:155,1,55.9999982910157,10|8,0:3|0:0,0:0:0:0:
339,296,36853,5,10,0:3:0:0:
412,258,37019,1,10,0:0:0:0:
339,296,37186,1,10,0:3:0:0:
331,304,37353,2,0,P|303:304|275:299,1,55.9999982910157,8|0,0:3|0:0,0:0:0:0:
412,258,37686,5,10,0:0:0:0:
399,180,37853,2,0,P|374:166|348:155,1,55.9999982910157,2|8,0:0|0:0,0:0:0:0:
255,211,38186,5,10,0:3:0:0:
178,185,38353,1,10,0:0:0:0:
255,211,38519,1,10,0:3:0:0:
230,31,38686,5,6,0:0:0:0:
178,185,38853,1,10,0:3:0:0:
204,108,39019,1,8,0:0:0:0:
152,262,39186,6,0,L|73:271,1,55.9999982910157,12|0,0:0|0:0,0:0:0:0:
204,108,39519,5,10,0:3:0:0:
255,211,39686,1,8,0:0:0:0:
275,217,39769,1,8,0:0:0:0:
296,217,39853,1,8,0:0:0:0:
316,210,39936,1,8,0:0:0:0:
332,197,40019,6,0,P|391:169|468:198,1,136.000002593994,6|10,0:0|0:0,0:0:0:0:
420,320,40519,2,0,P|404:291|398:258,1,68.0000012969971,2|8,0:0|0:3,0:0:0:0:
383,129,40853,5,10,0:3:0:0:
456,187,41019,1,10,0:0:0:0:
470,95,41186,1,2,0:0:0:0:
474,78,41353,2,0,B|463:133|463:133|475:169|475:169|450:203,1,136.000002593994,8|8,0:3|0:0,0:0:0:0:
444,219,41853,1,0,0:0:0:0:
440,302,42019,6,0,P|436:256|439:223,1,68.0000012969971,10|8,0:3|0:3,0:0:0:0:
466,112,42353,2,0,P|467:78|463:44,1,68.0000012969971,10|0,0:0|0:0,0:0:0:0:
373,142,42686,6,0,P|342:130|309:122,1,68.0000012969971,10|0,0:3|0:0,0:0:0:0:
381,158,43019,1,10,0:0:0:0:
295,131,43186,2,0,P|260:135|228:145,1,68.0000012969971,2|8,0:0|0:3,0:0:0:0:
389,174,43519,5,10,0:3:0:0:
290,149,43686,1,10,0:0:0:0:
248,241,43853,1,2,0:0:0:0:
239,255,44019,2,0,P|204:251|172:241,1,68.0000012969971,8|0,0:3|0:0,0:0:0:0:
139,96,44353,6,0,L|149:180,1,68.0000012969971,10|0,0:0|0:0,0:0:0:0:
238,77,44686,2,0,L|225:160,1,68.0000012969971,10|8,0:3|0:3,0:0:0:0:
338,84,45019,2,0,L|304:161,1,68.0000012969971,10|0,0:0|0:0,0:0:0:0:
147,163,45353,6,0,P|87:155|9:151,2,136.000002593994,6|8|8,0:0|0:0|0:3,0:0:0:0:
157,176,46186,1,0,0:0:0:0:
238,77,46353,5,10,0:0:0:0:
311,146,46519,2,0,P|347:144|401:136,1,68.0000012969971,2|8,0:0|0:3,0:0:0:0:
252,68,46853,5,2,0:0:0:0:
296,159,47019,1,10,0:0:0:0:
394,133,47186,2,0,P|430:135|484:143,1,68.0000012969971,2|8,0:0|0:3,0:0:0:0:
281,172,47519,5,10,0:3:0:0:
378,140,47686,1,10,0:0:0:0:
423,231,47853,1,2,0:0:0:0:
434,243,48019,2,0,P|467:247|501:248,1,68.0000012969971,8|0,0:3|0:0,0:0:0:0:
353,330,48353,5,10,0:0:0:0:
423,231,48519,2,0,P|457:231|491:236,1,68.0000012969971,2|8,0:0|0:3,0:0:0:0:
369,331,48853,5,10,0:3:0:0:
434,243,49019,1,10,0:0:0:0:
385,332,49186,1,2,0:0:0:0:
423,231,49353,2,0,L|433:151,1,68.0000012969971,10|0,0:3|0:0,0:0:0:0:
402,50,49686,5,12,0:0:0:0:
360,121,49853,1,8,0:3:0:0:
289,79,50019,1,4,0:3:0:0:
330,8,50186,1,8,0:3:0:0:
402,50,50353,5,8,0:3:0:0:
289,79,50519,1,10,0:3:0:0:
176,108,50686,6,0,P|230:101|282:99,1,103.999995239258,6|10,0:0|0:3,0:0:0:0:
176,108,51186,2,0,P|159:86|145:64,1,51.999997619629,2|8,0:0|0:0,0:0:0:0:
176,108,51519,2,0,P|165:133|153:156,1,51.999997619629,2|8,0:0|0:3,0:0:0:0:
84,119,51853,5,10,0:3:0:0:
154,155,52019,2,0,P|158:180|163:205,1,51.999997619629,2|8,0:0|0:0,0:0:0:0:
236,162,52353,1,10,0:3:0:0:
163,206,52519,2,0,P|160:231|159:257,1,51.999997619629,2|8,0:0|0:0,0:0:0:0:
163,206,52853,2,0,P|138:206|112:209,1,51.999997619629,2|8,0:0|0:3,0:0:0:0:
111,209,53353,6,0,P|184:215|233:214,1,103.999995239258,10|8,0:3|0:3,0:0:0:0:
111,209,53853,2,0,P|85:209|59:212,1,51.999997619629,2|8,0:0|0:0,0:0:0:0:
37,297,54186,5,2,0:3:0:0:
37,297,54353,2,0,P|63:297|89:294,1,51.999997619629,8|8,0:3|0:3,0:0:0:0:
59,212,54686,2,0,L|56:155,2,51.999997619629,2|8|8,0:0|0:0|0:3,0:0:0:0:
107,298,55186,5,8,0:2:0:0:
127,302,55269,1,8,0:2:0:0:
147,307,55353,1,10,0:3:0:0:
214,214,55519,5,8,0:0:0:0:
167,312,55686,1,4,0:3:0:0:
197,227,55853,1,8,0:3:0:0:
252,342,56019,6,0,P|250:272|198:227,1,143.999995605469,6|10,0:0|0:0,0:0:0:0:
96,307,56519,2,0,P|130:315|166:311,1,71.9999978027344,2|8,0:0|0:3,0:0:0:0:
240,148,56853,1,10,0:3:0:0:
240,148,57019,2,0,P|205:139|169:143,1,71.9999978027344,8|0,0:0|0:0,0:0:0:0:
54,219,57353,6,0,B|105:217|105:217|147:229|147:229|197:227,1,143.999995605469,10|8,0:3|2:0,0:0:0:0:
200,231,58019,5,10,0:3:0:0:
200,231,58186,1,8,0:3:0:0:
333,187,58353,2,0,B|340:95,1,71.9999978027344,10|0,2:0|0:0,0:0:0:0:
237,54,58686,5,14,0:2:0:0:
346,36,58853,1,8,0:3:0:0:
455,18,59019,1,8,0:3:0:0:
338,115,59186,5,10,0:3:0:0:
448,38,59353,1,10,0:3:0:0:
331,20,59519,5,10,0:3:0:0:
441,58,59686,1,10,0:0:0:0:
243,74,59853,5,10,0:3:0:0:
243,74,60186,5,10,0:0:0:0:
434,78,60353,1,10,0:0:0:0:
434,78,60686,5,2,0:0:0:0:
425,96,60769,1,2,0:0:0:0:
421,116,60853,1,2,0:0:0:0:
422,137,60936,1,2,0:0:0:0:
427,157,61019,6,0,L|384:170,3,35.9999989013672,2|2|2|2,0:0|0:0|0:0|0:0,0:0:0:0:
363,179,61353,6,0,P|451:178|487:275,1,191.999994140625,6|10,0:0|0:0,0:0:0:0:
328,264,61853,2,0,P|334:216|363:179,1,95.9999970703126,2|8,0:0|0:3,0:0:0:0:
397,323,62186,1,10,0:3:0:0:
397,323,62353,2,0,P|354:303|328:264,1,95.9999970703126,8|0,0:0|0:0,0:0:0:0:
360,87,62686,6,0,B|386:135|363:179|363:179|322:211|328:264,1,191.999994140625,10|8,0:3|0:0,0:0:0:0:
328,263,63353,5,10,0:3:0:0:
237,140,63519,1,10,0:3:0:0:
246,304,63686,2,0,P|292:295|327:264,1,95.9999970703126,10|0,0:0|0:0,0:0:0:0:
160,333,64019,6,0,B|197:292|248:304|248:304|300:304|328:263,1,191.999994140625,10|10,0:3|0:0,0:0:0:0:
356,83,64519,1,2,0:3:0:0:
356,83,64603,1,2,0:3:0:0:
356,83,64686,2,0,P|343:133|334:192,2,95.9999970703126,8|8|8,0:3|0:3|0:0,0:0:0:0:
408,283,65186,5,2,0:0:0:0:
336,177,65353,2,0,P|262:130|145:141,1,191.999994140625,10|10,0:3|0:0,0:0:0:0:
356,83,65853,6,0,P|321:114|275:136,1,95.9999970703126,2|8,0:0|0:3,0:0:0:0:
446,112,66186,1,10,0:3:0:0:
446,112,66353,2,0,P|403:90|356:83,1,95.9999970703126,8|0,0:0|0:0,0:0:0:0:
160,134,66686,6,0,P|255:128|336:177,2,191.999994140625,6|8|8,0:0|0:0|0:3,0:0:0:0:
160,134,67519,1,8,0:3:0:0:
232,50,67686,6,0,P|260:89|275:135,1,95.9999970703126,10|0,0:0|0:0,0:0:0:0:
145,15,68019,2,0,P|232:51|275:135,1,191.999994140625,10|10,0:3|0:0,0:0:0:0:
55,40,68519,6,0,P|98:20|146:15,1,95.9999970703126,2|8,0:0|0:3,0:0:0:0:
8,122,68853,1,10,0:3:0:0:
8,122,69019,2,0,P|25:77|55:40,1,95.9999970703126,8|0,0:0|0:0,0:0:0:0:
278,138,69353,5,6,0:0:0:0:
278,138,69519,1,8,0:3:0:0:
146,15,69686,5,10,0:0:0:0:
278,138,69853,2,0,P|263:92|236:54,1,95.9999970703126,4|0,0:0|0:0,0:0:0:0:
7,122,70186,5,10,0:3:0:0:
146,15,70353,1,10,0:0:0:0:
133,222,70519,6,0,L|146:14,1,207.999990478516,4|8,0:0|0:3,0:0:0:0:
277,138,71019,5,8,0:0:0:0:
440,56,71186,2,0,P|333:48|277:139,1,223.999993164063,6|8,0:0|0:0,0:0:0:0:
314,222,71686,5,10,0:0:0:0:
337,218,71769,1,8,0:0:0:0:
361,220,71853,1,8,0:0:0:0:
384,228,71936,1,8,0:0:0:0:
404,242,72019,6,0,P|313:222|277:137,1,191.999994140625,6|10,0:0|0:0,0:0:0:0:
279,307,72519,2,0,P|308:270|314:223,1,95.9999970703126,2|8,0:0|0:3,0:0:0:0:
195,342,72853,1,10,0:3:0:0:
195,342,73019,2,0,P|232:313|279:307,1,95.9999970703126,8|0,0:0|0:0,0:0:0:0:
462,281,73353,6,0,B|413:265|370:295|370:295|327:326|279:307,1,191.999994140625,10|8,0:3|0:0,0:0:0:0:
280,307,74019,5,10,0:3:0:0:
183,168,74186,1,10,0:3:0:0:
196,343,74353,2,0,P|243:337|280:308,1,95.9999970703126,10|0,0:0|0:0,0:0:0:0:
298,122,74686,6,0,B|272:159|287:211|287:211|304:263|280:307,1,191.999994140625,10|10,0:3|0:0,0:0:0:0:
376,182,75186,1,2,0:3:0:0:
376,182,75269,1,2,0:3:0:0:
376,182,75353,2,0,P|422:169|505:165,2,95.9999970703126,8|8|8,0:3|0:3|0:0,0:0:0:0:
207,252,75853,5,2,0:0:0:0:
298,122,76019,2,0,P|387:88|483:79,1,191.999994140625,10|10,0:3|0:0,0:0:0:0:
309,37,76519,6,0,P|344:69|389:88,1,95.9999970703126,2|8,0:0|0:3,0:0:0:0:
215,42,76853,1,10,0:3:0:0:
215,42,77019,2,0,P|261:31|309:37,1,95.9999970703126,8|0,0:0|0:0,0:0:0:0:
484,80,77353,6,0,P|388:88|299:121,2,191.999994140625,6|8|8,0:0|0:0|0:3,0:0:0:0:
484,80,78186,1,8,0:3:0:0:
378,172,78353,6,0,P|334:153|298:121,1,95.9999970703126,10|0,0:0|0:0,0:0:0:0:
340,306,78686,2,0,P|333:210|298:121,1,191.999994140625,10|10,0:3|0:0,0:0:0:0:
256,263,79186,6,0,P|294:291|339:306,1,95.9999970703126,2|8,0:0|0:3,0:0:0:0:
162,268,79519,1,10,0:3:0:0:
162,268,79686,2,0,P|208:257|256:263,1,95.9999970703126,8|0,0:0|0:0,0:0:0:0:
94,332,80019,6,0,P|162:266|172:173,2,191.999994140625,10|8|8,0:3|0:0|0:3,0:0:0:0:
94,332,80853,1,8,0:3:0:0:
255,262,81019,6,0,P|207:256|161:268,1,95.9999970703126,10|0,0:0|0:0,0:0:0:0:
324,325,81353,2,0,P|255:262|162:268,1,191.999994140625,10|10,0:3|0:0,0:0:0:0:
308,184,81853,6,0,P|288:227|254:262,1,95.9999970703126,2|0,0:0|0:0,0:0:0:0:
287,93,82186,1,10,0:3:0:0:
287,93,82269,1,2,0:0:0:0:
287,93,82353,2,0,P|306:137|308:185,1,95.9999970703126,8|0,0:0|0:0,0:0:0:0:
162,268,82686,5,14,0:0:0:0:
196,163,82853,1,10,0:3:0:0:
174,283,83019,5,10,0:0:0:0:
53,316,83186,1,10,0:3:0:0:
190,297,83353,5,10,0:0:0:0:
79,199,83519,1,10,0:3:0:0:
206,311,83686,5,10,0:0:0:0:
308,184,83853,1,10,0:3:0:0:
385,320,84019,6,0,B|411:293|404:256|404:256|392:275|380:280,1,103.999995239258,10|0,0:0|0:0,0:0:0:0:
222,325,84353,5,10,0:0:0:0:
196,163,84519,2,0,L|181:38,1,103.999995239258,10|8,0:3|0:0,0:0:0:0:
105,248,84853,6,0,P|71:209|21:199,1,103.999995239258,10|8,0:3|0:0,0:0:0:0:
23,18,85186,5,8,0:3:0:0:
23,18,85269,1,8,0:3:0:0:
22,18,85353,2,0,P|87:100|183:59,1,223.999993164063,6|8,0:0|0:0,0:0:0:0:
105,248,85853,1,10,0:3:0:0:
244,134,86019,6,0,P|218:145|196:162,1,55.9999982910157,10|8,0:2|0:2,0:2:0:0:
125,196,86186,2,0,P|112:221|105:248,1,55.9999982910157,8|8,0:2|0:2,0:2:0:0:
170,304,86353,5,10,0:0:0:0:
188,301,86436,1,8,0:0:0:0:
205,301,86519,1,10,0:0:0:0:
224,300,86603,1,8,0:0:0:0:
242,298,86686,6,0,P|293:318|334:361,1,95.9999970703126,14|8,0:0|0:3,0:0:0:0:
446,186,87019,5,10,0:0:0:0:
267,208,87186,2,0,P|246:251|242:298,1,95.9999970703126,6|0,0:0|0:0,0:0:0:0:
182,92,87519,5,10,0:3:0:0:
267,208,87686,1,10,0:3:0:0:
277,208,87769,1,10,0:3:0:0:
288,209,87853,1,10,0:3:0:0:
300,210,87936,1,10,0:3:0:0:
311,210,88019,6,0,B|350:183|350:183|381:123|356:71,1,160,14|8,0:1|0:0,0:0:0:0:
103,82,88686,5,10,0:3:0:0:
103,82,88853,1,8,0:3:0:0:
182,92,89019,2,0,L|88:81,1,80,8|0,0:0|0:0,0:0:0:0:
69,185,89353,6,0,P|107:141|103:82,1,120,10|0,0:3|0:0,0:0:0:0:
103,82,89686,2,0,L|9:71,1,80,8|0,0:0|0:0,0:0:0:0:
262,102,90019,5,10,0:3:0:0:
262,102,90186,1,8,0:3:0:0:
182,92,90353,2,0,L|276:103,1,80,8|0,0:0|0:0,0:0:0:0:
410,163,90686,6,0,P|366:124|397:20,2,160,10|8|8,0:3|0:0|0:3,0:0:0:0:
410,163,91519,1,8,0:3:0:0:
381,32,91686,5,10,0:0:0:0:
261,101,91853,1,2,0:0:0:0:
381,32,92019,2,0,L|301:23,1,80,10|0,0:3|0:0,0:0:0:0:
181,110,92353,5,8,0:0:0:0:
261,101,92519,2,0,L|181:110,1,80,2|8,0:0|0:3,0:0:0:0:
61,178,92853,1,10,0:3:0:0:
61,178,93019,2,0,L|141:187,1,80,8|0,0:0|0:0,0:0:0:0:
305,205,93353,6,0,P|239:170|262:100,2,160,6|8|8,0:2|0:0|0:3,0:0:0:0:
305,205,94186,1,8,0:3:0:0:
261,101,94353,6,0,L|182:91,1,80,10|0,0:0|0:0,0:0:0:0:
229,198,94686,2,0,L|308:208,1,80,10|0,0:3|0:0,0:0:0:0:
470,230,95019,5,8,0:0:0:0:
391,220,95186,2,0,L|470:230,1,80,2|8,0:0|0:3,0:0:0:0:
405,325,95519,1,10,0:3:0:0:
405,325,95686,2,0,L|326:315,1,80,8|0,0:0|0:0,0:0:0:0:
230,198,96019,6,0,P|238:127|243:31,2,160,10|8|8,0:3|0:0|0:3,0:0:0:0:
230,198,96853,1,8,0:3:0:0:
243,38,97019,5,10,0:0:0:0:
327,154,97186,1,2,0:0:0:0:
387,22,97353,5,6,0:0:0:0:
319,70,97519,1,8,0:2:0:0:
403,189,97686,5,10,0:0:0:0:
251,119,97853,2,0,L|151:106,1,80,10|8,0:3|0:3,0:0:0:0:
55,155,98186,5,10,2:2:0:0:
73,153,98269,1,8,2:2:0:0:
93,156,98353,1,8,0:0:0:0:
111,165,98436,1,8,0:0:0:0:
126,177,98519,1,8,0:0:0:0:
138,193,98603,1,8,0:0:0:0:
146,212,98686,6,0,L|150:296,1,64,6|0,0:0|0:0,0:0:0:0:
184,358,99019,1,10,0:0:0:0:
274,370,99186,2,0,P|305:363|337:359,1,64,2|8,0:0|0:3,0:0:0:0:
239,287,99519,5,10,0:3:0:0:
184,358,99686,1,10,0:0:0:0:
149,275,99853,1,2,0:0:0:0:
142,264,100019,2,0,P|81:254|8:254,1,128,10|8,0:3|0:0,0:0:0:0:
10,266,100519,1,0,0:0:0:0:
13,341,100686,6,0,P|12:309|6:278,1,64,10|8,0:3|0:3,0:0:0:0:
83,217,101019,2,0,P|83:185|90:153,1,64,10|0,0:0|0:0,0:0:0:0:
43,68,101353,5,10,0:3:0:0:
43,68,101686,1,10,0:0:0:0:
90,154,101853,2,0,L|154:145,1,64,2|8,0:0|0:3,0:0:0:0:
310,132,102186,5,10,0:3:0:0:
235,183,102353,1,10,0:0:0:0:
228,93,102519,1,2,0:0:0:0:
225,80,102686,2,0,L|216:16,1,64,8|0,0:3|0:0,0:0:0:0:
314,119,103019,6,0,P|343:107|374:103,1,64,10|0,0:0|0:0,0:0:0:0:
457,141,103353,2,0,P|478:164|491:193,1,64,10|8,0:3|0:3,0:0:0:0:
481,283,103686,2,0,P|464:310|441:331,1,64,10|0,0:0|0:0,0:0:0:0:
352,303,104019,5,6,0:0:0:0:
340,294,104186,1,0,0:0:0:0:
265,296,104353,1,8,0:0:0:0:
253,289,104519,1,0,0:0:0:0:
180,298,104686,1,8,0:3:0:0:
167,292,104853,1,0,0:0:0:0:
202,210,105019,5,10,0:0:0:0:
154,286,105186,2,0,P|122:284|72:275,1,64,2|8,0:0|0:3,0:0:0:0:
202,210,105519,5,2,0:0:0:0:
154,286,105686,1,10,0:0:0:0:
202,210,105853,2,0,P|177:190|150:172,1,64,2|8,0:0|0:3,0:0:0:0:
154,286,106186,5,10,0:3:0:0:
202,210,106353,1,10,0:0:0:0:
154,286,106519,1,2,0:0:0:0:
150,298,106686,2,0,P|118:296|68:287,1,64,8|0,0:3|0:0,0:0:0:0:
243,294,107019,5,10,0:0:0:0:
202,210,107186,2,0,P|178:191|151:173,1,64,2|8,0:0|0:3,0:0:0:0:
6,94,107519,5,10,0:3:0:0:
78,133,107686,1,10,0:0:0:0:
76,52,107853,1,2,0:0:0:0:
8,175,108019,5,6,0:0:0:0:
4,13,108186,1,10,0:3:0:0:
6,94,108353,1,8,0:0:0:0:
148,91,108519,2,0,L|223:96,1,71.9999978027344,12|0,0:0|0:0,0:0:0:0:
78,133,108853,5,10,0:3:0:0:
220,96,109019,1,8,0:0:0:0:
239,99,109103,1,8,0:0:0:0:
259,110,109186,1,8,0:0:0:0:
273,126,109269,1,8,0:0:0:0:
281,147,109353,6,0,P|332:182|402:159,1,136.000002593994,6|0,0:0|0:0,0:0:0:0:
479,25,109853,2,0,P|468:57|465:91,1,68.0000012969971,2|8,0:0|0:3,0:0:0:0:
466,227,110186,5,10,0:3:0:0:
399,162,110353,1,10,0:0:0:0:
376,252,110519,1,2,0:0:0:0:
368,267,110686,2,0,B|371:240|356:222|356:222|379:197|379:197|380:167|393:145,1,136.000002593994,8|8,0:3|0:0,0:0:0:0:
385,128,111186,1,0,0:0:0:0:
366,44,111353,6,0,P|374:77|377:110,1,68.0000012969971,10|8,0:3|0:3,0:0:0:0:
357,222,111686,2,0,P|348:254|345:288,1,68.0000012969971,10|0,0:0|0:0,0:0:0:0:
242,330,112019,6,0,P|217:306|190:286,1,68.0000012969971,10|0,0:3|0:0,0:0:0:0:
244,346,112353,1,10,0:0:0:0:
173,290,112519,2,0,P|140:281|106:277,1,68.0000012969971,2|8,0:0|0:3,0:0:0:0:
241,362,112853,5,10,0:3:0:0:
161,302,113019,1,10,0:0:0:0:
70,347,113186,1,2,0:0:0:0:
58,359,113353,2,0,P|23:355|-9:346,1,68.0000012969971,8|0,0:3|0:0,0:0:0:0:
82,201,113686,6,0,P|90:234|91:268,1,68.0000012969971,10|0,0:0|0:0,0:0:0:0:
176,145,114019,2,0,P|168:178|167:211,1,68.0000012969971,10|8,0:3|0:3,0:0:0:0:
75,61,114353,2,0,P|91:90|100:123,1,68.0000012969971,10|0,0:0|0:0,0:0:0:0:
167,212,114686,6,0,B|239:202|230:247|298:233,2,136.000002593994,6|8|8,0:0|0:0|0:3,0:0:0:0:
154,222,115519,1,0,0:0:0:0:
247,322,115686,5,10,0:0:0:0:
298,233,115853,2,0,L|311:137,1,68.0000012969971,2|8,0:0|0:3,0:0:0:0:
263,322,116186,5,2,0:0:0:0:
315,234,116353,1,10,0:0:0:0:
404,183,116519,2,0,L|417:87,1,68.0000012969971,2|8,0:0|0:3,0:0:0:0:
331,234,116853,5,10,0:3:0:0:
420,183,117019,1,10,0:0:0:0:
478,268,117186,1,2,0:0:0:0:
492,259,117353,2,0,L|505:163,1,68.0000012969971,8|0,0:3|0:0,0:0:0:0:
478,268,117686,5,10,0:0:0:0:
420,183,117853,2,0,P|393:162|352:148,1,68.0000012969971,2|8,0:0|0:3,0:0:0:0:
243,211,118186,5,10,0:3:0:0:
344,147,118353,1,10,0:0:0:0:
257,220,118519,1,2,0:0:0:0:
327,145,118686,2,0,L|334:62,1,68.0000012969971,8|0,0:3|0:0,0:0:0:0:
173,43,119019,5,12,0:0:0:0:
252,60,119186,1,8,0:3:0:0:
332,77,119353,1,4,0:3:0:0:
412,95,119519,1,8,0:3:0:0:
388,17,119686,5,8,0:3:0:0:
356,155,119853,1,10,0:3:0:0:
252,60,120019,6,0,P|263:101|270:168,1,103.999995239258,6|10,0:0|0:3,0:0:0:0:
252,60,120519,2,0,P|268:41|298:21,1,51.999997619629,2|8,0:0|0:0,0:0:0:0:
252,60,120853,2,0,P|227:55|195:39,1,51.999997619629,2|8,0:0|0:3,0:0:0:0:
117,24,121186,5,10,0:3:0:0:
203,44,121353,2,0,P|211:68|213:103,1,51.999997619629,2|8,0:0|0:0,0:0:0:0:
269,162,121686,1,10,0:3:0:0:
213,94,121853,2,0,P|198:115|188:139,1,51.999997619629,2|8,0:0|0:0,0:0:0:0:
213,94,122186,2,0,P|236:83|262:78,1,51.999997619629,2|8,0:0|0:3,0:0:0:0:
262,78,122686,6,0,P|210:77|158:72,1,103.999995239258,10|8,0:3|0:3,0:0:0:0:
262,78,123186,2,0,P|288:78|314:81,1,51.999997619629,2|8,0:0|0:0,0:0:0:0:
335,172,123519,5,2,0:3:0:0:
335,172,123686,2,0,P|309:172|283:169,1,51.999997619629,8|8,0:3|0:3,0:0:0:0:
314,81,124019,2,0,L|315:26,2,51.999997619629,2|8|8,0:0|0:0|0:3,0:0:0:0:
355,169,124519,5,8,0:2:0:0:
377,167,124603,1,8,0:2:0:0:
399,165,124686,1,10,0:3:0:0:
498,84,124853,5,8,0:0:0:0:
421,163,125019,1,4,0:3:0:0:
480,96,125186,1,8,0:3:0:0:
484,225,125353,6,0,B|487:188|511:159|511:159|485:128|480:96,1,143.999995605469,6|10,0:0|0:0,0:0:0:0:
351,148,125853,2,0,P|387:151|421:163,1,71.9999978027344,2|8,0:0|0:3,0:0:0:0:
301,243,126186,1,10,0:3:0:0:
301,243,126353,2,0,P|334:230|370:227,1,71.9999978027344,8|0,0:0|0:0,0:0:0:0:
490,333,126686,6,0,P|423:309|352:309,1,143.999995605469,10|8,0:3|2:0,0:0:0:0:
355,313,127353,5,10,0:3:0:0:
355,313,127519,1,8,0:3:0:0:
239,358,127686,2,0,B|229:266,1,71.9999978027344,10|0,2:0|0:0,0:0:0:0:
209,71,128019,5,14,0:2:0:0:
220,178,128186,1,8,0:3:0:0:
231,286,128353,1,8,0:3:0:0:
112,189,128519,5,10,0:3:0:0:
228,268,128686,1,10,0:3:0:0:
336,176,128853,5,10,0:3:0:0:
226,250,129019,1,10,0:0:0:0:
209,71,129186,5,10,0:3:0:0:
209,71,129519,5,10,0:0:0:0:
223,232,129686,1,10,0:0:0:0:
223,232,130019,5,10,0:2:0:0:
203,236,130103,1,10,0:3:0:0:
185,245,130186,1,10,0:3:0:0:
170,260,130269,1,10,0:3:0:0:
158,276,130353,6,0,P|133:280|108:273,3,35.9999989013672,2|2|2|2,0:0|0:0|0:0|0:0,0:0:0:0:
92,271,130686,6,0,P|195:275|226:364,1,191.999994140625,6|10,0:0|0:0,0:0:0:0:
57,355,131186,2,0,P|63:308|92:271,1,95.9999970703126,2|8,0:0|0:3,0:0:0:0:
202,157,131519,1,10,0:3:0:0:
202,157,131686,2,0,P|158:175|111:168,1,95.9999970703126,8|0,0:0|0:0,0:0:0:0:
286,193,132019,6,0,B|253:152|202:157|202:157|160:187|111:168,1,191.999994140625,10|8,0:3|0:0,0:0:0:0:
111,168,132686,5,10,0:3:0:0:
54,307,132853,1,10,0:3:0:0:
20,157,133019,2,0,P|66:150|110:168,1,95.9999970703126,10|0,0:0|0:0,0:0:0:0:
286,193,133353,6,0,B|237:174|195:204|195:204|144:209|111:168,1,191.999994140625,10|10,0:3|0:0,0:0:0:0:
177,21,133853,1,2,0:3:0:0:
177,21,133936,1,2,0:3:0:0:
177,21,134019,2,0,P|180:69|178:130,2,95.9999970703126,8|8|8,0:3|0:3|0:0,0:0:0:0:
20,157,134519,5,2,0:0:0:0:
179,117,134686,2,0,B|228:103|270:135|270:135|312:169|360:152,1,191.999994140625,10|10,0:3|0:0,0:0:0:0:
385,1,135186,6,0,P|346:27|328:71,1,95.9999970703126,2|8,0:0|0:3,0:0:0:0:
446,170,135519,1,10,0:3:0:0:
446,170,135686,2,0,P|445:123|418:85,1,95.9999970703126,8|0,0:0|0:0,0:0:0:0:
179,117,136019,6,0,B|228:103|270:135|270:135|312:169|360:152,2,191.999994140625,6|8|8,0:0|0:0|0:3,0:0:0:0:
179,117,136853,1,8,0:3:0:0:
151,274,137019,6,0,P|191:247|209:204,1,95.9999970703126,10|0,0:0|0:0,0:0:0:0:
383,245,137353,2,0,P|289:254|209:204,1,191.999994140625,10|10,0:3|0:0,0:0:0:0:
319,339,137853,6,0,P|315:291|286:254,1,95.9999970703126,2|8,0:0|0:3,0:0:0:0:
119,191,138186,1,10,0:3:0:0:
119,191,138353,2,0,P|162:211|209:204,1,95.9999970703126,8|0,0:0|0:0,0:0:0:0:
347,91,138686,5,6,0:0:0:0:
347,91,138853,1,8,0:3:0:0:
208,204,139019,5,10,0:0:0:0:
347,91,139186,2,0,P|308:118|290:162,1,95.9999970703126,4|0,0:0|0:0,0:0:0:0:
319,339,139519,5,10,0:3:0:0:
381,176,139686,1,10,0:0:0:0:
231,316,139853,6,0,P|302:249|392:287,1,207.999990478516,4|8,0:0|0:3,0:0:0:0:
302,130,140353,5,8,0:0:0:0:
319,339,140519,2,0,B|305:277|305:277|283:248|283:248|263:184|305:125,1,223.999993164063,6|8,0:0|0:0,0:0:0:0:
419,200,141019,5,10,0:0:0:0:
441,199,141103,1,8,0:0:0:0:
464,192,141186,1,8,0:0:0:0:
485,179,141269,1,8,0:0:0:0:
502,161,141353,6,0,B|524:125|525:64|492:34|492:34|498:64|481:94,1,191.999994140625,6|10,0:0|0:0,0:0:0:0:
308,40,141853,2,0,P|355:37|402:50,1,95.9999970703126,2|8,0:0|0:3,0:0:0:0:
220,74,142186,1,10,0:3:0:0:
220,74,142353,2,0,P|266:64|308:40,1,95.9999970703126,8|0,0:0|0:0,0:0:0:0:
127,79,142686,6,0,B|169:56|220:73|220:73|266:73|308:40,1,191.999994140625,10|8,0:3|0:0,0:0:0:0:
308,39,143353,5,10,0:3:0:0:
176,149,143519,1,10,0:3:0:0:
308,39,143686,2,0,P|355:37|401:49,1,95.9999970703126,10|0,0:0|0:0,0:0:0:0:
444,225,144019,6,0,B|399:196|407:142|407:142|425:91|402:49,1,191.999994140625,10|10,0:3|0:0,0:0:0:0:
270,161,144519,1,2,0:3:0:0:
270,161,144603,1,2,0:3:0:0:
270,161,144686,2,0,P|222:150|174:148,2,95.9999970703126,8|8|8,0:3|0:3|0:0,0:0:0:0:
444,225,145186,5,2,0:0:0:0:
270,161,145353,2,0,P|349:212|444:225,1,191.999994140625,10|10,0:3|0:0,0:0:0:0:
280,273,145853,6,0,P|308:234|351:213,1,95.9999970703126,2|8,0:0|0:3,0:0:0:0:
194,306,146186,1,10,0:3:0:0:
194,306,146353,2,0,P|241:300|280:273,1,95.9999970703126,8|0,0:0|0:0,0:0:0:0:
230,37,146686,6,0,B|206:81|223:133|223:133|238:185|212:222,2,191.999994140625,6|8|8,0:0|0:0|0:3,0:0:0:0:
230,37,147519,1,8,0:3:0:0:
137,170,147686,6,0,P|89:166|45:147,1,95.9999970703126,10|0,0:0|0:0,0:0:0:0:
212,222,148019,2,0,B|200:182|137:170|137:170|86:176|39:143,1,191.999994140625,10|10,0:3|0:0,0:0:0:0:
190,314,148519,6,0,P|209:270|212:222,1,95.9999970703126,2|8,0:0|0:3,0:0:0:0:
100,341,148853,1,10,0:3:0:0:
100,341,149019,2,0,P|147:336|190:315,1,95.9999970703126,8|0,0:0|0:0,0:0:0:0:
226,102,149353,6,0,B|174:95|134:125|134:125|88:158|45:146,2,191.999994140625,10|8|8,0:3|0:0|0:3,0:0:0:0:
226,102,150186,1,8,0:3:0:0:
294,228,150353,6,0,P|250:209|203:206,1,95.9999970703126,10|0,0:0|0:0,0:0:0:0:
387,221,150686,2,0,B|346:245|294:228|294:228|249:201|203:206,1,191.999994140625,10|10,0:3|0:0,0:0:0:0:
403,130,151186,6,0,P|407:178|387:221,1,95.9999970703126,2|0,0:0|0:0,0:0:0:0:
332,71,151519,1,10,0:3:0:0:
332,71,151603,1,2,0:0:0:0:
332,71,151686,2,0,P|375:92|403:131,1,95.9999970703126,8|0,0:0|0:0,0:0:0:0:
203,206,152019,5,14,0:0:0:0:
317,161,152186,1,10,0:3:0:0:
210,226,152353,5,10,0:0:0:0:
114,155,152519,1,10,0:3:0:0:
217,246,152686,5,10,0:0:0:0:
218,104,152853,1,10,0:3:0:0:
224,266,153019,5,10,0:0:0:0:
374,262,153186,1,10,0:3:0:0:
382,103,153353,6,0,B|369:42|369:42|346:79,1,103.999995239258,10|0,0:0|0:0,0:0:0:0:
224,266,153686,5,10,0:0:0:0:
114,155,153853,2,0,P|51:131|-16:133,1,103.999995239258,10|8,0:3|0:0,0:0:0:0:
218,104,154186,6,0,L|215:-19,1,103.999995239258,10|8,0:3|0:0,0:0:0:0:
390,110,154519,5,8,0:3:0:0:
390,110,154603,1,8,0:3:0:0:
389,109,154686,2,0,P|306:46|218:104,1,223.999993164063,6|8,0:0|0:0,0:0:0:0:
78,31,155186,1,10,0:3:0:0:
54,185,155353,6,0,P|65:159|81:136,1,55.9999982910157,10|8,0:2|0:2,0:2:0:0:
162,96,155519,2,0,P|190:97|216:104,1,55.9999982910157,8|8,0:2|0:2,0:2:0:0:
286,173,155686,5,10,0:0:0:0:
302,180,155769,1,8,0:0:0:0:
319,184,155853,1,10,0:0:0:0:
337,190,155936,1,8,0:0:0:0:
353,197,156019,6,0,P|411:196|463:170,1,95.9999970703126,14|8,0:0|0:3,0:0:0:0:
355,304,156353,5,10,0:0:0:0:
446,182,156519,2,0,L|466:72,1,95.9999970703126,6|0,0:0|0:0,0:0:0:0:
466,292,156853,5,10,0:2:0:0:
466,292,156936,1,8,0:2:0:0:
466,292,157019,2,0,L|445:180,1,111.999996582031,8|0,0:0|0:0,0:0:0:0:
364,115,157353,6,0,B|320:103|288:132|288:132|243:109|243:109|142:104|183:-65|318:36|243:108|243:108|205:122|191:168|191:168|148:151|120:114|106:68|128:13,1,640,10|2,0:1|3:0,0:0:0:0:
41,203,167853,5,8,0:0:0:0:
41,203,168019,2,0,P|59:200|80:197,1,40,10|8,3:3|0:0,0:0:0:0:
154,229,168353,2,0,P|186:242|234:237,1,80,8|8,0:3|0:0,0:0:0:0:
282,177,168853,2,0,L|286:122,1,40,2|8,3:0|0:3,0:0:0:0:
323,66,169186,1,8,0:0:0:0:
434,99,169353,6,0,P|414:103|395:102,1,40,2|8,3:0|0:0,0:0:0:0:
323,66,169686,2,0,P|285:57|245:68,1,80,8|8,0:3|0:0,0:0:0:0:
175,101,170186,2,0,L|119:94,1,40,2|8,3:0|0:3,0:0:0:0:
39,75,170519,5,8,0:0:0:0:
48,80,170603,1,8,0:0:0:0:
55,87,170686,2,0,P|61:106|64:126,2,40,10|8|8,3:3|0:0|0:3,0:0:0:0:
105,25,171186,2,0,L|144:20,1,40,2|8,0:0|0:0,0:0:0:0:
223,36,171519,1,2,0:0:0:0:
302,25,171686,2,0,L|341:29,1,40,10|8,0:3|0:0,0:0:0:0:
439,11,172019,6,0,P|428:27|420:46,1,40,2|8,3:0|0:0,0:0:0:0:
366,106,172353,2,0,L|357:204,1,80,8|8,0:3|0:0,0:0:0:0:
334,261,172853,2,0,P|342:279|353:295,1,40,10|8,3:2|0:3,0:0:0:0:
328,371,173186,1,8,0:0:0:0:
235,326,173353,6,0,P|253:317|272:311,1,40,14|8,3:3|0:0,0:0:0:0:
354,296,173686,2,0,P|393:301|444:284,1,80,8|8,0:3|0:0,0:0:0:0:
475,223,174186,2,0,L|479:168,1,40,2|8,3:0|0:3,0:0:0:0:
499,105,174519,1,8,0:0:0:0:
403,153,174686,6,0,P|381:149|361:141,1,40,2|8,3:0|0:0,0:0:0:0:
319,76,175019,2,0,P|281:61|235:63,1,80,8|8,0:3|0:0,0:0:0:0:
182,115,175519,2,0,L|177:169,1,40,2|8,3:0|0:3,0:0:0:0:
74,129,175853,5,8,0:0:0:0:
83,134,175936,1,8,0:0:0:0:
90,141,176019,2,0,L|95:195,1,40,10|8,3:3|0:0,0:0:0:0:
174,194,176353,2,0,L|181:114,1,80,8|8,0:3|0:0,0:0:0:0:
243,61,176853,1,2,0:3:0:0:
323,76,177019,2,0,P|341:78|361:79,1,40,10|8,0:3|0:0,0:0:0:0:
449,0,177353,6,0,P|437:14|427:31,1,40,2|8,3:3|0:0,0:0:0:0:
437,110,177686,2,0,P|445:149|448:206,1,80,8|8,0:3|0:0,0:0:0:0:
474,264,178186,2,0,P|483:281|496:296,1,40,10|8,3:2|0:3,0:0:0:0:
494,376,178519,1,8,0:0:0:0:
377,323,178686,6,0,P|401:326|424:333,1,47.9999985351563,14|8,3:3|0:0,0:0:0:0:
497,297,179019,2,0,L|506:190,1,95.9999970703126,8|8,0:3|0:0,0:0:0:0:
475,125,179519,2,0,P|448:115|415:114,1,47.9999985351563,2|8,3:0|0:3,0:0:0:0:
358,154,179853,1,8,0:0:0:0:
327,38,180019,6,0,P|346:53|361:72,1,47.9999985351563,2|8,0:0|0:0,0:0:0:0:
358,154,180353,2,0,L|349:249,1,95.9999970703126,8|8,0:3|0:0,0:0:0:0:
312,322,180853,2,0,P|292:307|278:288,1,47.9999985351563,2|8,3:0|0:3,0:0:0:0:
251,203,181186,5,8,0:0:0:0:
246,212,181269,1,8,0:0:0:0:
241,221,181353,2,0,L|186:217,1,47.9999985351563,10|8,3:3|0:0,0:0:0:0:
122,176,181686,2,0,B|80:162|73:185|27:168,1,95.9999970703126,8|8,0:3|0:0,0:0:0:0:
57,92,182186,1,10,0:0:0:0:
128,52,182353,2,0,L|183:48,1,47.9999985351563,10|8,0:3|0:0,0:0:0:0:
273,35,182686,6,0,P|259:55|251:78,1,47.9999985351563,2|8,3:0|0:0,0:0:0:0:
303,140,183019,2,0,P|362:142|412:157,1,95.9999970703126,8|8,0:3|0:0,0:0:0:0:
467,194,183519,2,0,P|480:214|489:236,1,47.9999985351563,10|8,3:2|0:3,0:0:0:0:
493,318,183853,1,8,0:0:0:0:
387,263,184019,6,0,P|363:254|332:254,1,55.9999982910157,14|8,3:3|0:0,0:0:0:0:
261,298,184353,2,0,P|206:306|154:287,1,111.999996582031,8|8,0:3|0:0,0:0:0:0:
110,215,184853,2,0,L|103:145,1,55.9999982910157,2|8,3:0|0:3,0:0:0:0:
138,78,185186,1,8,0:0:0:0:
0,75,185353,6,0,P|25:87|53:89,1,55.9999982910157,2|8,3:2|0:0,0:0:0:0:
139,79,185686,2,0,P|189:66|265:69,1,111.999996582031,8|8,0:3|0:0,0:0:0:0:
325,101,186186,2,0,L|393:98,1,55.9999982910157,2|8,3:0|0:3,0:0:0:0:
433,197,186519,5,8,0:0:0:0:
428,188,186603,1,8,0:0:0:0:
423,179,186686,2,0,L|355:182,1,55.9999982910157,10|8,3:3|0:0,0:0:0:0:
295,226,187019,2,0,B|284:290|309:278|294:336,1,111.999996582031,8|8,0:3|0:0,0:0:0:0:
214,363,187519,1,2,3:0:0:0:
148,310,187686,2,0,P|117:298|91:295,1,55.9999982910157,8|8,0:3|0:0,0:0:0:0:
8,381,188019,6,0,L|16:326,1,55.9999982910157,2|8,3:3|0:0,0:0:0:0:
30,242,188353,2,0,L|24:114,1,111.999996582031,8|8,0:3|0:0,0:0:0:0:
55,51,188853,1,10,3:2:0:0:
147,78,189019,2,0,P|175:77|207:68,1,55.9999982910157,10|8,0:3|0:0,0:0:0:0:
343,36,189353,6,0,P|311:36|280:39,1,64,10|8,3:3|0:3,0:0:0:0:
233,148,189686,1,8,0:3:0:0:
374,130,189853,2,0,P|343:121|311:116,2,64,8|8|8,0:3|0:3|0:3,0:0:0:0:
233,148,190353,5,8,0:3:0:0:
312,117,190519,1,8,0:3:0:0:
202,70,190686,5,10,0:3:0:0:
118,75,190853,1,8,0:3:0:0:
96,156,191019,1,8,0:3:0:0:
166,201,191186,1,8,0:3:0:0:
202,70,191353,5,8,0:0:0:0:
166,201,191519,1,8,0:0:0:0:
118,75,191686,1,8,0:0:0:0:
233,148,191853,1,8,0:0:0:0:
233,148,192686,5,2,0:0:0:0:
248,123,192769,1,2,0:0:0:0:
273,109,192853,1,2,0:0:0:0:
302,110,192936,1,2,0:0:0:0:
327,125,193019,6,0,L|336:56,3,47.9999985351563,10|10|10|6,0:2|0:2|0:3|0:3,0:0:0:0:
358,60,193353,6,0,P|375:137|301:110,1,191.999994140625,6|10,0:0|0:0,0:0:0:0:
461,167,193853,2,0,P|421:142|374:138,1,95.9999970703126,2|8,0:0|0:3,0:0:0:0:
480,258,194186,1,10,0:3:0:0:
480,257,194353,2,0,P|481:210|461:167,1,95.9999970703126,8|0,0:0|0:0,0:0:0:0:
445,343,194686,6,0,B|443:289|480:258|480:258|492:207|461:167,1,191.999994140625,10|8,0:3|0:0,0:0:0:0:
461,167,195353,5,10,0:3:0:0:
374,288,195519,1,10,0:3:0:0:
373,138,195686,2,0,P|421:142|461:167,1,95.9999970703126,10|0,0:0|0:0,0:0:0:0:
281,144,196019,6,0,B|324:163|373:138|373:138|425:131|461:167,1,191.999994140625,10|10,0:3|0:0,0:0:0:0:
319,43,196519,1,2,0:3:0:0:
319,43,196603,1,2,0:3:0:0:
319,43,196686,2,0,P|266:36|209:26,2,95.9999970703126,8|8|8,0:3|0:3|0:0,0:0:0:0:
461,167,197186,5,2,0:0:0:0:
319,43,197353,2,0,B|266:85|281:149|281:149|257:119|220:109,1,191.999994140625,10|10,0:3|0:0,0:0:0:0:
461,167,197853,6,0,P|423:139|377:125,1,95.9999970703126,2|8,0:0|0:3,0:0:0:0:
467,261,198186,1,10,0:3:0:0:
467,261,198353,2,0,P|472:213|461:167,1,95.9999970703126,8|0,0:0|0:0,0:0:0:0:
193,193,198686,6,0,P|289:197|382:221,2,191.999994140625,6|8|8,0:0|0:0|0:3,0:0:0:0:
193,193,199519,1,8,0:3:0:0:
272,288,199686,6,0,P|291:244|288:196,1,95.9999970703126,10|0,0:0|0:0,0:0:0:0:
201,348,200019,2,0,B|222:303|272:289|272:289|302:246|288:196,1,191.999994140625,10|10,0:3|0:0,0:0:0:0:
115,315,200519,6,0,P|162:321|201:348,1,95.9999970703126,2|8,0:0|0:3,0:0:0:0:
24,330,200853,1,10,0:3:0:0:
24,330,201019,2,0,P|71:333|115:315,1,95.9999970703126,8|0,0:0|0:0,0:0:0:0:
124,109,201353,5,6,0:0:0:0:
124,109,201519,1,8,0:3:0:0:
58,246,201686,5,10,0:0:0:0:
33,94,201853,2,0,P|80:91|124:109,1,95.9999970703126,4|0,0:0|0:0,0:0:0:0:
223,224,202186,5,10,0:3:0:0:
125,109,202353,1,10,0:0:0:0:
318,94,202519,6,0,P|224:134|125:109,1,207.999990478516,4|8,0:0|0:3,0:0:0:0:
58,246,203019,5,8,0:0:0:0:
125,109,203186,2,0,P|219:54|319:95,1,223.999993164063,6|8,0:0|0:0,0:0:0:0:
263,234,203686,5,10,0:0:0:0:
246,217,203769,1,8,0:0:0:0:
234,196,203853,1,8,0:0:0:0:
227,172,203936,1,8,0:0:0:0:
227,148,204019,6,0,B|273:179|263:235|263:235|234:277|259:327,1,191.999994140625,6|10,0:0|0:0,0:0:0:0:
348,199,204519,2,0,P|300:205|263:233,1,95.9999970703126,2|8,0:0|0:3,0:0:0:0:
415,262,204853,1,10,0:3:0:0:
415,262,205019,2,0,P|390:222|349:199,1,95.9999970703126,8|0,0:0|0:0,0:0:0:0:
173,226,205353,6,0,B|217:257|263:233|263:233|298:193|349:199,1,191.999994140625,10|8,0:3|0:0,0:0:0:0:
173,226,206019,5,10,0:3:0:0:
336,280,206186,1,10,0:3:0:0:
173,226,206353,2,0,P|160:181|176:132,1,95.9999970703126,10|0,0:0|0:0,0:0:0:0:
338,64,206686,6,0,B|287:72|263:119|263:119|225:151|175:136,1,191.999994140625,10|10,0:3|0:0,0:0:0:0:
21,62,207186,1,2,0:3:0:0:
21,62,207269,1,2,0:3:0:0:
21,61,207353,2,0,P|65:53|114:64,2,95.9999970703126,8|8|8,0:3|0:3|0:0,0:0:0:0:
174,136,207853,5,2,0:0:0:0:
21,62,208019,2,0,P|114:64|173:135,1,191.999994140625,10|10,0:3|0:0,0:0:0:0:
200,28,208519,6,0,P|150:38|114:63,1,95.9999970703126,2|8,0:0|0:3,0:0:0:0:
293,39,208853,1,10,0:3:0:0:
293,39,209019,2,0,P|245:43|200:28,1,95.9999970703126,8|0,0:0|0:0,0:0:0:0:
334,191,209353,6,0,P|266:128|173:136,2,191.999994140625,6|8|8,0:0|0:0|0:3,0:0:0:0:
334,191,210186,1,8,0:3:0:0:
292,39,210353,6,0,P|271:81|269:129,1,95.9999970703126,10|0,0:0|0:0,0:0:0:0:
360,104,210686,2,0,B|339:58|294:39|294:39|263:71|269:129,1,191.999994140625,10|10,0:3|0:0,0:0:0:0:
450,128,211186,6,0,P|407:106|359:104,1,95.9999970703126,2|8,0:0|0:3,0:0:0:0:
388,199,211519,1,10,0:3:0:0:
388,198,211686,2,0,P|425:168|450:128,1,95.9999970703126,8|0,0:0|0:0,0:0:0:0:
294,220,212019,6,0,B|236:226|204:195|204:195|223:150|269:129,2,191.999994140625,10|8|8,0:3|0:0|0:3,0:0:0:0:
294,220,212853,1,8,0:3:0:0:
115,181,213019,6,0,P|162:175|207:197,1,95.9999970703126,10|0,0:0|0:0,0:0:0:0:
25,168,213353,2,0,B|61:200|115:181|115:181|166:162|205:195,1,191.999994140625,10|10,0:3|0:0,0:0:0:0:
186,346,213853,6,0,P|153:312|148:266,1,95.9999970703126,2|0,0:0|0:0,0:0:0:0:
276,340,214186,1,10,0:3:0:0:
276,340,214269,1,2,0:0:0:0:
276,340,214353,2,0,P|232:357|186:346,1,95.9999970703126,8|0,0:0|0:0,0:0:0:0:
255,117,214686,5,14,0:0:0:0:
329,220,214853,1,10,0:3:0:0:
237,128,215019,5,10,0:0:0:0:
304,15,215186,1,10,0:3:0:0:
219,139,215353,5,10,0:0:0:0:
343,114,215519,1,10,0:3:0:0:
201,150,215686,5,10,0:0:0:0:
89,58,215853,1,10,0:3:0:0:
0,218,216019,6,0,B|-5:187|12:144|12:144|25:168,1,103.999995239258,10|0,0:0|0:0,0:0:0:0:
100,319,216353,5,10,0:0:0:0:
201,150,216519,2,0,L|220:24,1,103.999995239258,10|8,0:3|0:0,0:0:0:0:
329,219,216853,6,0,P|374:195|425:189,1,103.999995239258,10|8,0:3|0:0,0:0:0:0:
284,327,217186,5,8,0:3:0:0:
284,327,217269,1,8,0:3:0:0:
284,327,217353,2,0,P|323:225|425:189,1,223.999993164063,6|8,0:0|0:0,0:0:0:0:
420,331,217853,1,10,0:3:0:0:
329,220,218019,6,0,P|303:210|272:210,1,55.9999982910157,10|8,0:2|0:2,0:2:0:0:
191,203,218186,2,0,P|173:181|160:157,1,55.9999982910157,8|8,0:2|0:2,0:2:0:0:
135,79,218353,5,10,0:0:0:0:
96,64,218436,1,8,0:0:0:0:
55,71,218519,1,10,0:0:0:0:
23,98,218603,1,8,0:0:0:0:
11,138,218686,6,0,L|0:16,1,95.9999970703126,14|8,0:0|0:3,0:0:0:0:
160,156,219019,5,10,0:0:0:0:
19,234,219186,2,0,L|8:112,1,95.9999970703126,6|0,0:0|0:0,0:0:0:0:
188,12,219519,5,10,0:3:0:0:
284,124,219686,1,10,0:3:0:0:
293,126,219769,1,10,0:3:0:0:
304,130,219853,1,10,0:3:0:0:
315,134,219936,1,10,0:3:0:0:
325,137,220019,6,0,B|360:119|405:135|405:135|439:124|460:72,1,160,14|8,0:1|0:0,0:0:0:0:
377,295,220686,5,10,0:3:0:0:
377,295,220853,1,8,0:3:0:0:
368,215,221019,2,0,L|377:294,1,80,8|0,0:0|0:0,0:0:0:0:
489,309,221353,6,0,P|440:285|375:296,1,120,10|0,0:3|0:0,0:0:0:0:
378,295,221686,2,0,L|367:389,1,80,8|0,0:0|0:0,0:0:0:0:
230,349,222019,5,10,0:3:0:0:
230,349,222186,1,8,0:3:0:0:
220,269,222353,2,0,L|231:363,1,80,8|0,0:0|0:0,0:0:0:0:
134,234,222686,6,0,P|212:225|269:171,2,160,10|8|8,0:3|0:0|0:3,0:0:0:0:
134,234,223519,1,8,0:3:0:0:
270,172,223686,5,10,0:0:0:0:
161,104,223853,1,2,0:0:0:0:
270,172,224019,2,0,L|279:92,1,80,10|0,0:3|0:0,0:0:0:0:
151,25,224353,5,10,0:0:0:0:
161,104,224519,2,0,L|151:25,1,80,2|8,0:0|0:3,0:0:0:0:
288,13,224853,1,10,0:3:0:0:
288,13,225019,2,0,L|278:92,1,80,8|0,0:0|0:0,0:0:0:0:
180,194,225353,6,0,B|95:204|109:151|27:162,2,160,6|8|8,0:2|0:0|0:3,0:0:0:0:
180,194,226186,1,8,0:3:0:0:
27,162,226353,6,0,L|17:83,1,80,10|0,0:0|0:0,0:0:0:0:
151,25,226686,2,0,L|161:104,1,80,10|0,0:3|0:0,0:0:0:0:
184,198,227019,5,8,0:0:0:0:
194,277,227186,2,0,L|184:198,1,80,2|8,0:0|0:3,0:0:0:0:
37,241,227519,1,10,0:3:0:0:
37,241,227686,2,0,L|27:162,1,80,8|0,0:0|0:0,0:0:0:0:
194,277,228019,6,0,P|272:265|368:278,2,160,10|8|8,0:3|0:0|0:3,0:0:0:0:
194,277,228853,1,8,0:3:0:0:
91,366,229019,5,10,0:0:0:0:
37,241,229186,1,2,0:0:0:0:
4,368,229353,5,6,0:0:0:0:
4,368,229519,1,8,0:3:0:0:
121,240,229686,5,10,0:0:0:0:
91,366,229853,1,10,0:3:0:0:
37,241,230019,5,8,0:3:0:0:
33,229,230103,1,8,0:3:0:0:
29,217,230186,1,8,0:3:0:0:
25,205,230269,1,8,0:3:0:0:
21,193,230353,5,8,0:3:0:0:
33,165,230436,1,8,0:3:0:0:
37,136,230519,1,8,0:3:0:0:
31,106,230603,1,8,0:3:0:0:
16,80,230686,6,0,P|87:83|152:20,1,160,6|8,0:0|0:0,0:0:0:0:
277,209,231353,5,10,0:3:0:0:
277,209,231519,1,8,0:3:0:0:
198,199,231686,2,0,L|292:210,1,80,8|0,0:0|0:0,0:0:0:0:
232,96,232019,6,0,P|194:140|198:199,1,120,10|0,0:3|0:0,0:0:0:0:
198,199,232353,2,0,L|104:188,1,80,8|0,0:0|0:0,0:0:0:0:
21,85,232686,5,10,0:3:0:0:
21,85,232853,1,8,0:3:0:0:
101,95,233019,2,0,L|7:84,1,80,8|0,0:0|0:0,0:0:0:0:
119,188,233353,6,0,P|182:143|189:66,2,160,10|8|8,0:3|0:0|0:3,0:0:0:0:
119,188,234186,1,8,0:3:0:0:
21,86,234353,5,10,0:0:0:0:
190,67,234519,1,2,0:0:0:0:
21,86,234686,2,0,L|101:95,1,80,10|0,0:3|0:0,0:0:0:0:
270,76,235019,5,8,0:0:0:0:
190,67,235186,2,0,L|270:76,1,80,2|8,0:0|0:3,0:0:0:0:
428,38,235519,1,10,0:3:0:0:
428,38,235686,2,0,L|348:29,1,80,8|0,0:0|0:0,0:0:0:0:
422,215,236019,6,0,P|418:140|337:117,2,160,6|8|8,0:2|0:0|0:3,0:0:0:0:
422,215,236853,1,8,0:3:0:0:
347,114,237019,6,0,L|268:124,1,80,10|0,0:0|0:0,0:0:0:0:
242,255,237353,2,0,L|321:245,1,80,10|0,0:3|0:0,0:0:0:0:
267,124,237686,5,8,0:0:0:0:
188,134,237853,2,0,L|267:124,1,80,2|8,0:0|0:3,0:0:0:0:
162,265,238186,1,10,0:3:0:0:
162,265,238353,2,0,L|241:255,1,80,8|0,0:0|0:0,0:0:0:0:
118,354,238686,6,0,P|113:274|90:198,2,160,10|8|8,0:3|0:0|0:3,0:0:0:0:
118,354,239519,1,8,0:3:0:0:
90,198,239686,5,10,0:0:0:0:
241,254,239853,1,2,0:0:0:0:
214,96,240019,5,6,0:0:0:0:
181,182,240186,1,8,0:3:0:0:
156,24,240353,5,10,0:0:0:0:
272,168,240519,2,0,P|310:178|348:167,1,80,10|8,0:3|0:3,0:0:0:0:
399,66,240853,5,10,0:2:0:0:
418,43,240936,1,8,0:2:0:0:
446,33,241019,1,8,0:2:0:0:
476,38,241103,1,8,0:2:0:0:
499,55,241186,1,8,0:2:0:0:
512,82,241269,1,8,0:2:0:0:
510,112,241353,5,6,0:2:0:0:
256,192,241436,12,2,243978,0:0:0:0:
