osu file format v14

[General]
AudioFilename: audio.mp3
AudioLeadIn: 0
PreviewTime: 978
Countdown: 0
SampleSet: Soft
StackLeniency: 0.7
Mode: 0
LetterboxInBreaks: 0
WidescreenStoryboard: 1

[Editor]
DistanceSpacing: 0.9
BeatDivisor: 4
GridSize: 32
TimelineZoom: 1.4

[Metadata]
Title:petit bonheur
TitleUnicode:petit bonheur
Artist:yuiko
ArtistUnicode:yuiko
Creator:Lasse
Version:Easy.
Source:あなたに恋する恋愛ルセット
Tags:yuikonnu ゆいこんぬ Meis Clauson anata ni koisuru ren'ai recette visual novel eroge opening full version
BeatmapID:1322268
BeatmapSetID:627354

[Difficulty]
HPDrainRate:3
CircleSize:3
OverallDifficulty:3
ApproachRate:4
SliderMultiplier:0.899999999999999
SliderTickRate:1

[Events]
//Background and Video events
0,0,"bg01.jpg",0,0
//Break Periods
2,161353,166686
//Storyboard Layer 0 (Background)
//Storyboard Layer 1 (Fail)
//Storyboard Layer 2 (Pass)
//Storyboard Layer 3 (Foreground)
//Storyboard Sound Samples

[TimingPoints]
20,333.333333333333,4,2,43,20,1,0
1019,-117.647058823529,4,2,43,20,0,0
1353,-117.647058823529,4,2,43,30,0,0
11936,-117.647058823529,4,2,99,5,0,0
12019,-117.647058823529,4,2,43,32,0,0
16019,-117.647058823529,4,2,43,35,0,0
16853,-117.647058823529,4,2,43,38,0,0
17353,-117.647058823529,4,2,43,40,0,0
17436,-117.647058823529,4,2,43,10,0,0
18353,-117.647058823529,4,2,99,40,0,0
18686,-100,4,2,1,60,0,0
20269,-100,4,2,99,5,0,0
20353,-100,4,2,1,60,0,0
22936,-100,4,2,99,5,0,0
23019,-100,4,2,1,60,0,0
28853,-100,4,2,56,55,0,0
29019,-100,4,2,56,50,0,0
29186,-100,4,2,56,45,0,0
29353,-111.111111111111,4,2,25,45,0,0
38686,-111.111111111111,4,2,1,55,0,0
39186,-111.111111111111,4,2,1,58,0,0
39353,-111.111111111111,4,2,1,30,0,0
39519,-111.111111111111,4,2,1,55,0,0
39686,-111.111111111111,4,2,1,50,0,0
40019,-111.111111111111,4,2,1,50,0,0
49853,-111.111111111111,4,2,56,50,0,0
50353,-111.111111111111,4,2,1,50,0,0
50686,-125,4,2,1,53,0,0
55186,-125,4,2,1,43,0,0
55269,-125,4,2,1,48,0,0
55353,-125,4,2,1,53,0,0
55686,-125,4,2,56,50,0,0
55853,-125,4,2,56,47,0,0
56019,-111.111111111111,4,2,1,55,0,0
56269,-111.111111111111,4,2,99,5,0,0
56353,-111.111111111111,4,2,1,55,0,0
57603,-111.111111111111,4,2,99,5,0,0
57687,-111.111111111111,4,2,1,55,0,0
58686,-111.111111111111,4,2,1,57,0,0
59186,-111.111111111111,4,2,1,58,0,0
59519,-111.111111111111,4,2,1,59,0,0
59853,-111.111111111111,4,2,1,60,0,0
60186,-111.111111111111,4,2,1,61,0,0
60353,-111.111111111111,4,2,1,62,0,0
60686,-111.111111111111,4,2,99,40,0,0
61019,-111.111111111111,4,2,99,50,0,0
61061,-111.111111111111,4,2,99,30,0,0
61103,-111.111111111111,4,2,99,50,0,0
61144,-111.111111111111,4,2,99,30,0,0
61186,-111.111111111111,4,2,99,50,0,0
61228,-111.111111111111,4,2,99,30,0,0
61269,-111.111111111111,4,2,99,50,0,0
61311,-111.111111111111,4,2,99,30,0,0
61353,-100,4,2,1,65,0,1
61603,-100,4,2,99,5,0,1
61686,-100,4,2,1,65,0,1
64269,-100,4,2,99,5,0,1
64352,-100,4,2,1,65,0,1
65603,-100,4,2,99,5,0,1
65686,-100,4,2,1,65,0,1
68269,-100,4,2,99,5,0,1
68353,-100,4,2,1,65,0,1
69353,-100,4,2,1,66,0,1
69686,-100,4,2,1,67,0,1
70019,-100,4,2,1,40,0,1
70186,-100,4,2,1,68,0,1
70519,-100,4,2,1,69,0,1
70853,-100,4,2,1,66,0,1
71186,-100,4,2,1,70,0,1
71686,-100,4,2,1,60,0,0
72019,-100,4,2,1,65,0,1
72269,-100,4,2,99,5,0,1
72353,-100,4,2,1,65,0,1
74936,-100,4,2,99,5,0,1
75019,-100,4,2,1,65,0,1
76269,-100,4,2,99,5,0,1
76353,-100,4,2,1,65,0,1
78936,-100,4,2,99,5,0,1
79019,-100,4,2,1,65,0,1
81603,-100,4,2,99,5,0,1
81686,-100,4,2,1,65,0,1
82353,-100,4,2,1,60,0,0
82686,-100,4,2,1,65,0,1
85186,-100,4,2,1,65,0,1
85353,-100,4,2,1,67,0,1
86019,-100,4,2,1,57,0,1
86353,-100,4,2,1,63,0,1
86686,-100,4,2,1,65,0,1
87519,-100,4,2,1,62,0,1
87686,-100,4,2,1,60,0,1
88019,-100,4,2,78,60,0,0
88103,-100,4,2,1,60,0,0
89353,-100,4,2,1,60,0,0
89603,-100,4,2,99,5,0,0
89686,-100,4,2,1,60,0,0
90353,-100,4,2,1,60,0,0
90686,-100,4,2,1,60,0,0
92269,-100,4,2,99,5,0,0
92353,-100,4,2,1,60,0,0
98186,-100,4,2,1,50,0,0
98269,-100,4,2,1,52,0,0
98353,-100,4,2,1,54,0,0
98436,-100,4,2,1,56,0,0
98519,-100,4,2,1,56,0,0
98603,-100,4,2,1,60,0,0
98686,-111.111111111111,4,2,1,48,0,0
108019,-111.111111111111,4,2,1,55,0,0
108519,-111.111111111111,4,2,1,58,0,0
108686,-111.111111111111,4,2,1,30,0,0
108853,-111.111111111111,4,2,1,55,0,0
109019,-111.111111111111,4,2,1,50,0,0
109353,-111.111111111111,4,2,1,50,0,0
119186,-111.111111111111,4,2,56,50,0,0
119686,-111.111111111111,4,2,1,50,0,0
120019,-125,4,2,1,53,0,0
124519,-125,4,2,1,43,0,0
124603,-125,4,2,1,48,0,0
124686,-125,4,2,1,53,0,0
125019,-125,4,2,56,50,0,0
125186,-125,4,2,56,47,0,0
125353,-111.111111111111,4,2,1,55,0,0
125603,-111.111111111111,4,2,99,5,0,0
125686,-111.111111111111,4,2,1,55,0,0
126936,-111.111111111111,4,2,99,5,0,0
127019,-111.111111111111,4,2,1,55,0,0
128019,-111.111111111111,4,2,1,57,0,0
128519,-111.111111111111,4,2,1,58,0,0
128853,-111.111111111111,4,2,1,59,0,0
129186,-111.111111111111,4,2,1,60,0,0
129519,-111.111111111111,4,2,1,61,0,0
129686,-111.111111111111,4,2,1,62,0,0
130019,-111.111111111111,4,2,99,40,0,0
130353,-111.111111111111,4,2,99,50,0,0
130394,-111.111111111111,4,2,99,30,0,0
130436,-111.111111111111,4,2,99,50,0,0
130478,-111.111111111111,4,2,99,30,0,0
130519,-111.111111111111,4,2,99,50,0,0
130561,-111.111111111111,4,2,99,30,0,0
130603,-111.111111111111,4,2,99,50,0,0
130644,-111.111111111111,4,2,99,30,0,0
130686,-100,4,2,1,65,0,1
130936,-100,4,2,99,5,0,1
131019,-100,4,2,1,65,0,1
133603,-100,4,2,99,5,0,1
133686,-100,4,2,1,65,0,1
134936,-100,4,2,99,5,0,1
135019,-100,4,2,1,65,0,1
137603,-100,4,2,99,5,0,1
137686,-100,4,2,1,65,0,1
138686,-100,4,2,1,66,0,1
139019,-100,4,2,1,67,0,1
139353,-100,4,2,1,40,0,1
139519,-100,4,2,1,68,0,1
139853,-100,4,2,1,69,0,1
140186,-100,4,2,1,66,0,1
140519,-100,4,2,1,70,0,1
141019,-100,4,2,1,60,0,0
141353,-100,4,2,1,65,0,1
141603,-100,4,2,99,5,0,1
141686,-100,4,2,1,65,0,1
144269,-100,4,2,99,5,0,1
144353,-100,4,2,1,65,0,1
145603,-100,4,2,99,5,0,1
145686,-100,4,2,1,65,0,1
148269,-100,4,2,99,5,0,1
148353,-100,4,2,1,65,0,1
150936,-100,4,2,99,5,0,1
151019,-100,4,2,1,65,0,1
151686,-100,4,2,1,60,0,0
152019,-100,4,2,1,65,0,1
154519,-100,4,2,1,65,0,1
154686,-100,4,2,1,67,0,1
155353,-100,4,2,1,57,0,1
155686,-100,4,2,1,63,0,1
156019,-100,4,2,1,65,0,1
156853,-100,4,2,1,62,0,1
157019,-100,4,2,1,60,0,1
157186,-100,4,2,1,40,0,1
157353,-117.647058823529,4,2,43,56,0,0
157436,-125,4,2,43,10,0,0
160019,-125,4,2,62,30,0,0
167853,-125,4,2,62,28,0,0
168019,-125,4,2,62,32,0,0
178686,-125,4,2,62,35,0,0
184019,-125,4,2,62,37,0,0
189353,-111.111111111111,4,2,62,40,0,0
189519,-111.111111111111,4,2,62,41,0,0
189686,-111.111111111111,4,2,62,42,0,0
189853,-111.111111111111,4,2,62,43,0,0
190019,-111.111111111111,4,2,62,44,0,0
190186,-111.111111111111,4,2,62,45,0,0
190353,-111.111111111111,4,2,62,46,0,0
190519,-111.111111111111,4,2,62,48,0,0
190686,-111.111111111111,4,2,62,50,0,0
190853,-111.111111111111,4,2,62,52,0,0
191019,-111.111111111111,4,2,62,54,0,0
191186,-111.111111111111,4,2,62,56,0,0
191353,-111.111111111111,4,2,99,58,0,0
191519,-111.111111111111,4,2,99,60,0,0
191686,-111.111111111111,4,2,99,62,0,0
191853,-111.111111111111,4,2,99,64,0,0
192686,-111.111111111111,4,2,99,40,0,0
193019,-111.111111111111,4,2,99,50,0,0
193061,-111.111111111111,4,2,99,30,0,0
193103,-111.111111111111,4,2,99,50,0,0
193144,-111.111111111111,4,2,99,30,0,0
193186,-111.111111111111,4,2,99,50,0,0
193228,-111.111111111111,4,2,99,30,0,0
193269,-111.111111111111,4,2,99,50,0,0
193311,-111.111111111111,4,2,99,30,0,0
193353,-100,4,2,1,65,0,1
193603,-100,4,2,99,5,0,1
193686,-100,4,2,1,65,0,1
196269,-100,4,2,99,5,0,1
196353,-100,4,2,1,65,0,1
197603,-100,4,2,99,5,0,1
197686,-100,4,2,1,65,0,1
200269,-100,4,2,99,5,0,1
200353,-100,4,2,1,65,0,1
201353,-100,4,2,1,66,0,1
201686,-100,4,2,1,67,0,1
202019,-100,4,2,1,40,0,1
202186,-100,4,2,1,68,0,1
202519,-100,4,2,1,69,0,1
202853,-100,4,2,1,66,0,1
203186,-100,4,2,1,70,0,1
203686,-100,4,2,1,60,0,0
204019,-100,4,2,1,65,0,1
204269,-100,4,2,99,5,0,1
204353,-100,4,2,1,65,0,1
206936,-100,4,2,99,5,0,1
207019,-100,4,2,1,65,0,1
208269,-100,4,2,99,5,0,1
208353,-100,4,2,1,65,0,1
210936,-100,4,2,99,5,0,1
211019,-100,4,2,1,65,0,1
213603,-100,4,2,99,5,0,1
213686,-100,4,2,1,65,0,1
214353,-100,4,2,1,60,0,0
214686,-100,4,2,1,65,0,1
217186,-100,4,2,1,65,0,1
217353,-100,4,2,1,67,0,1
218019,-100,4,2,1,57,0,1
218353,-100,4,2,1,63,0,1
218686,-100,4,2,1,65,0,1
219519,-100,4,2,1,62,0,1
219686,-100,4,2,1,60,0,1
220019,-100,4,2,78,60,0,0
220186,-100,4,2,1,60,0,0
221603,-100,4,2,99,5,0,0
221686,-100,4,2,1,60,0,0
224269,-100,4,2,99,5,0,0
224353,-100,4,2,1,60,0,0
230353,-100,4,2,56,60,0,0
230686,-100,4,2,1,60,0,0
232269,-100,4,2,99,5,0,0
232353,-100,4,2,1,60,0,0
234936,-100,4,2,99,5,0,0
235019,-100,4,2,1,60,0,0
240853,-100,4,2,1,50,0,0
241019,-100,4,2,1,60,0,0
241103,-100,4,2,1,61,0,0
241186,-100,4,2,1,62,0,0
241269,-100,4,2,1,63,0,0
241353,-100,4,2,1,60,0,0
241436,-100,4,2,1,30,0,0
242019,-100,4,2,1,20,0,0
242686,-100,4,2,1,10,0,0
243353,-100,4,2,1,5,0,0
243978,-100,4,2,99,30,0,0

[Colours]
Combo1 : 240,160,220
Combo2 : 130,170,210
Combo3 : 210,120,150
Combo4 : 170,230,150

[HitObjects]
115,208,1353,6,0,B|57:111|125:31|125:31|193:45|206:122,1,306.000005836487,2|2,0:1|0:1,0:0:0:0:
218,258,3353,1,2,0:0:0:0:
356,322,4019,1,2,0:1:0:0:
477,40,5353,5,2,0:1:0:0:
391,166,6019,1,2,0:1:0:0:
246,115,6686,2,0,B|150:78|60:131|60:131|21:83|43:25,1,306.000005836487,2|2,0:1|0:1,0:0:0:0:
165,306,9353,5,2,0:1:0:0:
336,52,10686,2,0,B|378:22|452:44|452:44|474:102|451:158,1,229.500004377365,2|2,0:1|0:1,0:0:0:0:
395,211,12019,6,0,P|336:195|243:209,1,153.000002918243,2|2,0:1|0:1,0:0:0:0:
172,341,13353,1,2,0:1:0:0:
476,309,14686,2,0,P|506:253|486:155,1,153.000002918243,2|2,0:1|0:1,0:0:0:0:
384,59,16019,6,0,B|326:25|274:50|274:50|229:45|206:15,1,191.250003647804,10|2,0:2|0:1,0:0:0:0:
94,34,17353,2,0,B|62:85|97:145|97:145|106:214|75:255,1,229.500004377365,10|10,0:1|0:1,0:0:0:0:
11,314,18686,6,0,B|111:294|89:361|188:342,1,180,6|10,0:0|0:3,0:0:0:0:
354,286,20019,1,10,0:3:0:0:
221,166,20686,1,10,0:3:0:0:
340,32,21353,6,0,B|422:22|422:22|469:34|497:80,1,180,10|8,0:3|0:3,0:0:0:0:
488,169,22353,1,10,0:0:0:0:
406,206,22686,2,0,B|351:255|368:347|368:347|298:376|254:333,1,270,10|8,0:3|0:0,0:0:0:0:
198,269,24019,5,6,0:2:0:0:
394,84,25019,1,10,0:0:0:0:
316,38,25353,2,0,B|242:21|189:75|189:75|117:38|62:62,1,270,10|8,0:3|0:0,0:0:0:0:
21,142,26686,6,0,B|37:193|19:246|19:246|23:285|68:312,1,180,10|8,0:3|0:3,0:0:0:0:
141,342,27686,1,10,0:0:0:0:
223,306,28019,2,0,B|266:249|232:173|232:173|284:118|355:164,1,270,10|4,0:3|0:3,0:0:0:0:
394,238,29353,6,0,B|427:258|470:247|470:247|504:209|490:153,1,161.999995056152,6|8,0:0|0:0,0:0:0:0:
397,38,30686,1,8,0:0:0:0:
239,77,31353,2,0,P|202:84|154:81,1,80.9999975280762,10|10,0:0|0:0,0:0:0:0:
80,50,32019,6,0,B|108:75|109:117|109:117|79:159|97:208,1,161.999995056152,10|8,0:0|0:0,0:0:0:0:
178,337,33353,1,8,0:0:0:0:
291,221,34019,2,0,L|303:136,1,80.9999975280762,10|10,0:0|0:0,0:0:0:0:
351,71,34686,6,0,P|423:42|485:89,1,161.999995056152,10|8,0:0|0:0,0:0:0:0:
425,239,36019,2,0,P|352:267|290:220,1,161.999995056152,8|8,0:0|0:0,0:0:0:0:
204,83,37353,6,0,P|141:36|69:64,1,161.999995056152,8|8,0:3|0:0,0:0:0:0:
25,219,38686,2,0,B|76:247|76:247|135:225,1,121.499996292114,6|12,0:0|0:0,0:0:0:0:
209,182,39519,1,10,0:3:0:0:
293,269,40019,6,0,B|396:285|396:285|452:276|470:207,1,202.49999382019,6|10,0:0|0:3,0:0:0:0:
496,104,41353,2,0,B|467:79|428:80|428:80|386:115|334:98,1,161.999995056152,8|10,0:3|0:3,0:0:0:0:
272,57,42353,1,10,0:0:0:0:
208,113,42686,6,0,B|183:146|185:191|185:191|218:254|189:307,1,202.49999382019,10|10,0:3|0:3,0:0:0:0:
76,255,44019,2,0,P|72:215|67:175,2,80.9999975280762,8|10|10,0:3|0:0|0:3,0:0:0:0:
17,318,45019,1,10,0:0:0:0:
77,378,45353,6,0,B|127:389|165:339|165:339|218:314|265:344,1,202.49999382019,6|0,0:0|0:0,0:0:0:0:
378,371,46686,2,0,B|425:342|482:356|482:356|516:310|480:261,1,202.49999382019,8|10,0:3|0:3,0:0:0:0:
407,174,48019,6,0,B|365:142|319:176|319:176|333:233|304:280,1,202.49999382019,8|10,0:3|0:3,0:0:0:0:
202,212,49353,2,0,P|141:204|65:198,2,121.499996292114,10|8|8,0:3|0:3|0:3,0:0:0:0:
277,168,50686,6,0,P|309:107|274:48,1,144,6|8,0:0|0:0,0:0:0:0:
134,13,52019,1,2,0:0:0:0:
35,117,52686,1,8,0:0:0:0:
75,254,53353,6,0,P|135:287|209:256,1,144,10|8,0:3|0:0,0:0:0:0:
275,156,54686,1,2,0:0:0:0:
391,213,55353,2,0,L|463:207,1,71.9999999999999,10|4,0:0|0:3,0:0:0:0:
455,122,56019,6,0,B|434:57|360:50|360:50|312:92|237:61,1,242.999992584228,6|8,0:0|0:0,0:0:0:0:
178,22,57353,1,10,0:3:0:0:
71,121,58019,2,0,L|65:217,1,80.9999975280762,10|10,0:3|2:0,0:0:0:0:
108,276,58686,6,0,P|185:307|272:236,1,202.499993820191,14|10,0:2|0:3,0:0:0:0:
325,174,59853,2,0,B|382:158|382:158|452:182,1,121.499996292114,10|10,0:3|0:0,0:0:0:0:
487,251,60686,2,0,L|493:347,1,80.9999975280762,2|2,0:0|0:0,0:0:0:0:
413,376,61353,6,0,P|354:346|276:343,1,135,6|2,0:0|0:0,0:0:0:0:
200,367,62186,1,10,0:3:0:0:
105,271,62686,2,0,B|88:227|115:184|115:184|89:142|99:99,1,180,10|10,0:3|0:3,0:0:0:0:
157,30,63686,1,10,0:0:0:0:
245,47,64019,6,0,L|398:33,2,135,10|2|8,0:3|0:3|0:0,0:0:0:0:
187,115,65353,2,0,P|174:186|206:254,1,135,10|2,0:3|0:0,0:0:0:0:
272,290,66186,1,10,0:3:0:0:
398,243,66686,6,0,B|441:203|441:203|455:146|420:81,1,180,6|8,0:0|0:3,0:0:0:0:
352,29,67686,1,10,0:0:0:0:
272,70,68019,2,0,B|207:81|211:44|139:58,1,135,10|2,0:3|0:0,0:0:0:0:
63,106,68853,1,10,0:3:0:0:
163,196,69353,5,6,0:0:0:0:
293,162,69853,2,0,B|336:154|336:154|396:176,1,89.9999999999999,4|10,0:0|0:3,0:0:0:0:
440,236,70519,2,0,B|450:258|441:280|441:280|449:292|449:292|449:338|396:363|357:336,1,180,4|6,0:0|0:0,0:0:0:0:
205,178,72019,6,0,B|185:143|202:97|202:97|195:68|161:44,1,135,6|2,0:0|0:0,0:0:0:0:
87,31,72853,1,10,0:3:0:0:
5,138,73353,2,0,B|-1:180|10:207|10:207|26:222|26:222|-2:261|16:306,1,180,10|10,0:3|0:3,0:0:0:0:
86,363,74353,1,10,0:0:0:0:
172,331,74686,6,0,B|314:321,2,135,10|2|8,0:3|0:3|0:0,0:0:0:0:
100,273,76019,2,0,P|83:215|111:128,1,135,10|2,0:3|0:0,0:0:0:0:
174,93,76853,1,10,0:3:0:0:
238,211,77353,6,0,B|287:251|287:251|348:263|398:217,1,180,6|8,0:0|0:3,0:0:0:0:
430,136,78353,1,10,0:0:0:0:
375,64,78686,2,0,P|311:40|244:37,1,135,10|2,0:3|0:0,0:0:0:0:
174,93,79519,1,10,0:3:0:0:
238,211,80019,6,0,B|232:306|232:306|195:346|147:327,1,180,10|8,0:3|0:3,0:0:0:0:
66,313,81019,1,10,0:0:0:0:
7,244,81353,2,0,L|-1:109,1,135,10|2,0:3|0:0,0:0:0:0:
38,28,82186,1,10,0:3:0:0:
153,97,82686,6,0,B|210:104|210:104|270:91|270:91|331:98,1,180,14|10,0:0|0:0,0:0:0:0:
417,72,83686,1,10,0:0:0:0:
478,138,84019,2,0,L|486:272,1,135,10|10,0:0|0:3,0:0:0:0:
439,350,84853,1,10,0:3:0:0:
324,277,85353,6,0,B|286:248|245:263|245:263|229:254|229:254|187:274|142:252,1,180,6|10,0:0|0:2,0:0:0:0:
55,105,86686,2,0,P|116:76|181:89,1,135,14|6,0:0|0:0,0:0:0:0:
251,144,87519,1,10,0:3:0:0:
353,56,88019,6,0,B|405:29|405:29|455:71|436:144,1,180,14|10,0:1|0:3,0:0:0:0:
394,314,89353,1,10,0:3:0:0:
215,328,90019,1,10,0:3:0:0:
146,162,90686,6,0,B|123:111|143:65|143:65|116:32|68:45,1,180,10|8,0:3|0:3,0:0:0:0:
6,107,91686,1,10,0:0:0:0:
33,192,92019,2,0,B|67:262|57:333|57:333|126:360|188:306,1,270,10|8,0:3|0:0,0:0:0:0:
225,241,93353,5,6,0:2:0:0:
467,360,94353,1,10,0:0:0:0:
483,271,94686,2,0,B|491:101|491:101|449:67|393:85,1,270,10|8,0:3|0:0,0:0:0:0:
342,155,96019,6,0,B|336:255|336:255|293:289|247:252,1,180,10|8,0:3|0:3,0:0:0:0:
180,222,97019,1,10,0:0:0:0:
191,132,97353,2,0,B|183:65|120:21|120:21|45:27|3:81,1,270,6|8,0:0|0:0,0:0:0:0:
26,166,98686,6,0,L|42:334,1,161.999995056152,6|8,0:0|0:3,0:0:0:0:
198,366,100019,1,10,0:3:0:0:
330,272,100686,2,0,P|371:263|410:267,1,80.9999975280762,10|10,0:3|0:0,0:0:0:0:
454,339,101353,6,0,L|469:177,1,161.999995056152,10|8,0:3|0:3,0:0:0:0:
405,28,102686,1,8,0:3:0:0:
267,113,103353,2,0,P|227:121|187:118,1,80.9999975280762,10|10,0:3|0:0,0:0:0:0:
126,60,104019,6,0,P|53:36|9:112,1,161.999995056152,6|8,0:0|0:3,0:0:0:0:
7,258,105353,2,0,P|53:318|125:293,1,161.999995056152,8|8,0:3|0:3,0:0:0:0:
227,168,106686,6,0,P|298:143|345:203,1,161.999995056152,8|8,0:3|0:3,0:0:0:0:
232,321,108019,2,0,B|172:332|172:332|126:294,1,121.499996292114,6|12,0:0|0:0,0:0:0:0:
91,215,108853,1,10,0:3:0:0:
169,122,109353,6,0,B|208:100|256:108|256:108|302:141|363:128,1,202.49999382019,6|10,0:0|0:3,0:0:0:0:
471,71,110686,2,0,B|449:125|449:125|448:241,1,161.999995056152,8|10,0:3|0:3,0:0:0:0:
452,314,111686,1,10,0:0:0:0:
380,359,112019,6,0,B|348:351|315:351|315:351|293:340|293:340|232:372|182:333,1,202.49999382019,10|10,0:3|0:3,0:0:0:0:
111,241,113353,2,0,P|72:234|23:227,2,80.9999975280762,8|10|10,0:3|0:0|0:3,0:0:0:0:
191,212,114353,1,10,0:0:0:0:
275,194,114686,6,0,B|332:194|361:235|361:235|416:258|463:228,1,202.49999382019,6|0,0:0|0:0,0:0:0:0:
511,120,116019,2,0,B|474:101|442:109|442:109|420:89|420:89|367:113|310:79,1,202.49999382019,8|10,0:3|0:3,0:0:0:0:
208,41,117353,6,0,B|174:29|146:37|146:37|126:31|126:31|97:53|97:53|44:39|7:66,1,202.49999382019,8|10,0:3|0:3,0:0:0:0:
70,169,118686,2,0,L|60:292,2,121.499996292114,8|8|8,0:3|0:3|0:3,0:0:0:0:
144,125,120019,6,0,P|203:112|278:162,1,144,6|8,0:0|0:0,0:0:0:0:
291,295,121353,1,2,0:0:0:0:
433,276,122019,1,8,0:0:0:0:
414,134,122686,6,0,B|407:99|412:66|412:66|383:29|333:44,1,144,10|8,0:3|0:0,0:0:0:0:
256,136,124019,1,2,0:0:0:0:
151,59,124686,2,0,L|70:50,1,71.9999999999999,10|4,0:0|0:3,0:0:0:0:
61,131,125353,6,0,B|55:256|55:256|92:307|159:286,1,242.999992584228,6|8,0:0|0:0,0:0:0:0:
242,263,126686,1,10,0:3:0:0:
386,343,127353,2,0,P|425:350|464:341,1,80.9999975280762,10|10,0:3|2:0,0:0:0:0:
485,258,128019,6,0,L|493:53,1,202.49999382019,14|10,0:2|0:3,0:0:0:0:
415,21,129186,2,0,B|369:27|369:27|341:41|341:41|295:47,1,121.499996292114,10|10,0:3|0:0,0:0:0:0:
247,117,130019,2,0,L|241:213,1,80.9999975280762,10|2,0:2|0:0,0:0:0:0:
203,279,130686,6,0,P|150:299|75:263,1,135,6|2,0:0|0:0,0:0:0:0:
48,186,131519,1,10,0:3:0:0:
167,122,132019,2,0,B|213:123|242:161|242:161|297:180|334:164,1,180,10|10,0:3|0:3,0:0:0:0:
402,107,133019,1,10,0:0:0:0:
487,139,133353,6,0,L|506:285,2,135,10|2|8,0:3|0:3|0:0,0:0:0:0:
472,49,134686,2,0,P|406:17|346:36,1,135,10|2,0:3|0:0,0:0:0:0:
305,111,135519,1,10,0:3:0:0:
186,47,136019,6,0,B|161:32|119:39|119:39|99:31|99:31|45:36|33:90,1,180,6|8,0:0|0:3,0:0:0:0:
44,173,137019,1,10,0:0:0:0:
127,204,137353,2,0,P|195:196|262:196,1,135,10|2,0:3|0:0,0:0:0:0:
342,238,138186,1,10,0:3:0:0:
272,353,138686,5,6,0:0:0:0:
151,292,139186,2,0,P|105:286|60:282,1,89.9999999999999,4|10,0:0|0:3,0:0:0:0:
19,202,139853,2,0,B|30:138|30:138|69:97|69:97|80:39,1,180,4|6,0:0|0:0,0:0:0:0:
212,221,141353,6,0,B|250:206|250:206|293:229|341:205,1,135,6|2,0:0|0:0,0:0:0:0:
410,149,142186,1,10,0:3:0:0:
340,32,142686,2,0,B|296:24|255:58|255:58|216:24|174:31,1,180,10|10,0:3|0:3,0:0:0:0:
93,72,143686,1,10,0:0:0:0:
87,162,144019,6,0,B|81:298,2,135,10|2|8,0:3|0:3|0:0,0:0:0:0:
167,121,145353,2,0,P|232:121|289:172,1,135,10|2,0:3|0:0,0:0:0:0:
306,250,146186,1,10,0:3:0:0:
195,328,146686,6,0,B|158:324|128:332|128:332|62:311|64:239,1,180,6|8,0:0|0:3,0:0:0:0:
87,162,147686,1,10,0:0:0:0:
167,121,148019,2,0,B|205:117|237:132|237:132|259:108|291:100,1,135,10|2,0:3|0:0,0:0:0:0:
366,149,148853,1,10,0:3:0:0:
410,278,149353,6,0,B|426:333|464:348|464:348|497:333|511:270,1,180,10|8,0:3|0:3,0:0:0:0:
509,185,150353,1,10,0:0:0:0:
482,99,150686,2,0,B|463:71|432:64|432:64|397:77|357:62,1,135,10|2,0:3|0:0,0:0:0:0:
283,16,151519,1,10,0:3:0:0:
227,138,152019,6,0,B|212:179|225:215|225:215|210:242|210:242|221:275|207:311,1,180,14|10,0:0|0:0,0:0:0:0:
142,372,153019,1,10,0:0:0:0:
72,314,153353,2,0,B|56:282|72:248|72:248|75:212|54:177,1,135,10|10,0:0|0:3,0:0:0:0:
10,107,154186,1,10,0:3:0:0:
132,49,154686,6,0,B|176:34|214:53|214:53|220:47|220:47|260:72|304:58,1,180,6|8,0:0|0:2,0:0:0:0:
451,160,156019,2,0,L|438:303,1,135,14|6,0:0|0:0,0:0:0:0:
379,362,156853,1,10,0:2:0:0:
256,302,157353,6,0,B|195:263|138:296|138:296|95:239|121:186|121:186|118:135|50:100|50:100|87:34|167:22|239:56|256:105,1,612.000011672973,10|2,0:1|3:0,0:0:0:0:
81,71,168019,6,0,P|164:58|205:132,1,180,10|2,3:3|3:0,0:0:0:0:
195,240,169353,1,2,3:0:0:0:
346,336,170186,1,2,3:0:0:0:
442,288,170686,6,0,P|486:194|431:107,1,216,10|10,3:3|0:3,0:0:0:0:
356,75,172019,1,2,3:0:0:0:
300,246,172853,1,10,3:2:0:0:
217,176,173353,6,0,P|156:131|53:159,1,180,14|2,3:3|3:0,0:0:0:0:
6,246,174686,1,2,3:0:0:0:
141,364,175519,1,2,3:0:0:0:
238,318,176019,6,0,B|356:286|333:365|448:337,1,216,10|10,3:3|0:3,0:0:0:0:
491,267,177353,2,0,L|499:82,1,180,2|10,3:3|3:2,0:0:0:0:
405,32,178686,6,0,B|306:17|326:77|228:55,1,180,14|2,3:3|3:0,0:0:0:0:
130,16,180019,1,2,0:0:0:0:
16,155,180853,1,2,3:0:0:0:
68,249,181353,6,0,P|160:279|281:238,1,216,10|10,3:3|0:3,0:0:0:0:
329,187,182686,2,0,B|342:93|342:93|380:64|425:85,1,180,2|10,3:0|3:2,0:0:0:0:
467,181,184019,6,0,B|454:275|454:275|416:304|371:283,1,180,14|2,3:3|3:0,0:0:0:0:
329,187,185353,1,2,3:2:0:0:
161,120,186186,1,2,3:0:0:0:
60,160,186686,6,0,P|17:228|54:319,1,180,10|2,3:3|3:0,0:0:0:0:
153,345,188019,2,0,L|344:354,1,180,2|10,3:3|3:2,0:0:0:0:
448,317,189353,6,0,P|497:216|426:108,1,242.999992584228,10|10,3:3|0:3,0:0:0:0:
356,75,190686,1,10,0:3:0:0:
298,137,191019,1,8,0:3:0:0:
221,100,191353,2,0,L|86:88,1,121.499996292114,8|8,0:0|0:0,0:0:0:0:
4,267,192686,6,0,P|41:262|85:260,1,80.9999975280762,2|10,0:0|0:2,0:0:0:0:
154,317,193353,6,0,P|214:345|280:336,1,135,6|2,0:0|0:0,0:0:0:0:
350,280,194186,1,10,0:3:0:0:
337,145,194686,2,0,B|293:125|249:142|249:142|210:108|167:110,1,180,10|10,0:3|0:3,0:0:0:0:
79,142,195686,1,10,0:0:0:0:
61,234,196019,6,0,L|41:371,2,135,10|2|8,0:3|0:3|0:0,0:0:0:0:
150,204,197353,2,0,P|212:205|277:258,1,135,10|2,0:3|0:0,0:0:0:0:
299,331,198186,1,10,0:3:0:0:
430,361,198686,6,0,B|470:335|470:335|496:263|471:191,1,180,6|8,0:0|0:3,0:0:0:0:
414,138,199686,1,10,0:0:0:0:
338,186,200019,2,0,P|272:186|202:146,1,135,10|2,0:3|0:0,0:0:0:0:
183,69,200853,1,10,0:3:0:0:
55,25,201353,5,6,0:0:0:0:
10,152,201853,2,0,B|-2:195|-2:195|3:240,1,89.9999999999999,4|10,0:0|0:3,0:0:0:0:
52,315,202519,2,0,B|74:311|103:320|103:320|125:315|125:315|171:350|224:324,1,180,4|6,0:0|0:0,0:0:0:0:
335,128,204019,6,0,B|343:67|343:67|371:39|410:50,1,135,6|2,0:0|0:0,0:0:0:0:
486,101,204853,1,10,0:3:0:0:
502,235,205353,2,0,B|489:330|489:330|440:359|400:317,1,180,10|10,0:3|0:3,0:0:0:0:
358,253,206353,1,10,0:0:0:0:
305,179,206686,6,0,L|282:43,2,135,10|2|8,0:3|0:3|0:0,0:0:0:0:
268,262,208019,2,0,P|212:296|132:273,1,135,10|2,0:3|0:0,0:0:0:0:
68,238,208853,1,10,0:3:0:0:
69,103,209353,6,0,B|102:74|154:84|154:84|192:111|242:95,1,180,6|8,0:0|0:3,0:0:0:0:
312,42,210353,1,10,0:0:0:0:
381,99,210686,2,0,L|395:243,1,135,10|2,0:3|0:0,0:0:0:0:
442,309,211519,1,10,0:3:0:0:
314,352,212019,6,0,B|266:354|235:317|235:317|194:341|145:321,1,180,10|8,0:3|0:3,0:0:0:0:
63,290,213019,1,10,0:0:0:0:
11,215,213353,2,0,L|25:71,1,135,10|2,0:3|0:0,0:0:0:0:
95,26,214186,1,10,0:3:0:0:
143,152,214686,6,0,B|199:162|199:162|260:154|260:154|320:165,1,180,14|10,0:0|0:0,0:0:0:0:
386,226,215686,1,10,0:0:0:0:
461,176,216019,2,0,B|502:123|502:123|469:59,1,135,10|10,0:0|0:3,0:0:0:0:
393,16,216853,1,10,0:3:0:0:
263,52,217353,6,0,B|218:70|187:44|187:44|169:50|169:50|131:22|88:40,1,180,6|10,0:0|0:3,0:0:0:0:
0,197,218686,2,0,P|61:221|130:209,1,135,14|6,0:0|0:0,0:0:0:0:
200,156,219519,1,10,0:3:0:0:
320,216,220019,6,0,B|363:230|406:202|406:202|460:211|472:254,1,180,14|10,0:1|0:3,0:0:0:0:
322,355,221353,1,10,0:3:0:0:
160,276,222019,1,10,0:3:0:0:
147,96,222686,6,0,B|125:50|89:29|89:29|54:50|39:113,1,180,10|8,0:3|0:3,0:0:0:0:
15,189,223686,1,10,0:0:0:0:
60,266,224019,2,0,B|123:292|179:238|179:238|257:216|311:280,1,270,10|8,0:3|0:0,0:0:0:0:
354,350,225353,5,6,0:2:0:0:
506,127,226353,1,10,0:0:0:0:
445,60,226686,2,0,B|310:20|319:118|182:66,1,270,10|8,0:3|0:0,0:0:0:0:
114,8,228019,6,0,B|133:61|133:61|114:133|114:133|133:192,1,180,10|8,0:3|0:3,0:0:0:0:
185,252,229019,1,10,0:0:0:0:
255,197,229353,2,0,B|367:151|367:151|456:144|493:234,1,270,6|8,0:0|0:3,0:0:0:0:
458,306,230686,6,0,B|400:305|400:305|354:280|354:280|289:303,1,180,6|10,0:0|0:3,0:0:0:0:
112,337,232019,1,10,0:3:0:0:
25,180,232686,1,10,0:3:0:0:
147,49,233353,6,0,B|214:34|214:34|256:66|256:66|313:75,1,180,10|8,0:3|0:3,0:0:0:0:
398,41,234353,1,10,0:0:0:0:
474,88,234686,2,0,B|506:125|493:178|493:178|469:197|471:227|471:227|504:273|466:340,1,270,10|8,0:3|0:0,0:0:0:0:
381,366,236019,5,6,0:2:0:0:
275,117,237019,1,10,0:0:0:0:
195,160,237353,2,0,B|116:187|64:131|64:131|2:188|23:256,1,270,10|8,0:3|0:0,0:0:0:0:
71,317,238686,6,0,L|249:336,1,180,10|8,0:3|0:3,0:0:0:0:
337,357,239686,1,10,0:0:0:0:
394,287,240019,2,0,B|421:260|426:215|408:179|369:155|369:155|389:89|335:42,1,270,6|8,0:0|0:2,0:0:0:0:
256,32,241353,5,6,0:2:0:0:
256,192,241519,12,2,243978,0:0:0:0:
