osu file format v14

[General]
AudioFilename: audio.mp3
AudioLeadIn: 0
PreviewTime: 978
Countdown: 0
SampleSet: Soft
StackLeniency: 0.3
Mode: 0
LetterboxInBreaks: 0
WidescreenStoryboard: 1

[Editor]
DistanceSpacing: 0.9
BeatDivisor: 4
GridSize: 32
TimelineZoom: 2.1

[Metadata]
Title:petit bonheur
TitleUnicode:petit bonheur
Artist:yuiko
ArtistUnicode:yuiko
Creator:Lasse
Version:Delight.
Source:あなたに恋する恋愛ルセット
Tags:yuikonnu ゆいこんぬ Meis Clauson anata ni koisuru ren'ai recette visual novel eroge opening full version
BeatmapID:1322008
BeatmapSetID:627354

[Difficulty]
HPDrainRate:7
CircleSize:4.3
OverallDifficulty:9
ApproachRate:9
SliderMultiplier:1.76
SliderTickRate:1

[Events]
//Background and Video events
0,0,"bg.jpg",0,0
//Break Periods
2,161353,166686
//Storyboard Layer 0 (Background)
//Storyboard Layer 1 (Fail)
//Storyboard Layer 2 (Pass)
//Storyboard Layer 3 (Foreground)
//Storyboard Sound Samples

[TimingPoints]
20,333.333333333333,4,2,43,20,1,0
1019,-200,4,2,43,20,0,0
1353,-200,4,2,43,30,0,0
11936,-200,4,2,99,5,0,0
12019,-200,4,2,43,32,0,0
16019,-200,4,2,43,35,0,0
16853,-200,4,2,43,38,0,0
17353,-200,4,2,43,40,0,0
17436,-200,4,2,43,10,0,0
18353,-200,4,2,99,40,0,0
18686,-100,4,2,1,60,0,0
20269,-100,4,2,99,5,0,0
20353,-100,4,2,1,60,0,0
22936,-100,4,2,99,5,0,0
23019,-100,4,2,1,60,0,0
28853,-100,4,2,56,55,0,0
29019,-100,4,2,56,50,0,0
29186,-100,4,2,56,45,0,0
29353,-142.857142857143,4,2,25,45,0,0
38686,-142.857142857143,4,2,1,55,0,0
39186,-142.857142857143,4,2,1,58,0,0
39353,-142.857142857143,4,2,1,30,0,0
39519,-142.857142857143,4,2,1,55,0,0
39686,-142.857142857143,4,2,1,50,0,0
40019,-117.647058823529,4,2,1,50,0,0
49853,-117.647058823529,4,2,56,50,0,0
50353,-117.647058823529,4,2,1,50,0,0
50686,-153.846153846153,4,2,1,53,0,0
55186,-153.846153846153,4,2,1,43,0,0
55269,-153.846153846153,4,2,1,48,0,0
55353,-153.846153846153,4,2,1,53,0,0
55686,-153.846153846153,4,2,56,50,0,0
55853,-153.846153846153,4,2,56,47,0,0
56019,-111.111111111111,4,2,1,55,0,0
56269,-111.111111111111,4,2,99,5,0,0
56353,-111.111111111111,4,2,1,55,0,0
57603,-111.111111111111,4,2,99,5,0,0
57687,-111.111111111111,4,2,1,55,0,0
58686,-111.111111111111,4,2,1,57,0,0
59186,-111.111111111111,4,2,1,58,0,0
59519,-111.111111111111,4,2,1,59,0,0
59853,-111.111111111111,4,2,1,60,0,0
60186,-111.111111111111,4,2,1,61,0,0
60353,-111.111111111111,4,2,1,62,0,0
60686,-111.111111111111,4,2,99,40,0,0
61019,-111.111111111111,4,2,99,50,0,0
61061,-111.111111111111,4,2,99,30,0,0
61103,-111.111111111111,4,2,99,50,0,0
61144,-111.111111111111,4,2,99,30,0,0
61186,-111.111111111111,4,2,99,50,0,0
61228,-111.111111111111,4,2,99,30,0,0
61269,-111.111111111111,4,2,99,50,0,0
61311,-111.111111111111,4,2,99,30,0,0
61353,-83.3333333333333,4,2,1,65,0,1
61603,-83.3333333333333,4,2,99,5,0,1
61686,-83.3333333333333,4,2,1,65,0,1
64269,-83.3333333333333,4,2,99,5,0,1
64352,-83.3333333333333,4,2,1,65,0,1
65603,-83.3333333333333,4,2,99,5,0,1
65686,-83.3333333333333,4,2,1,65,0,1
68269,-83.3333333333333,4,2,99,5,0,1
68353,-83.3333333333333,4,2,1,65,0,1
69353,-83.3333333333333,4,2,1,66,0,1
69686,-83.3333333333333,4,2,1,67,0,1
70019,-83.3333333333333,4,2,1,40,0,1
70186,-83.3333333333333,4,2,1,68,0,1
70519,-76.9230769230769,4,2,1,69,0,1
70853,-76.9230769230769,4,2,1,66,0,1
71186,-71.4285714285714,4,2,1,70,0,1
71686,-83.3333333333333,4,2,1,60,0,0
72019,-83.3333333333333,4,2,1,65,0,1
72269,-83.3333333333333,4,2,99,5,0,1
72353,-83.3333333333333,4,2,1,65,0,1
74936,-83.3333333333333,4,2,99,5,0,1
75019,-83.3333333333333,4,2,1,65,0,1
76269,-83.3333333333333,4,2,99,5,0,1
76353,-83.3333333333333,4,2,1,65,0,1
78936,-83.3333333333333,4,2,99,5,0,1
79019,-83.3333333333333,4,2,1,65,0,1
81603,-83.3333333333333,4,2,99,5,0,1
81686,-83.3333333333333,4,2,1,65,0,1
82353,-83.3333333333333,4,2,1,60,0,0
82686,-76.9230769230769,4,2,1,65,0,1
85186,-71.4285714285714,4,2,1,65,0,1
85353,-71.4285714285714,4,2,1,67,0,1
86019,-71.4285714285714,4,2,1,57,0,1
86103,-71.4285714285714,4,2,1,52,0,1
86353,-71.4285714285714,4,2,1,63,0,1
86686,-83.3333333333333,4,2,1,65,0,1
87519,-83.3333333333333,4,2,1,62,0,1
87686,-83.3333333333333,4,2,1,60,0,1
88019,-100,4,2,78,60,0,0
88103,-100,4,2,1,60,0,0
89353,-100,4,2,1,60,0,0
89603,-100,4,2,99,5,0,0
89686,-100,4,2,1,60,0,0
90353,-100,4,2,1,60,0,0
90686,-100,4,2,1,60,0,0
92269,-100,4,2,99,5,0,0
92353,-100,4,2,1,60,0,0
98186,-100,4,2,1,50,0,0
98269,-100,4,2,1,52,0,0
98353,-100,4,2,1,54,0,0
98436,-100,4,2,1,56,0,0
98519,-100,4,2,1,56,0,0
98603,-100,4,2,1,60,0,0
98686,-125,4,2,1,48,0,0
108019,-125,4,2,1,55,0,0
108519,-111.111111111111,4,2,1,58,0,0
108686,-125,4,2,1,30,0,0
108853,-125,4,2,1,55,0,0
109019,-125,4,2,1,50,0,0
109353,-117.647058823529,4,2,1,50,0,0
119186,-117.647058823529,4,2,56,50,0,0
119686,-117.647058823529,4,2,1,50,0,0
120019,-153.846153846153,4,2,1,53,0,0
124519,-153.846153846153,4,2,1,43,0,0
124603,-153.846153846153,4,2,1,48,0,0
124686,-153.846153846153,4,2,1,53,0,0
125019,-153.846153846153,4,2,56,50,0,0
125186,-153.846153846153,4,2,56,47,0,0
125353,-111.111111111111,4,2,1,55,0,0
125603,-111.111111111111,4,2,99,5,0,0
125686,-111.111111111111,4,2,1,55,0,0
126936,-111.111111111111,4,2,99,5,0,0
127019,-111.111111111111,4,2,1,55,0,0
128019,-111.111111111111,4,2,1,57,0,0
128519,-111.111111111111,4,2,1,58,0,0
128853,-111.111111111111,4,2,1,59,0,0
129186,-111.111111111111,4,2,1,60,0,0
129519,-111.111111111111,4,2,1,61,0,0
129686,-111.111111111111,4,2,1,62,0,0
130019,-111.111111111111,4,2,99,40,0,0
130353,-111.111111111111,4,2,99,50,0,0
130394,-111.111111111111,4,2,99,30,0,0
130436,-111.111111111111,4,2,99,50,0,0
130478,-111.111111111111,4,2,99,30,0,0
130519,-111.111111111111,4,2,99,50,0,0
130561,-111.111111111111,4,2,99,30,0,0
130603,-111.111111111111,4,2,99,50,0,0
130644,-111.111111111111,4,2,99,30,0,0
130686,-83.3333333333333,4,2,1,65,0,1
130936,-83.3333333333333,4,2,99,5,0,1
131019,-83.3333333333333,4,2,1,65,0,1
133603,-83.3333333333333,4,2,99,5,0,1
133686,-83.3333333333333,4,2,1,65,0,1
134936,-83.3333333333333,4,2,99,5,0,1
135019,-83.3333333333333,4,2,1,65,0,1
137603,-83.3333333333333,4,2,99,5,0,1
137686,-83.3333333333333,4,2,1,65,0,1
138686,-83.3333333333333,4,2,1,66,0,1
139019,-83.3333333333333,4,2,1,67,0,1
139353,-83.3333333333333,4,2,1,40,0,1
139519,-83.3333333333333,4,2,1,68,0,1
139853,-76.9230769230769,4,2,1,69,0,1
140186,-76.9230769230769,4,2,1,66,0,1
140519,-71.4285714285714,4,2,1,70,0,1
141019,-83.3333333333333,4,2,1,60,0,0
141353,-83.3333333333333,4,2,1,65,0,1
141603,-83.3333333333333,4,2,99,5,0,1
141686,-83.3333333333333,4,2,1,65,0,1
144269,-83.3333333333333,4,2,99,5,0,1
144353,-83.3333333333333,4,2,1,65,0,1
145603,-83.3333333333333,4,2,99,5,0,1
145686,-83.3333333333333,4,2,1,65,0,1
148269,-83.3333333333333,4,2,99,5,0,1
148353,-83.3333333333333,4,2,1,65,0,1
150936,-83.3333333333333,4,2,99,5,0,1
151019,-83.3333333333333,4,2,1,65,0,1
151686,-83.3333333333333,4,2,1,60,0,0
152019,-76.9230769230769,4,2,1,65,0,1
154519,-71.4285714285714,4,2,1,65,0,1
154686,-71.4285714285714,4,2,1,67,0,1
155353,-71.4285714285714,4,2,1,57,0,1
155436,-71.4285714285714,4,2,1,52,0,1
155686,-71.4285714285714,4,2,1,63,0,1
156019,-83.3333333333333,4,2,1,65,0,1
156853,-83.3333333333333,4,2,1,62,0,1
157019,-71.4285714285714,4,2,1,60,0,1
157186,-71.4285714285714,4,2,1,40,0,1
157353,-200,4,2,43,56,0,0
157436,-200,4,2,43,10,0,0
160019,-100,4,2,62,30,0,0
167686,-100,4,2,62,26,0,0
167853,-100,4,2,62,28,0,0
168019,-200,4,2,62,32,0,0
176853,-200,4,2,62,22,0,0
177019,-200,4,2,62,32,0,0
178686,-166.666666666667,4,2,62,35,0,0
184019,-142.857142857143,4,2,62,37,0,0
189353,-125,4,2,62,40,0,0
189519,-125,4,2,62,41,0,0
189686,-125,4,2,62,42,0,0
189853,-125,4,2,62,43,0,0
190019,-125,4,2,62,44,0,0
190186,-125,4,2,62,45,0,0
190353,-125,4,2,62,46,0,0
190519,-125,4,2,62,48,0,0
190686,-125,4,2,62,50,0,0
190853,-125,4,2,62,52,0,0
191019,-125,4,2,62,54,0,0
191186,-125,4,2,62,56,0,0
191353,-125,4,2,99,58,0,0
191519,-125,4,2,99,60,0,0
191686,-125,4,2,99,62,0,0
191853,-125,4,2,99,64,0,0
192686,-111.111111111111,4,2,99,40,0,0
193019,-83.3333333333333,4,2,99,50,0,0
193061,-83.3333333333333,4,2,99,30,0,0
193103,-83.3333333333333,4,2,99,50,0,0
193144,-83.3333333333333,4,2,99,30,0,0
193186,-83.3333333333333,4,2,99,50,0,0
193228,-83.3333333333333,4,2,99,30,0,0
193269,-83.3333333333333,4,2,99,50,0,0
193311,-83.3333333333333,4,2,99,30,0,0
193353,-83.3333333333333,4,2,1,65,0,1
193603,-83.3333333333333,4,2,99,5,0,1
193686,-83.3333333333333,4,2,1,65,0,1
196269,-83.3333333333333,4,2,99,5,0,1
196353,-83.3333333333333,4,2,1,65,0,1
197603,-83.3333333333333,4,2,99,5,0,1
197686,-83.3333333333333,4,2,1,65,0,1
200269,-83.3333333333333,4,2,99,5,0,1
200353,-83.3333333333333,4,2,1,65,0,1
201353,-83.3333333333333,4,2,1,66,0,1
201686,-83.3333333333333,4,2,1,67,0,1
202019,-83.3333333333333,4,2,1,40,0,1
202186,-83.3333333333333,4,2,1,68,0,1
202519,-76.9230769230769,4,2,1,69,0,1
202853,-76.9230769230769,4,2,1,66,0,1
203186,-71.4285714285714,4,2,1,70,0,1
203686,-83.3333333333333,4,2,1,60,0,0
204019,-83.3333333333333,4,2,1,65,0,1
204269,-83.3333333333333,4,2,99,5,0,1
204353,-83.3333333333333,4,2,1,65,0,1
206936,-83.3333333333333,4,2,99,5,0,1
207019,-83.3333333333333,4,2,1,65,0,1
208269,-83.3333333333333,4,2,99,5,0,1
208353,-83.3333333333333,4,2,1,65,0,1
210936,-83.3333333333333,4,2,99,5,0,1
211019,-83.3333333333333,4,2,1,65,0,1
213603,-83.3333333333333,4,2,99,5,0,1
213686,-83.3333333333333,4,2,1,65,0,1
214353,-83.3333333333333,4,2,1,60,0,0
214686,-76.9230769230769,4,2,1,65,0,1
217186,-71.4285714285714,4,2,1,65,0,1
217353,-71.4285714285714,4,2,1,67,0,1
218019,-71.4285714285714,4,2,1,57,0,1
218103,-71.4285714285714,4,2,1,52,0,1
218353,-71.4285714285714,4,2,1,63,0,1
218686,-83.3333333333333,4,2,1,65,0,1
219519,-83.3333333333333,4,2,1,62,0,1
219686,-83.3333333333333,4,2,1,60,0,1
220019,-100,4,2,78,60,0,0
220186,-100,4,2,1,60,0,0
221603,-100,4,2,99,5,0,0
221686,-100,4,2,1,60,0,0
224269,-100,4,2,99,5,0,0
224353,-100,4,2,1,60,0,0
230353,-100,4,2,56,60,0,0
230686,-100,4,2,1,60,0,0
232269,-100,4,2,99,5,0,0
232353,-100,4,2,1,60,0,0
234936,-100,4,2,99,5,0,0
235019,-100,4,2,1,60,0,0
240853,-100,4,2,1,50,0,0
241019,-100,4,2,1,60,0,0
241103,-100,4,2,1,61,0,0
241186,-100,4,2,1,62,0,0
241269,-100,4,2,1,63,0,0
241353,-100,4,2,1,60,0,0
241436,-100,4,2,1,30,0,0
242019,-100,4,2,1,20,0,0
242686,-100,4,2,1,10,0,0
243353,-100,4,2,1,5,0,0
243978,-100,4,2,99,30,0,0

[Colours]
Combo1 : 250,130,130
Combo2 : 180,250,180
Combo3 : 140,230,250
Combo4 : 250,240,140

[HitObjects]
120,68,1019,5,2,0:0:0:0:
120,68,1353,5,2,0:1:0:0:
199,164,1686,1,2,0:0:0:0:
199,164,1853,2,0,P|205:116|210:58,1,88,2|2,0:0|0:0,0:0:0:0:
64,192,2686,5,2,0:1:0:0:
73,279,3353,2,0,P|68:235|64:191,1,88,2|2,0:0|0:0,0:0:0:0:
64,192,4019,5,2,0:1:0:0:
173,246,4353,1,2,0:0:0:0:
173,246,4519,2,0,L|269:251,1,88,2|2,0:0|0:0,0:0:0:0:
405,219,5186,5,2,0:0:0:0:
395,306,5353,2,0,P|401:262|405:218,1,88,2|2,0:1|0:0,0:0:0:0:
346,169,5853,1,2,0:0:0:0:
346,169,6019,2,0,P|336:189|326:216,1,44,2|2,0:1|0:2,0:0:0:0:
328,209,6686,6,0,B|282:235|236:203|236:203|206:203|187:220|187:220|157:201|121:210,1,220,2|2,0:1|0:1,0:0:0:0:
143,285,7686,1,2,0:0:0:0:
286,142,8019,5,2,0:1:0:0:
345,293,8353,1,2,0:0:0:0:
433,297,8519,2,0,L|346:293,1,88,2|2,0:0|0:0,0:0:0:0:
345,293,9353,6,0,B|309:246|338:178|358:206|383:129|339:88,1,220,2|2,0:1|0:1,0:0:0:0:
283,143,10353,1,2,0:2:0:0:
407,245,10686,5,2,0:1:0:0:
459,117,11019,1,2,0:0:0:0:
459,117,11186,2,0,P|450:154|447:179,1,44,2|0,0:0|0:0,0:0:0:0:
482,230,11519,1,2,0:0:0:0:
482,230,11686,2,0,P|490:263|487:307,1,66,2|0,0:1|0:0,0:0:0:0:
430,353,12019,5,2,0:1:0:0:
426,361,12186,1,2,0:0:0:0:
358,325,12353,1,2,0:1:0:0:
357,334,12519,1,2,0:0:0:0:
288,367,12686,2,0,P|243:365|189:355,1,88,2|2,0:1|0:0,0:0:0:0:
201,358,13353,6,0,P|200:336|199:314,1,44,2|2,0:1|0:0,0:0:0:0:
172,240,13686,1,2,0:1:0:0:
96,263,13853,2,0,P|74:257|53:253,1,44,2|2,0:0|0:1,0:0:0:0:
16,188,14186,1,2,0:0:0:0:
16,188,14353,2,0,P|14:166|14:144,1,44,2|2,0:1|0:0,0:0:0:0:
35,67,14686,5,2,0:1:0:0:
38,59,14853,1,2,0:0:0:0:
105,17,15019,1,2,0:0:0:0:
174,54,15186,1,2,0:0:0:0:
240,12,15353,2,0,P|264:12|291:20,1,44,2|2,0:1|0:0,0:0:0:0:
328,82,15686,2,0,L|334:141,1,44,2|2,0:1|0:0,0:0:0:0:
238,323,16019,5,10,0:2:0:0:
333,126,16353,1,2,0:1:0:0:
231,172,16519,1,2,0:1:0:0:
440,230,16853,1,2,0:1:0:0:
330,47,17353,6,0,B|299:34|259:45|259:45|217:76|157:39|217:8|259:45|259:45|280:56|287:64,1,242,10|0,0:1|0:0,0:0:0:0:
333,126,18353,5,10,0:1:0:0:
352,129,18436,1,2,0:0:0:0:
372,132,18519,1,2,0:0:0:0:
391,134,18603,1,2,0:0:0:0:
410,136,18686,6,0,B|418:122|419:107|411:93|411:93|387:114|389:163|405:147|409:182|386:222,1,176,6|8,0:0|0:0,0:0:0:0:
190,330,19353,5,10,0:3:0:0:
190,330,19519,1,8,0:3:0:0:
124,204,19686,2,0,P|115:163|109:114,1,88,8|0,0:0|0:0,0:0:0:0:
65,358,20019,6,0,P|108:310|171:317,1,132,10|0,0:3|0:0,0:0:0:0:
190,330,20353,2,0,L|301:336,1,88,8|0,0:0|0:0,0:0:0:0:
426,382,20686,5,10,0:3:0:0:
426,382,20853,1,8,0:3:0:0:
498,261,21019,2,0,P|507:220|513:171,1,88,8|0,0:0|0:0,0:0:0:0:
370,121,21353,6,0,P|452:103|486:25,2,176,10|8|8,0:3|0:0|0:3,0:0:0:0:
370,121,22186,1,8,0:3:0:0:
512,174,22353,5,10,0:0:0:0:
395,31,22519,1,2,0:0:0:0:
276,198,22686,2,0,P|339:199|375:147,1,132,10|0,0:3|0:0,0:0:0:0:
374,125,23019,5,8,0:0:0:0:
284,285,23186,2,0,L|272:162,1,88,2|8,0:0|0:3,0:0:0:0:
405,321,23519,1,10,0:3:0:0:
405,321,23686,2,0,L|417:198,1,88,8|0,0:0|0:0,0:0:0:0:
248,112,24019,6,0,B|342:93|319:164|414:144,2,176,6|8|8,0:2|0:0|0:3,0:0:0:0:
248,112,24853,1,8,0:3:0:0:
265,281,25019,6,0,P|280:240|275:197,1,88,10|0,0:0|0:0,0:0:0:0:
188,316,25353,2,0,P|231:309|265:282,1,88,10|0,0:3|0:0,0:0:0:0:
24,368,25686,5,8,0:0:0:0:
120,265,25853,2,0,P|160:281|187:315,1,88,2|8,0:0|0:3,0:0:0:0:
281,200,26186,1,10,0:3:0:0:
281,200,26353,2,0,P|261:239|265:282,1,88,8|0,0:0|0:0,0:0:0:0:
133,38,26686,6,0,P|175:111|184:208,2,176,10|8|8,0:3|0:0|0:3,0:0:0:0:
133,38,27519,1,8,0:3:0:0:
1,170,27686,5,10,0:0:0:0:
36,7,27853,1,2,0:0:0:0:
184,200,28019,5,10,0:3:0:0:
38,92,28186,1,8,0:0:0:0:
36,334,28353,5,10,0:0:0:0:
87,163,28519,1,10,0:3:0:0:
105,150,28603,1,8,0:3:0:0:
123,137,28686,1,8,0:3:0:0:
226,276,28853,5,10,0:3:0:0:
299,133,29019,1,4,0:3:0:0:
184,200,29186,1,4,0:3:0:0:
257,57,29353,5,6,0:0:0:0:
257,57,29686,1,10,0:0:0:0:
299,133,29853,2,0,L|366:130,1,61.5999981201172,2|8,0:0|0:0,0:0:0:0:
257,57,30186,5,10,0:3:0:0:
213,132,30353,1,10,0:0:0:0:
171,57,30519,1,10,0:3:0:0:
171,57,30686,2,0,P|119:40|45:59,1,123.199996240234,8|8,0:0|0:0,0:0:0:0:
53,53,31186,1,8,0:3:0:0:
109,153,31353,6,0,P|113:191|108:218,1,61.5999981201172,10|8,0:0|0:3,0:0:0:0:
45,259,31686,2,0,P|69:239|98:228,1,61.5999981201172,10|8,0:0|0:3,0:0:0:0:
120,334,32019,5,10,0:0:0:0:
120,334,32353,1,10,0:0:0:0:
188,282,32519,2,0,L|196:207,1,61.5999981201172,2|8,0:0|0:0,0:0:0:0:
120,334,32853,5,10,0:3:0:0:
200,367,33019,1,10,0:0:0:0:
268,315,33186,1,10,0:3:0:0:
268,315,33353,2,0,P|302:314|354:326,1,61.5999981201172,8|0,0:0|0:0,0:0:0:0:
427,363,33686,6,0,L|435:288,1,61.5999981201172,10|8,0:0|0:3,0:0:0:0:
488,235,34019,2,0,L|496:160,1,61.5999981201172,10|8,0:0|0:3,0:0:0:0:
468,96,34353,1,10,0:0:0:0:
468,96,34519,1,8,0:3:0:0:
363,139,34686,6,0,B|295:145|313:112|243:121,2,123.199996240234,10|8|8,0:0|0:0|0:0,0:0:0:0:
363,139,35519,1,8,0:3:0:0:
263,206,35686,5,10,0:0:0:0:
243,121,35853,2,0,L|236:59,1,61.5999981201172,10|8,0:3|0:0,0:0:0:0:
263,206,36186,5,2,0:0:0:0:
179,180,36353,1,10,0:0:0:0:
159,95,36519,2,0,L|152:33,1,61.5999981201172,10|8,0:3|0:0,0:0:0:0:
179,180,36853,5,10,0:3:0:0:
95,154,37019,1,10,0:0:0:0:
75,69,37186,1,10,0:3:0:0:
75,69,37353,2,0,L|68:7,1,61.5999981201172,8|0,0:3|0:0,0:0:0:0:
95,154,37686,5,10,0:0:0:0:
159,95,37853,2,0,P|192:93|222:101,1,61.5999981201172,2|8,0:0|0:0,0:0:0:0:
347,232,38186,5,10,0:3:0:0:
263,206,38353,1,10,0:0:0:0:
179,180,38519,1,10,0:3:0:0:
308,60,38686,5,6,0:0:0:0:
347,232,38853,1,10,0:3:0:0:
412,173,39019,1,8,0:0:0:0:
179,180,39186,6,0,L|104:174,1,61.5999981201172,12|0,0:0|0:0,0:0:0:0:
282,291,39519,5,10,0:3:0:0:
412,173,39686,1,8,0:0:0:0:
442,168,39769,1,8,0:0:0:0:
471,176,39853,1,8,0:0:0:0:
495,195,39936,1,8,0:0:0:0:
509,222,40019,6,0,L|512:139,1,74.8000014266968,6|0,0:0|0:0,0:0:0:0:
478,31,40353,1,10,0:0:0:0:
376,92,40519,2,0,P|338:91|303:77,1,74.8000014266968,2|8,0:0|0:3,0:0:0:0:
185,126,40853,5,10,0:3:0:0:
304,77,41019,1,10,0:0:0:0:
337,199,41186,1,2,0:0:0:0:
337,199,41353,2,0,B|316:159|316:159|285:294,1,149.600002853394,8|8,0:3|0:0,0:0:0:0:
251,332,41853,1,0,0:0:0:0:
337,199,42019,6,0,P|373:195|408:208,1,74.8000014266968,10|8,0:3|0:3,0:0:0:0:
322,341,42353,2,0,P|285:344|250:331,1,74.8000014266968,10|0,0:0|0:0,0:0:0:0:
194,181,42686,6,0,L|206:255,1,74.8000014266968,10|0,0:3|0:0,0:0:0:0:
75,287,43019,1,10,0:0:0:0:
122,171,43186,2,0,P|159:168|194:181,1,74.8000014266968,2|8,0:0|0:3,0:0:0:0:
292,260,43519,5,10,0:3:0:0:
193,181,43686,1,10,0:0:0:0:
294,98,43853,1,2,0:0:0:0:
294,98,44019,2,0,L|306:24,1,74.8000014266968,8|0,0:3|0:0,0:0:0:0:
365,177,44353,6,0,P|383:144|395:109,1,74.8000014266968,10|0,0:0|0:0,0:0:0:0:
386,271,44686,2,0,P|418:251|446:227,1,74.8000014266968,10|8,0:3|0:3,0:0:0:0:
357,362,45019,2,0,P|394:361|430:354,1,74.8000014266968,10|0,0:0|0:0,0:0:0:0:
497,161,45353,6,0,P|467:237|506:304,2,149.600002853394,6|8|8,0:0|0:0|0:3,0:0:0:0:
497,161,46186,1,0,0:0:0:0:
494,294,46353,5,10,0:0:0:0:
367,261,46519,2,0,L|276:254,1,74.8000014266968,2|8,0:0|0:3,0:0:0:0:
494,294,46853,5,2,0:0:0:0:
367,261,47019,1,10,0:0:0:0:
331,134,47186,2,0,L|309:45,1,74.8000014266968,2|8,0:0|0:3,0:0:0:0:
367,261,47519,5,10,0:3:0:0:
331,134,47686,1,10,0:0:0:0:
422,39,47853,1,2,0:0:0:0:
422,39,48019,2,0,L|499:-8,1,74.8000014266968,8|0,0:3|0:0,0:0:0:0:
331,134,48353,5,10,0:0:0:0:
496,152,48519,2,0,P|461:140|424:136,1,74.8000014266968,2|8,0:0|0:3,0:0:0:0:
283,214,48853,5,10,0:3:0:0:
424,136,49019,1,10,0:0:0:0:
238,133,49186,5,2,0:0:0:0:
424,136,49353,2,0,P|436:100|440:63,1,74.8000014266968,10|0,0:3|0:0,0:0:0:0:
247,11,49686,5,12,0:0:0:0:
348,79,49853,1,8,0:3:0:0:
249,25,50019,5,4,0:3:0:0:
333,82,50186,1,8,0:3:0:0:
251,39,50353,5,8,0:3:0:0:
318,85,50519,1,10,0:3:0:0:
244,223,50686,6,0,P|223:172|244:119,1,114.399994763184,6|10,0:0|0:3,0:0:0:0:
357,173,51186,2,0,P|329:177|302:171,1,57.1999973815919,2|8,0:0|0:0,0:0:0:0:
188,117,51519,2,0,P|215:111|243:119,1,57.1999973815919,2|8,0:0|0:3,0:0:0:0:
357,173,51853,5,10,0:3:0:0:
243,119,52019,2,0,L|236:54,1,57.1999973815919,2|8,0:0|0:0,0:0:0:0:
140,41,52353,1,10,0:3:0:0:
237,62,52519,2,0,P|259:44|274:20,1,57.1999973815919,2|8,0:0|0:0,0:0:0:0:
351,79,52853,2,0,P|378:83|406:77,1,57.1999973815919,2|8,0:0|0:3,0:0:0:0:
407,77,53353,6,0,L|419:190,1,114.399994763184,10|8,0:3|0:3,0:0:0:0:
471,292,53853,2,0,P|445:281|417:279,1,57.1999973815919,2|8,0:0|0:0,0:0:0:0:
316,181,54186,5,2,0:3:0:0:
316,181,54269,1,2,0:3:0:0:
316,181,54353,2,0,P|331:206|338:234,1,57.1999973815919,8|8,0:3|0:3,0:0:0:0:
216,306,54686,2,0,P|242:295|270:293,2,57.1999973815919,2|8|8,0:0|0:0|0:3,0:0:0:0:
101,364,55186,5,8,0:2:0:0:
87,338,55269,1,8,0:2:0:0:
83,310,55353,1,10,0:3:0:0:
136,188,55519,1,8,0:0:0:0:
90,282,55686,5,4,0:3:0:0:
156,168,55853,1,8,0:3:0:0:
270,293,56019,6,0,P|327:300|372:264,1,118.799996374512,6|0,0:0|0:0,0:0:0:0:
383,241,56353,1,10,0:0:0:0:
296,146,56519,2,0,L|306:225,1,79.1999975830079,2|8,0:0|0:3,0:0:0:0:
196,349,56853,1,10,0:3:0:0:
196,349,56936,1,10,0:3:0:0:
196,349,57019,2,0,L|186:270,1,79.1999975830079,8|0,0:0|0:0,0:0:0:0:
182,76,57353,6,0,B|207:105|207:105|219:185,1,118.799996374512,10|0,0:3|0:0,0:0:0:0:
143,189,57686,2,0,B|180:176|180:176|219:185,1,79.1999975830079,8|0,2:0|0:0,0:0:0:0:
291,38,58019,5,10,0:3:0:0:
291,38,58186,1,8,0:3:0:0:
219,185,58353,2,0,B|182:198|182:198|143:189,1,79.1999975830079,10|0,2:0|0:0,0:0:0:0:
0,18,58686,5,14,0:2:0:0:
73,126,58853,1,8,0:3:0:0:
83,257,59019,1,8,0:3:0:0:
148,23,59186,5,10,0:3:0:0:
0,201,59353,1,10,0:3:0:0:
18,12,59519,5,10,0:3:0:0:
65,263,59686,1,10,0:0:0:0:
256,64,59853,5,10,0:3:0:0:
256,64,60186,5,10,0:0:0:0:
325,359,60353,1,10,0:0:0:0:
325,359,60686,5,2,0:0:0:0:
343,349,60769,1,2,0:0:0:0:
363,346,60853,1,2,0:0:0:0:
383,349,60936,1,2,0:0:0:0:
401,357,61019,6,0,P|403:342|400:331,1,19.799999395752,2|2,0:0|0:0,0:0:0:0:
421,361,61103,2,0,P|421:351|418:341,1,19.799999395752,2|2,0:0|0:0,0:0:0:0:
441,358,61186,2,0,P|438:348|433:340,1,19.799999395752,2|2,0:0|0:0,0:0:0:0:
460,350,61269,2,0,P|455:341|448:335,1,19.799999395752,2|2,0:0|0:0,0:0:0:0:
477,337,61353,6,0,P|502:279|469:184,1,158.399995166016,6|0,0:0|0:0,0:0:0:0:
456,173,61686,1,10,0:0:0:0:
285,245,61853,6,0,P|331:268|383:264,1,105.599996777344,2|8,0:0|0:3,0:0:0:0:
405,80,62186,1,10,0:3:0:0:
405,80,62269,1,2,0:3:0:0:
405,80,62353,2,0,P|365:114|348:163,1,105.599996777344,8|0,0:0|0:0,0:0:0:0:
271,359,62686,6,0,P|257:255|203:164,1,211.199993554688,10|8,0:3|0:0,0:0:0:0:
204,165,63353,5,10,0:3:0:0:
43,137,63519,1,10,0:3:0:0:
226,73,63686,2,0,P|174:77|131:105,1,105.599996777344,10|0,0:0|0:0,0:0:0:0:
350,208,64019,6,0,P|282:169|204:165,1,158.399995166016,10|0,0:3|0:0,0:0:0:0:
179,175,64353,1,10,0:0:0:0:
321,316,64519,5,2,0:3:0:0:
321,316,64603,1,2,0:3:0:0:
321,316,64686,2,0,P|287:273|241:253,2,105.599996777344,8|8|8,0:3|0:3|0:0,0:0:0:0:
113,321,65186,5,2,0:0:0:0:
179,175,65353,2,0,P|259:168|332:194,1,158.399995166016,10|0,0:3|0:0,0:0:0:0:
350,208,65686,1,10,0:0:0:0:
497,93,65853,6,0,P|452:120|426:166,1,105.599996777344,2|8,0:0|0:3,0:0:0:0:
299,21,66186,1,10,0:3:0:0:
299,21,66269,1,2,0:0:0:0:
299,21,66353,2,0,P|334:59|347:109,1,105.599996777344,8|0,0:0|0:0,0:0:0:0:
179,175,66686,6,0,B|147:123|158:74|158:74|209:74|252:115,2,211.199993554688,6|8|8,0:0|0:0|0:3,0:0:0:0:
179,175,67519,1,8,0:3:0:0:
319,279,67686,6,0,P|274:253|222:250,1,105.599996777344,10|0,0:0|0:0,0:0:0:0:
8,344,68019,2,0,P|84:334|130:272,1,158.399995166016,10|0,0:3|0:0,0:0:0:0:
135,246,68353,1,10,0:0:0:0:
212,81,68519,6,0,P|185:126|182:178,1,105.599996777344,2|8,0:0|0:3,0:0:0:0:
291,324,68853,1,10,0:3:0:0:
291,324,68936,1,2,0:0:0:0:
291,324,69019,2,0,P|265:278|221:250,1,105.599996777344,8|0,0:0|0:0,0:0:0:0:
1,240,69353,5,6,0:0:0:0:
1,240,69519,1,8,0:3:0:0:
221,250,69686,5,10,0:0:0:0:
34,140,69853,2,0,L|21:29,1,105.599996777344,4|0,0:0|0:0,0:0:0:0:
8,344,70186,5,10,0:3:0:0:
156,150,70353,1,10,0:0:0:0:
311,356,70519,6,0,B|346:343|375:299|378:231|346:208|346:208|333:221|329:245|343:267,1,228.799989526368,4|8,0:0|0:3,0:0:0:0:
504,339,71019,5,8,0:0:0:0:
346,208,71186,2,0,B|319:170|317:118|348:58|386:50|386:50|388:72|374:99|353:106,1,246.399992480469,6|8,0:0|0:0,0:0:0:0:
108,225,71686,5,10,0:0:0:0:
129,221,71769,1,8,0:0:0:0:
151,224,71853,1,8,0:0:0:0:
171,231,71936,1,8,0:0:0:0:
190,242,72019,6,0,P|256:267|338:223,1,158.399995166016,6|0,0:0|0:0,0:0:0:0:
346,208,72353,1,10,0:0:0:0:
399,10,72519,6,0,P|366:51|360:102,1,105.599996777344,2|8,0:0|0:3,0:0:0:0:
407,288,72853,1,10,0:3:0:0:
407,288,72936,1,2,0:3:0:0:
407,288,73019,2,0,P|387:239|345:208,1,105.599996777344,8|0,0:0|0:0,0:0:0:0:
157,136,73353,6,0,P|270:140|371:93,1,211.199993554688,10|8,0:3|0:0,0:0:0:0:
358,102,74019,5,10,0:3:0:0:
407,288,74186,1,10,0:3:0:0:
512,115,74353,2,0,P|490:163|477:214,1,105.599996777344,10|0,0:0|0:0,0:0:0:0:
264,340,74686,6,0,P|329:297|407:288,1,158.399995166016,10|0,0:3|0:0,0:0:0:0:
429,298,75019,1,10,0:0:0:0:
366,109,75186,5,2,0:3:0:0:
366,109,75269,1,2,0:3:0:0:
366,109,75353,2,0,P|321:91|244:78,2,105.599996777344,8|8|8,0:3|0:3|0:0,0:0:0:0:
429,298,75853,5,2,0:0:0:0:
366,109,76019,2,0,P|365:36|435:13,1,158.399995166016,10|0,0:3|0:0,0:0:0:0:
459,27,76353,1,10,0:0:0:0:
387,213,76519,6,0,P|330:209|287:179,1,105.599996777344,2|8,0:0|0:3,0:0:0:0:
168,49,76853,1,10,0:3:0:0:
168,49,76936,1,2,0:0:0:0:
168,49,77019,2,0,P|225:53|268:83,1,105.599996777344,8|0,0:0|0:0,0:0:0:0:
291,296,77353,6,0,P|205:240|193:139,2,211.199993554688,6|8|8,0:0|0:0|0:3,0:0:0:0:
291,296,78186,1,8,0:3:0:0:
107,215,78353,6,0,P|160:217|206:242,1,105.599996777344,10|0,0:0|0:0,0:0:0:0:
0,353,78686,2,0,P|64:310|142:307,1,158.399995166016,10|0,0:3|0:0,0:0:0:0:
163,324,79019,1,10,0:0:0:0:
176,140,79186,6,0,P|133:170|107:215,1,105.599996777344,2|8,0:0|0:3,0:0:0:0:
9,34,79519,1,10,0:3:0:0:
9,34,79603,1,2,0:0:0:0:
9,34,79686,2,0,P|42:74|55:124,1,105.599996777344,8|0,0:0|0:0,0:0:0:0:
205,241,80019,6,0,B|311:214|298:291|409:268,2,211.199993554688,10|8|8,0:3|0:0|0:3,0:0:0:0:
205,241,80853,1,8,0:3:0:0:
347,75,81019,6,0,P|364:125|364:178,1,105.599996777344,10|0,0:0|0:0,0:0:0:0:
103,181,81353,2,0,P|163:132|241:127,1,158.399995166016,10|0,0:3|0:0,0:0:0:0:
264,140,81686,1,10,0:0:0:0:
224,346,81853,6,0,P|207:296|208:244,1,105.599996777344,2|0,0:0|0:0,0:0:0:0:
399,366,82186,1,10,0:3:0:0:
399,366,82269,1,2,0:0:0:0:
399,366,82353,2,0,P|413:315|409:263,1,105.599996777344,8|0,0:0|0:0,0:0:0:0:
241,127,82686,5,14,0:0:0:0:
409,263,82853,1,10,0:3:0:0:
208,243,83019,5,10,0:0:0:0:
391,140,83186,1,10,0:3:0:0:
303,324,83353,5,10,0:0:0:0:
319,99,83519,1,10,0:3:0:0:
122,160,83686,5,10,0:0:0:0:
311,210,83853,1,10,0:3:0:0:
50,217,84019,6,0,P|31:163|45:109,1,114.399994763184,10|0,0:0|0:0,0:0:0:0:
60,336,84353,5,10,0:0:0:0:
45,109,84519,2,0,P|89:75|145:71,1,114.399994763184,10|8,0:3|0:0,0:0:0:0:
398,273,84853,6,0,P|363:228|310:209,1,114.399994763184,10|8,0:3|0:0,0:0:0:0:
29,357,85186,5,8,0:3:0:0:
43,344,85269,1,8,0:3:0:0:
60,336,85353,2,0,P|179:306|301:314,1,246.399992480469,6|8,0:0|0:0,0:1:0:0:
472,371,85853,1,10,0:3:0:0:
472,138,86019,5,10,0:2:0:0:
441,141,86103,1,8,0:2:0:0:
416,158,86186,1,8,0:2:0:0:
403,186,86269,1,8,0:2:0:0:
405,217,86353,5,10,0:0:0:0:
414,172,86436,1,8,0:0:0:0:
392,133,86519,1,10,0:0:0:0:
349,117,86603,1,8,0:0:0:0:
307,134,86686,6,0,L|199:123,1,105.599996777344,14|8,0:0|0:3,0:0:0:0:
30,42,87019,5,10,0:0:0:0:
194,223,87186,2,0,P|213:174|202:123,1,105.599996777344,6|0,0:0|0:0,0:0:0:0:
66,307,87519,5,10,0:3:0:0:
194,223,87686,1,10,0:3:0:0:
229,206,87769,1,10,0:3:0:0:
268,211,87853,1,10,0:3:0:0:
298,236,87936,1,10,0:3:0:0:
310,273,88019,6,0,P|382:316|459:281,1,176,14|8,0:1|0:0,0:0:0:0:
418,61,88686,5,10,0:3:0:0:
418,61,88853,1,8,0:3:0:0:
387,224,89019,2,0,P|378:183|372:134,1,88,8|0,0:0|0:0,0:0:0:0:
309,272,89353,6,0,P|361:312|425:306,1,132,10|0,0:3|0:0,0:0:0:0:
444,295,89686,2,0,P|470:261|478:218,1,88,8|0,0:0|0:0,0:0:0:0:
334,355,90019,5,10,0:3:0:0:
334,355,90186,1,8,0:3:0:0:
387,224,90353,2,0,P|381:180|372:137,1,88,8|0,0:0|0:0,0:0:0:0:
167,105,90686,6,0,P|241:119|310:49,2,176,10|8|8,0:3|0:0|0:3,0:0:0:0:
167,105,91519,1,8,0:3:0:0:
308,53,91686,5,10,0:0:0:0:
296,227,91853,1,2,0:0:0:0:
171,109,92019,2,0,P|97:91|39:118,1,132,10|0,0:3|0:0,0:0:0:0:
32,127,92353,5,8,0:0:0:0:
97,283,92519,2,0,P|106:239|110:196,1,88,2|8,0:0|0:3,0:0:0:0:
45,40,92853,1,10,0:3:0:0:
45,40,93019,2,0,P|36:83|32:127,1,88,8|0,0:0|0:0,0:0:0:0:
97,283,93353,6,0,B|188:255|172:328|265:300,2,176,6|8|8,0:2|0:0|0:3,0:0:0:0:
97,283,94186,1,8,0:3:0:0:
231,215,94353,6,0,P|239:177|231:125,1,88,10|0,0:0|0:0,0:0:0:0:
137,14,94686,2,0,P|165:39|214:59,1,88,10|0,0:3|0:0,0:0:0:0:
431,48,95019,5,8,0:0:0:0:
282,74,95186,2,0,P|316:47|358:33,1,88,2|8,0:0|0:3,0:0:0:0:
505,92,95519,1,10,0:3:0:0:
505,92,95686,2,0,P|464:76|430:47,1,88,8|0,0:0|0:0,0:0:0:0:
330,246,96019,6,0,P|319:162|380:103,2,176,10|8|8,0:3|0:0|0:3,0:0:0:0:
330,246,96853,1,8,0:3:0:0:
509,330,97019,5,10,0:0:0:0:
406,192,97186,1,2,0:0:0:0:
315,339,97353,5,6,0:0:0:0:
481,242,97519,1,8,0:2:0:0:
241,278,97686,5,10,0:0:0:0:
411,315,97853,1,10,0:3:0:0:
411,315,98019,1,8,0:3:0:0:
264,198,98186,5,10,2:2:0:0:
269,177,98269,1,8,2:2:0:0:
274,156,98353,5,8,0:0:0:0:
309,130,98436,1,8,0:0:0:0:
352,129,98519,1,8,0:0:0:0:
389,153,98603,1,8,0:0:0:0:
406,192,98686,6,0,L|417:122,1,70.4,6|0,0:0|0:0,0:0:0:0:
465,36,99019,1,10,0:0:0:0:
484,136,99186,2,0,P|449:135|417:122,1,70.4,2|8,0:0|0:3,0:0:0:0:
293,23,99519,5,10,0:3:0:0:
309,130,99686,1,10,0:0:0:0:
329,241,99853,1,2,0:0:0:0:
329,241,100019,2,0,P|259:213|184:214,1,140.8,10|8,0:3|0:0,0:0:0:0:
194,212,100519,1,0,0:0:0:0:
239,337,100686,5,10,0:3:0:0:
239,337,100853,1,8,0:3:0:0:
329,240,101019,2,0,P|319:274|314:309,1,70.4,10|0,0:0|0:0,0:0:0:0:
412,368,101353,6,0,P|407:333|397:299,1,70.4,10|0,0:3|0:0,0:0:0:0:
239,337,101686,1,10,0:0:0:0:
192,250,101853,2,0,P|196:215|206:181,1,70.4,2|8,0:0|0:3,0:0:0:0:
301,78,102186,5,10,0:3:0:0:
202,82,102353,1,10,0:0:0:0:
107,90,102519,1,2,0:0:0:0:
107,90,102686,2,0,P|72:85|38:75,1,70.4,8|0,0:3|0:0,0:0:0:0:
96,212,103019,6,0,P|68:191|38:174,1,70.4,10|0,0:0|0:0,0:0:0:0:
11,281,103353,1,10,0:3:0:0:
11,281,103519,1,8,0:3:0:0:
77,368,103686,2,0,P|98:339|115:309,1,70.4,10|0,0:0|0:0,0:0:0:0:
170,163,104019,5,6,0:0:0:0:
164,185,104186,1,0,0:0:0:0:
97,98,104353,5,8,0:0:0:0:
99,109,104519,1,0,0:0:0:0:
179,45,104686,5,8,0:3:0:0:
178,50,104853,1,0,0:0:0:0:
164,185,105019,5,10,0:0:0:0:
259,124,105186,2,0,P|293:117|333:120,1,70.4,2|8,0:0|0:3,0:0:0:0:
357,11,105519,5,2,0:0:0:0:
328,119,105686,1,10,0:0:0:0:
300,228,105853,2,0,L|296:305,1,70.4,2|8,0:0|0:3,0:0:0:0:
404,327,106186,5,10,0:3:0:0:
296,298,106353,1,10,0:0:0:0:
191,274,106519,1,2,0:0:0:0:
191,274,106686,2,0,P|155:271|121:278,1,70.4,8|0,0:3|0:0,0:0:0:0:
25,369,107019,5,10,0:0:0:0:
121,278,107186,2,0,P|130:244|130:209,1,70.4,2|8,0:0|0:3,0:0:0:0:
65,116,107519,5,10,0:3:0:0:
130,209,107686,1,10,0:0:0:0:
179,107,107853,1,2,0:0:0:0:
16,218,108019,5,6,0:0:0:0:
244,200,108186,1,10,0:3:0:0:
130,209,108353,1,8,0:0:0:0:
358,191,108519,6,0,P|389:194|440:209,1,79.1999975830079,12|0,0:0|0:0,0:0:0:0:
506,322,108853,5,10,0:3:0:0:
435,207,109019,1,8,0:0:0:0:
431,175,109103,1,8,0:0:0:0:
441,145,109186,1,8,0:0:0:0:
463,123,109269,1,8,0:0:0:0:
491,112,109353,6,0,P|506:73|496:32,1,74.8000014266968,6|0,0:0|0:0,0:0:0:0:
384,10,109686,1,10,0:0:0:0:
285,78,109853,2,0,L|200:69,1,74.8000014266968,2|8,0:0|0:3,0:0:0:0:
115,143,110186,5,10,0:3:0:0:
210,70,110353,1,10,0:0:0:0:
260,178,110519,1,2,0:0:0:0:
260,178,110686,2,0,P|332:167|416:177,1,149.600002853394,8|8,0:3|0:0,0:0:0:0:
459,239,111186,1,0,0:0:0:0:
429,103,111353,6,0,P|416:138|408:174,1,74.8000014266968,10|8,0:3|0:3,0:0:0:0:
512,292,111686,2,0,P|487:263|459:238,1,74.8000014266968,10|0,0:0|0:0,0:0:0:0:
350,339,112019,6,0,P|312:334|276:324,1,74.8000014266968,10|0,0:3|0:0,0:0:0:0:
182,250,112353,1,10,0:0:0:0:
325,255,112519,2,0,P|292:236|258:221,1,74.8000014266968,2|8,0:0|0:3,0:0:0:0:
120,199,112853,5,10,0:3:0:0:
258,221,113019,1,10,0:0:0:0:
350,116,113186,1,2,0:0:0:0:
350,116,113353,2,0,P|357:78|361:41,1,74.8000014266968,8|0,0:3|0:0,0:0:0:0:
192,28,113686,6,0,L|275:24,1,74.8000014266968,10|0,0:0|0:0,0:0:0:0:
156,130,114019,2,0,L|239:134,1,74.8000014266968,10|8,0:3|0:3,0:0:0:0:
118,32,114353,2,0,L|201:28,1,74.8000014266968,10|0,0:0|0:0,0:0:0:0:
37,125,114686,6,0,P|82:188|86:275,2,149.600002853394,6|8|8,0:0|0:0|0:3,0:0:0:0:
37,125,115519,1,0,0:0:0:0:
89,258,115686,5,10,0:0:0:0:
218,221,115853,2,0,P|258:215|309:214,1,74.8000014266968,2|8,0:0|0:3,0:0:0:0:
89,258,116186,5,2,0:0:0:0:
218,221,116353,1,10,0:0:0:0:
335,286,116519,2,0,P|367:310|404:345,1,74.8000014266968,2|8,0:0|0:3,0:0:0:0:
218,221,116853,5,10,0:3:0:0:
335,286,117019,1,10,0:0:0:0:
449,217,117186,1,2,0:0:0:0:
449,217,117353,2,0,P|481:192|518:157,1,74.8000014266968,8|0,0:3|0:0,0:0:0:0:
335,286,117686,5,10,0:0:0:0:
325,134,117853,2,0,P|342:167|356:201,1,74.8000014266968,2|8,0:0|0:3,0:0:0:0:
245,316,118186,5,10,0:3:0:0:
356,201,118353,1,10,0:0:0:0:
198,215,118519,5,2,0:0:0:0:
356,201,118686,2,0,P|373:167|387:133,1,74.8000014266968,8|0,0:3|0:0,0:0:0:0:
146,122,119019,5,12,0:0:0:0:
269,129,119186,1,8,0:3:0:0:
154,132,119353,5,4,0:3:0:0:
256,138,119519,1,8,0:3:0:0:
164,142,119686,5,8,0:3:0:0:
244,149,119853,1,10,0:3:0:0:
143,302,120019,6,0,P|188:269|197:214,1,114.399994763184,6|10,0:0|0:3,0:0:0:0:
68,212,120519,2,0,P|93:224|122:228,1,57.1999973815919,2|8,0:0|0:0,0:0:0:0:
251,230,120853,2,0,P|225:217|197:214,1,57.1999973815919,2|8,0:0|0:3,0:0:0:0:
68,212,121186,5,10,0:3:0:0:
102,93,121353,2,0,P|114:118|118:147,1,57.1999973815919,2|8,0:0|0:0,0:0:0:0:
68,212,121686,1,10,0:3:0:0:
118,147,121853,2,0,P|138:127|164:115,1,57.1999973815919,2|8,0:0|0:0,0:0:0:0:
241,180,122186,2,0,P|221:200|195:212,1,57.1999973815919,2|8,0:0|0:3,0:0:0:0:
195,212,122686,6,0,L|185:335,1,114.399994763184,10|8,0:3|0:3,0:0:0:0:
293,241,123186,2,0,P|275:263|266:290,1,57.1999973815919,2|8,0:0|0:0,0:0:0:0:
370,352,123519,5,2,0:3:0:0:
370,352,123603,1,2,0:3:0:0:
370,352,123686,2,0,P|360:325|342:304,1,57.1999973815919,8|8,0:3|0:3,0:0:0:0:
279,187,124019,2,0,P|291:212|293:240,2,57.1999973815919,2|8|8,0:0|0:0|0:3,0:0:0:0:
102,222,124519,5,8,0:2:0:0:
128,235,124603,1,8,0:2:0:0:
156,239,124686,1,10,0:3:0:0:
279,187,124853,1,8,0:0:0:0:
184,233,125019,5,4,0:3:0:0:
298,167,125186,1,8,0:3:0:0:
159,55,125353,6,0,B|140:39|140:39|146:147,1,118.799996374512,6|0,0:0|0:0,0:0:0:0:
148,156,125686,1,10,0:0:0:0:
313,138,125853,2,0,P|278:119|239:115,1,79.1999975830079,2|8,0:0|0:3,0:0:0:0:
93,210,126186,1,10,0:3:0:0:
93,210,126269,1,10,0:3:0:0:
93,210,126353,2,0,P|125:188|148:156,1,79.1999975830079,8|0,0:0|0:0,0:0:0:0:
264,299,126686,6,0,P|234:248|220:191,1,118.799996374512,10|0,0:3|0:0,0:0:0:0:
239,114,127019,2,0,P|234:154|220:190,1,79.1999975830079,8|0,2:0|0:0,0:0:0:0:
115,35,127353,5,10,0:3:0:0:
115,35,127519,1,8,0:3:0:0:
239,114,127686,2,0,P|278:109|314:94,1,79.1999975830079,10|0,2:0|0:0,0:0:0:0:
460,274,128019,5,14,0:2:0:0:
351,200,128186,1,8,0:3:0:0:
220,190,128353,1,8,0:3:0:0:
423,116,128519,5,10,0:3:0:0:
448,290,128686,1,10,0:3:0:0:
315,94,128853,5,10,0:3:0:0:
349,338,129019,1,10,0:0:0:0:
207,74,129186,5,10,0:3:0:0:
207,74,129519,5,10,0:0:0:0:
74,359,129686,1,10,0:0:0:0:
74,359,130019,5,10,0:2:0:0:
98,322,130103,1,10,0:3:0:0:
102,278,130186,1,10,0:3:0:0:
84,237,130269,1,10,0:3:0:0:
49,210,130353,6,0,P|33:217|15:216,1,19.799999395752,2|2,0:0|0:0,0:0:0:0:
53,173,130436,2,0,P|38:163|30:146,1,19.799999395752,2|2,0:0|0:0,0:0:0:0:
87,157,130519,2,0,P|88:139|98:124,1,19.799999395752,2|2,0:0|0:0,0:0:0:0:
117,178,130603,2,0,P|133:170|151:171,1,19.799999395752,2|2,0:0|0:0,0:0:0:0:
113,214,130686,6,0,P|89:136|134:81,1,158.399995166016,6|0,0:0|0:0,0:0:0:0:
158,71,131019,1,10,0:0:0:0:
210,237,131186,6,0,P|158:240|113:214,1,105.599996777344,2|8,0:0|0:3,0:0:0:0:
61,48,131519,1,10,0:3:0:0:
61,48,131603,1,2,0:3:0:0:
61,48,131686,2,0,P|113:45|158:71,1,105.599996777344,8|0,0:0|0:0,0:0:0:0:
104,333,132019,6,0,P|105:230|178:157,1,211.199993554688,10|8,0:3|0:0,0:0:0:0:
178,157,132686,5,10,0:3:0:0:
336,127,132853,1,10,0:3:0:0:
158,70,133019,2,0,P|209:74|249:108,1,105.599996777344,10|0,0:0|0:0,0:0:0:0:
187,328,133353,6,0,P|153:257|163:180,1,158.399995166016,10|0,0:3|0:0,0:0:0:0:
178,157,133686,1,10,0:0:0:0:
366,261,133853,5,2,0:3:0:0:
366,261,133936,1,2,0:3:0:0:
366,261,134019,2,0,P|321:233|269:236,2,105.599996777344,8|8|8,0:3|0:3|0:0,0:0:0:0:
187,328,134519,5,2,0:0:0:0:
402,362,134686,2,0,P|459:310|467:233,1,158.399995166016,10|0,0:3|0:0,0:0:0:0:
454,209,135019,1,10,0:0:0:0:
269,236,135186,6,0,P|314:263|366:261,1,105.599996777344,2|8,0:0|0:3,0:0:0:0:
511,115,135519,1,10,0:3:0:0:
511,115,135603,1,2,0:0:0:0:
511,115,135686,2,0,P|464:139|441:185,1,105.599996777344,8|0,0:0|0:0,0:0:0:0:
251,80,136019,6,0,B|251:61|262:42|280:29|280:29|320:46|339:78|346:120|336:156,2,211.199993554688,6|8|8,0:0|0:0|0:3,0:0:0:0:
251,80,136853,1,8,0:3:0:0:
429,56,137019,6,0,P|377:56|331:80,1,105.599996777344,10|0,0:0|0:0,0:0:0:0:
217,222,137353,2,0,P|261:159|337:155,1,158.399995166016,10|0,0:3|0:0,0:0:0:0:
358,172,137686,1,10,0:0:0:0:
255,314,137853,6,0,P|222:273|217:221,1,105.599996777344,2|8,0:0|0:3,0:0:0:0:
409,248,138186,1,10,0:3:0:0:
409,248,138269,1,2,0:0:0:0:
409,248,138353,2,0,P|442:207|447:155,1,105.599996777344,8|0,0:0|0:0,0:0:0:0:
274,13,138686,5,6,0:0:0:0:
274,13,138853,1,8,0:3:0:0:
217,221,139019,5,10,0:0:0:0:
115,19,139186,2,0,P|157:50|175:98,1,105.599996777344,4|0,0:0|0:0,0:0:0:0:
85,346,139519,5,10,0:3:0:0:
175,99,139686,1,10,0:0:0:0:
339,319,139853,6,0,B|366:355|411:353|441:318|432:277|432:277|407:260|393:236|397:207,1,228.799989526368,4|8,0:0|0:3,0:0:0:0:
243,312,140353,5,8,0:0:0:0:
175,99,140519,2,0,B|204:59|253:62|285:100|275:144|275:144|248:163|233:189|237:220,1,246.399992480469,6|8,0:0|0:0,0:0:0:0:
11,234,141019,5,10,0:0:0:0:
30,224,141103,1,8,0:0:0:0:
52,221,141186,1,8,0:0:0:0:
73,223,141269,1,8,0:0:0:0:
94,229,141353,6,0,P|170:253|253:195,1,158.399995166016,6|0,0:0|0:0,0:0:0:0:
255,200,141686,1,10,0:0:0:0:
325,374,141853,6,0,P|294:331|290:279,1,105.599996777344,2|8,0:0|0:3,0:0:0:0:
344,118,142186,1,10,0:3:0:0:
344,118,142269,1,2,0:3:0:0:
344,118,142353,2,0,P|323:166|280:195,1,105.599996777344,8|0,0:0|0:0,0:0:0:0:
49,76,142686,6,0,B|159:56|140:129|253:107,1,211.199993554688,10|8,0:3|0:0,0:0:0:0:
252,107,143353,5,10,0:3:0:0:
49,76,143519,1,10,0:3:0:0:
71,280,143686,2,0,P|89:231|86:179,1,105.599996777344,10|0,0:0|0:0,0:0:0:0:
7,357,144019,6,0,P|79:324|158:328,1,158.399995166016,10|0,0:3|0:0,0:0:0:0:
183,340,144353,1,10,0:0:0:0:
343,232,144519,5,2,0:3:0:0:
343,232,144603,1,2,0:3:0:0:
343,232,144686,2,0,P|293:257|255:308,2,105.599996777344,8|8|8,0:3|0:3|0:0,0:0:0:0:
512,333,145186,5,2,0:0:0:0:
343,232,145353,2,0,P|338:157|377:79,1,158.399995166016,10|0,0:3|0:0,0:0:0:0:
395,67,145686,1,10,0:0:0:0:
438,271,145853,6,0,P|394:241|342:232,1,105.599996777344,2|8,0:0|0:3,0:0:0:0:
190,347,146186,1,10,0:3:0:0:
190,347,146269,1,2,0:0:0:0:
190,347,146353,2,0,P|237:323|270:283,1,105.599996777344,8|0,0:0|0:0,0:0:0:0:
338,24,146686,6,0,P|259:90|262:192,2,211.199993554688,6|8|8,0:0|0:0|0:3,0:0:0:0:
338,24,147519,1,8,0:3:0:0:
261,192,147686,6,0,P|209:190|163:165,1,105.599996777344,10|0,0:0|0:0,0:0:0:0:
418,232,148019,2,0,P|361:179|284:179,1,158.399995166016,10|0,0:3|0:0,0:0:0:0:
261,192,148353,1,10,0:0:0:0:
381,350,148519,6,0,P|414:309|424:258,1,105.599996777344,2|8,0:0|0:3,0:0:0:0:
326,87,148853,1,10,0:3:0:0:
326,87,148936,1,2,0:0:0:0:
326,87,149019,2,0,P|293:127|283:179,1,105.599996777344,8|0,0:0|0:0,0:0:0:0:
167,344,149353,6,0,P|235:267|337:271,2,211.199993554688,10|8|8,0:3|0:0|0:3,0:0:0:0:
167,344,150186,1,8,0:3:0:0:
192,175,150353,6,0,P|224:215|234:267,1,105.599996777344,10|0,0:0|0:0,0:0:0:0:
276,93,150686,2,0,P|241:164|232:243,1,158.399995166016,10|0,0:3|0:0,0:0:0:0:
234,267,151019,1,10,0:0:0:0:
376,108,151186,6,0,P|319:114|268:84,1,105.599996777344,2|0,0:0|0:0,0:0:0:0:
75,67,151519,1,10,0:3:0:0:
75,67,151603,1,2,0:0:0:0:
75,67,151686,2,0,P|132:61|183:91,1,105.599996777344,8|0,0:0|0:0,0:0:0:0:
299,324,152019,5,14,0:0:0:0:
376,108,152186,1,10,0:3:0:0:
401,315,152353,5,10,0:0:0:0:
277,93,152519,1,10,0:3:0:0:
197,333,152686,5,10,0:0:0:0:
365,136,152853,1,10,0:3:0:0:
179,178,153019,5,10,0:0:0:0:
383,291,153186,1,10,0:3:0:0:
391,28,153353,6,0,P|368:73|368:152,1,114.399994763184,10|0,0:0|0:0,0:0:0:0:
481,326,153686,5,10,0:0:0:0:
471,105,153853,2,0,P|443:62|375:23,1,114.399994763184,10|8,0:3|0:0,0:0:0:0:
104,112,154186,6,0,P|149:88|228:89,1,114.399994763184,10|8,0:3|0:0,0:0:0:0:
439,260,154519,5,8,0:3:0:0:
427,245,154603,1,8,0:3:0:0:
413,232,154686,2,0,P|316:186|171:179,1,246.399992480469,6|8,0:0|0:0,0:0:0:0:
53,251,155186,1,10,0:3:0:0:
37,33,155353,5,10,0:2:0:0:
68,36,155436,1,8,0:2:0:0:
93,53,155519,1,8,0:2:0:0:
106,81,155603,1,8,0:2:0:0:
104,112,155686,5,10,0:0:0:0:
95,67,155769,1,8,0:0:0:0:
117,28,155853,1,10,0:0:0:0:
160,12,155936,1,8,0:0:0:0:
202,29,156019,6,0,P|252:42|305:39,1,105.599996777344,14|8,0:0|0:3,0:0:0:0:
179,177,156353,5,10,0:0:0:0:
305,39,156519,2,0,P|351:26|420:35,1,105.599996777344,6|0,0:0|0:0,0:0:0:0:
385,313,156853,5,10,0:2:0:0:
385,313,156936,1,8,0:2:0:0:
385,313,157019,2,0,P|356:261|372:202,1,123.199996240234,8|0,0:0|0:0,0:0:0:0:
441,138,157353,6,0,B|406:101|350:97|311:131|311:131|244:86|118:130|135:304|326:344|326:344|406:319|434:251,1,704,10|2,0:1|3:0,0:0:0:0:
20,183,167686,5,8,0:0:0:0:
20,183,167769,1,8,0:0:0:0:
20,183,167853,1,8,0:0:0:0:
47,256,168019,5,10,3:3:0:0:
96,196,168186,1,8,0:0:0:0:
123,268,168353,2,0,P|170:285|216:272,1,88,8|8,0:3|0:0,0:0:0:0:
181,165,168853,2,0,P|175:186|172:208,1,44,2|8,3:0|0:3,0:0:0:0:
206,277,169186,1,8,0:0:0:0:
360,307,169353,5,2,3:0:0:0:
283,292,169519,1,8,0:0:0:0:
206,277,169686,2,0,P|158:280|108:290,1,88,8|8,0:3|0:0,0:0:0:0:
51,369,170186,2,0,L|49:326,1,44,2|8,3:0|0:3,0:0:0:0:
2,237,170519,5,8,0:0:0:0:
1,226,170603,1,8,0:0:0:0:
0,215,170686,2,0,L|3:171,1,44,10|8,3:3|0:0,0:0:0:0:
25,95,171019,1,8,0:3:0:0:
79,152,171186,2,0,P|104:158|143:157,1,44,2|8,0:0|0:0,0:0:0:0:
145,234,171519,1,2,0:0:0:0:
198,176,171686,2,0,P|223:170|262:171,1,44,10|8,0:3|0:0,0:0:0:0:
349,206,172019,6,0,P|327:212|306:214,1,44,2|8,3:0|0:0,0:0:0:0:
242,169,172353,2,0,L|230:73,1,88,8|8,0:3|0:0,0:0:0:0:
123,41,172853,2,0,P|145:35|167:34,1,44,10|8,3:2|0:3,0:0:0:0:
231,81,173186,1,8,0:0:0:0:
375,17,173353,5,14,3:3:0:0:
303,49,173519,1,8,0:0:0:0:
367,96,173686,2,0,P|378:135|385:183,1,88,8|8,0:3|0:0,0:0:0:0:
355,290,174186,2,0,P|370:274|388:261,1,44,2|8,3:0|0:3,0:0:0:0:
458,218,174519,1,8,0:0:0:0:
316,225,174686,5,2,3:0:0:0:
385,182,174853,1,8,0:0:0:0:
452,137,175019,2,0,P|462:97|446:44,1,88,8|8,0:3|0:0,0:0:0:0:
341,88,175519,2,0,L|384:94,1,44,2|8,3:0|0:3,0:0:0:0:
385,182,175853,5,8,0:0:0:0:
379,190,175936,1,8,0:0:0:0:
374,199,176019,2,0,P|366:228|363:253,1,44,10|8,3:3|0:0,0:0:0:0:
317,306,176353,2,0,P|287:283|234:286,1,88,8|8,0:3|0:0,0:0:0:0:
172,328,176853,1,2,0:3:0:0:
105,371,177019,2,0,L|47:360,1,44,10|8,0:3|0:0,0:0:0:0:
3,275,177353,6,0,L|47:284,1,44,2|8,3:3|0:0,0:0:0:0:
124,264,177686,2,0,P|137:225|130:174,1,88,8|8,0:3|0:0,0:0:0:0:
75,79,178186,2,0,P|71:101|74:123,1,44,10|8,3:2|0:3,0:0:0:0:
131,179,178519,1,8,0:0:0:0:
75,79,178686,5,14,3:3:0:0:
147,34,178853,1,8,0:0:0:0:
220,75,179019,2,0,P|271:85|328:57,1,105.599996777344,8|8,0:3|0:0,0:0:0:0:
450,48,179519,2,0,P|425:40|399:38,1,52.7999983886719,2|8,3:0|0:3,0:0:0:0:
319,65,179853,1,8,0:0:0:0:
412,125,180019,5,2,0:0:0:0:
450,48,180186,1,8,0:0:0:0:
412,125,180353,2,0,L|429:237,1,105.599996777344,8|8,0:3|0:0,0:0:0:0:
471,333,180853,2,0,P|449:318|424:313,1,52.7999983886719,2|8,3:0|0:3,0:0:0:0:
326,340,181186,5,8,0:0:0:0:
316,349,181269,1,8,0:0:0:0:
306,358,181353,2,0,P|279:358|255:350,1,52.7999983886719,10|8,3:3|0:0,0:0:0:0:
188,297,181686,2,0,L|175:186,1,105.599996777344,8|8,0:3|0:0,0:0:0:0:
201,111,182186,1,10,0:0:0:0:
279,143,182353,2,0,P|303:142|342:128,1,52.7999983886719,10|8,0:3|0:0,0:0:0:0:
448,72,182686,6,0,P|422:74|397:82,1,52.7999983886719,2|8,3:0|0:0,0:0:0:0:
331,134,183019,2,0,L|318:245,1,105.599996777344,8|8,0:3|0:0,0:0:0:0:
200,300,183519,2,0,P|226:298|252:291,1,52.7999983886719,10|8,3:2|0:3,0:0:0:0:
319,239,183853,1,8,0:0:0:0:
204,208,184019,5,14,3:3:0:0:
200,300,184186,1,8,0:0:0:0:
121,249,184353,2,0,B|62:233|60:264|-5:242,1,123.199996240234,8|8,0:3|0:0,0:0:0:0:
18,96,184853,2,0,P|27:125|32:156,1,61.5999981201172,2|8,3:0|0:3,0:0:0:0:
0,243,185186,1,8,0:0:0:0:
89,336,185353,5,2,3:2:0:0:
121,249,185519,1,8,0:0:0:0:
200,300,185686,2,0,P|254:312|298:258,1,123.199996240234,8|8,0:3|0:0,0:0:0:0:
266,115,186186,2,0,P|267:146|275:176,1,61.5999981201172,2|8,3:0|0:3,0:0:0:0:
382,143,186519,5,8,0:0:0:0:
393,136,186603,1,8,0:0:0:0:
405,130,186686,2,0,P|441:131|464:151,1,61.5999981201172,10|8,3:3|0:0,0:0:0:0:
393,227,187019,2,0,P|368:174|405:130,1,123.199996240234,8|8,0:3|0:0,0:0:0:0:
483,178,187519,1,2,3:0:0:0:
488,78,187686,2,0,L|491:4,1,61.5999981201172,8|8,0:3|0:0,0:0:0:0:
361,56,188019,6,0,P|331:56|278:37,1,61.5999981201172,2|8,3:3|0:0,0:0:0:0:
188,74,188353,2,0,P|241:43|301:48,1,123.199996240234,8|8,0:3|0:0,0:0:0:0:
404,129,188853,1,10,3:2:0:0:
280,208,189019,6,0,P|267:171|263:142,1,61.5999981201172,10|8,0:3|0:0,0:0:0:0:
256,355,189353,5,10,3:3:0:0:
181,308,189519,1,8,0:3:0:0:
113,252,189686,1,8,0:3:0:0:
51,189,189853,1,8,0:3:0:0:
47,100,190019,1,8,0:3:0:0:
100,27,190186,1,8,0:3:0:0:
190,27,190353,1,8,0:3:0:0:
256,90,190519,1,8,0:3:0:0:
412,27,190686,5,10,0:3:0:0:
322,27,190853,1,8,0:3:0:0:
461,189,191019,5,8,0:3:0:0:
465,100,191186,1,8,0:3:0:0:
331,308,191353,5,8,0:0:0:0:
461,189,191519,1,8,0:0:0:0:
256,355,191686,5,8,0:0:0:0:
399,252,191853,1,8,0:0:0:0:
256,355,192686,5,2,0:0:0:0:
227,327,192769,1,2,0:0:0:0:
190,314,192853,1,2,0:0:0:0:
151,316,192936,1,2,0:0:0:0:
116,333,193019,6,0,P|110:343|100:353,1,26.399999194336,10|2,0:2|0:0,0:0:0:0:
85,326,193103,2,0,P|71:330|58:332,1,26.399999194336,10|2,0:2|0:0,0:0:0:0:
65,300,193186,2,0,P|53:294|41:286,1,26.399999194336,10|2,0:3|0:0,0:0:0:0:
57,261,193269,2,0,P|46:252|38:242,1,26.399999194336,6|2,0:3|0:0,0:0:0:0:
69,232,193353,6,0,P|94:191|59:88,1,158.399995166016,6|0,0:0|0:0,0:0:0:0:
39,81,193686,1,10,0:0:0:0:
251,61,193853,6,0,P|199:51|160:16,1,105.599996777344,2|8,0:0|0:3,0:0:0:0:
195,211,194186,1,10,0:3:0:0:
195,211,194269,1,2,0:3:0:0:
195,211,194353,2,0,P|156:176|104:167,1,105.599996777344,8|0,0:0|0:0,0:0:0:0:
380,236,194686,6,0,P|281:264|194:210,1,211.199993554688,10|8,0:3|0:0,0:0:0:0:
194,210,195353,5,10,0:3:0:0:
380,236,195519,1,10,0:3:0:0:
330,50,195686,2,0,P|302:94|296:146,1,105.599996777344,10|0,0:0|0:0,0:0:0:0:
420,337,196019,6,0,P|367:276|262:278,1,158.399995166016,10|0,0:3|0:0,0:0:0:0:
267,274,196353,1,10,0:0:0:0:
238,61,196519,5,2,0:3:0:0:
238,61,196603,1,2,0:3:0:0:
238,61,196686,2,0,P|276:96|295:144,2,105.599996777344,8|8|8,0:3|0:3|0:0,0:0:0:0:
71,14,197186,5,2,0:0:0:0:
238,61,197353,2,0,P|328:63|391:23,1,158.399995166016,10|0,0:3|0:0,0:0:0:0:
404,11,197686,1,10,0:0:0:0:
489,178,197853,6,0,P|451:143|400:133,1,105.599996777344,2|8,0:0|0:3,0:0:0:0:
326,280,198186,1,10,0:3:0:0:
326,280,198269,1,2,0:0:0:0:
326,280,198353,2,0,P|378:262|411:221,1,105.599996777344,8|0,0:0|0:0,0:0:0:0:
413,41,198686,6,0,P|322:84|324:184,2,211.199993554688,6|8|8,0:0|0:0|0:3,0:0:0:0:
413,41,199519,1,8,0:3:0:0:
489,178,199686,6,0,P|437:168|399:133,1,105.599996777344,10|0,0:0|0:0,0:0:0:0:
392,349,200019,2,0,P|378:271|341:201,1,158.399995166016,10|0,0:3|0:0,0:0:0:0:
323,183,200353,1,10,0:0:0:0:
168,214,200519,6,0,P|214:191|242:147,1,105.599996777344,2|8,0:0|0:3,0:0:0:0:
134,23,200853,1,10,0:3:0:0:
134,23,200936,1,2,0:0:0:0:
134,23,201019,2,0,P|130:75|155:122,1,105.599996777344,8|0,0:0|0:0,0:0:0:0:
345,205,201353,5,6,0:0:0:0:
345,205,201519,1,8,0:3:0:0:
80,179,201686,5,10,0:0:0:0:
220,57,201853,2,0,P|272:59|315:88,1,105.599996777344,4|0,0:0|0:0,0:0:0:0:
291,341,202186,5,10,0:3:0:0:
242,146,202353,1,10,0:0:0:0:
35,279,202519,6,0,B|9:254|-2:210|7:158|41:131|41:131|74:146|80:180,1,228.799989526368,4|8,0:0|0:3,0:0:0:0:
87,362,203019,5,8,0:0:0:0:
293,264,203186,2,0,B|318:233|331:186|320:129|283:99|283:99|252:112|242:147,1,246.399992480469,6|8,0:0|0:0,0:0:0:0:
143,304,203686,5,10,0:0:0:0:
164,301,203769,1,8,0:0:0:0:
185,305,203853,1,8,0:0:0:0:
205,313,203936,1,8,0:0:0:0:
223,325,204019,6,0,P|287:355|372:309,1,158.399995166016,6|0,0:0|0:0,0:0:0:0:
377,299,204353,1,10,0:0:0:0:
441,100,204519,6,0,P|402:136|391:185,1,105.599996777344,2|8,0:0|0:3,0:0:0:0:
258,39,204853,1,10,0:3:0:0:
258,39,204936,1,2,0:3:0:0:
258,39,205019,2,0,P|295:75|307:125,1,105.599996777344,8|0,0:0|0:0,0:0:0:0:
103,103,205353,6,0,B|212:79|195:152|307:126,1,211.199993554688,10|8,0:3|0:0,0:0:0:0:
307,126,206019,5,10,0:3:0:0:
145,190,206186,1,10,0:3:0:0:
336,251,206353,2,0,P|299:215|249:203,1,105.599996777344,10|0,0:0|0:0,0:0:0:0:
78,308,206686,6,0,P|154:285|233:290,1,158.399995166016,10|0,0:3|0:0,0:0:0:0:
257,300,207019,1,10,0:0:0:0:
382,158,207186,5,2,0:3:0:0:
382,158,207269,1,2,0:3:0:0:
382,158,207353,2,0,P|350:200|335:250,2,105.599996777344,8|8|8,0:3|0:3|0:0,0:0:0:0:
512,51,207853,5,2,0:0:0:0:
382,158,208019,2,0,P|288:149|231:107,1,158.399995166016,10|0,0:3|0:0,0:0:0:0:
216,95,208353,1,10,0:0:0:0:
39,16,208519,6,0,P|91:13|141:30,1,105.599996777344,2|8,0:0|0:3,0:0:0:0:
187,191,208853,1,10,0:3:0:0:
187,191,208936,1,2,0:0:0:0:
187,191,209019,2,0,P|134:194|84:177,1,105.599996777344,8|0,0:0|0:0,0:0:0:0:
0,372,209353,6,0,P|74:313|203:328,2,211.199993554688,6|8|8,0:0|0:0|0:3,0:0:0:0:
0,372,210186,1,8,0:3:0:0:
84,177,210353,6,0,P|102:227|92:294,1,105.599996777344,10|0,0:0|0:0,0:0:0:0:
159,106,210686,2,0,P|116:192|102:260,1,158.399995166016,10|0,0:3|0:0,0:0:0:0:
97,278,211019,1,10,0:0:0:0:
3,115,211186,6,0,P|51:137|91:192,1,105.599996777344,2|8,0:0|0:3,0:0:0:0:
223,26,211519,1,10,0:3:0:0:
223,26,211603,1,2,0:0:0:0:
223,26,211686,2,0,P|181:59|156:123,1,105.599996777344,8|0,0:0|0:0,0:0:0:0:
197,330,212019,6,0,P|173:230|85:177,2,211.199993554688,10|8|8,0:3|0:0|0:3,0:0:0:0:
197,330,212853,1,8,0:3:0:0:
275,131,213019,6,0,P|322:107|389:106,1,105.599996777344,10|0,0:0|0:0,0:0:0:0:
384,277,213353,2,0,P|352:205|363:127,1,158.399995166016,10|0,0:3|0:0,0:0:0:0:
374,103,213686,1,10,0:0:0:0:
483,304,213853,6,0,P|436:280|369:279,1,105.599996777344,2|0,0:0|0:0,0:0:0:0:
208,341,214186,1,10,0:3:0:0:
208,341,214269,1,2,0:0:0:0:
208,341,214353,2,0,P|260:337|307:313,1,105.599996777344,8|0,0:0|0:0,0:0:0:0:
303,34,214686,5,14,0:0:0:0:
237,248,214853,1,10,0:3:0:0:
233,98,215019,5,10,0:0:0:0:
307,312,215186,1,10,0:3:0:0:
390,61,215353,5,10,0:0:0:0:
237,248,215519,1,10,0:3:0:0:
213,6,215686,5,10,0:0:0:0:
328,220,215853,1,10,0:3:0:0:
499,38,216019,6,0,P|443:38|391:61,1,114.399994763184,10|0,0:0|0:0,0:0:0:0:
237,248,216353,5,10,0:0:0:0:
291,11,216519,2,0,P|346:25|390:61,1,114.399994763184,10|8,0:3|0:0,0:0:0:0:
402,302,216853,6,0,P|373:252|327:219,1,114.399994763184,10|8,0:3|0:0,0:0:0:0:
51,201,217186,5,8,0:3:0:0:
56,183,217269,1,8,0:3:0:0:
67,169,217353,2,0,P|178:119|300:121,1,246.399992480469,6|8,0:0|0:0,0:0:0:0:
456,213,217853,1,10,0:3:0:0:
496,59,218019,5,10,0:2:0:0:
464,54,218103,1,8,0:2:0:0:
436,66,218186,1,8,0:2:0:0:
417,91,218269,1,8,0:2:0:0:
413,121,218353,5,10,0:0:0:0:
431,79,218436,1,8,0:0:0:0:
418,37,218519,1,10,0:0:0:0:
379,12,218603,1,8,0:0:0:0:
334,20,218686,6,0,P|284:35|208:19,1,105.599996777344,14|8,0:0|0:3,0:0:0:0:
50,6,219019,5,10,0:0:0:0:
231,29,219186,2,0,P|274:57|303:101,1,105.599996777344,6|0,0:0|0:0,0:0:0:0:
29,221,219519,5,10,0:3:0:0:
107,109,219686,1,10,0:3:0:0:
142,92,219769,1,10,0:3:0:0:
181,97,219853,1,10,0:3:0:0:
211,122,219936,1,10,0:3:0:0:
223,159,220019,6,0,P|303:200|380:166,1,176,14|8,0:1|0:0,0:0:0:0:
498,3,220686,5,10,0:3:0:0:
498,3,220853,1,8,0:3:0:0:
452,135,221019,2,0,P|434:94|428:42,1,88,8|0,0:0|0:0,0:0:0:0:
262,86,221353,6,0,P|326:95|371:142,1,132,10|0,0:3|0:0,0:0:0:0:
376,167,221686,2,0,L|383:279,1,88,8|0,0:0|0:0,0:0:0:0:
240,314,222019,5,10,0:3:0:0:
240,314,222186,1,8,0:3:0:0:
289,169,222353,2,0,P|333:162|376:167,1,88,8|0,0:0|0:0,0:0:0:0:
438,333,222686,6,0,P|395:260|310:250,2,176,10|8|8,0:3|0:0|0:3,0:0:0:0:
438,333,223519,1,8,0:3:0:0:
311,250,223686,5,10,0:0:0:0:
475,222,223853,1,2,0:0:0:0:
346,338,224019,2,0,P|265:335|232:297,1,132,10|0,0:3|0:0,0:0:0:0:
229,278,224353,5,10,0:0:0:0:
310,166,224519,2,0,P|322:208|308:254,1,88,2|8,0:0|0:3,0:0:0:0:
232,124,224853,1,10,0:3:0:0:
232,124,225019,2,0,P|262:92|309:81,1,88,8|0,0:0|0:0,0:0:0:0:
476,197,225353,6,0,B|381:213|403:145|308:165,2,176,6|8|8,0:2|0:0|0:3,0:0:0:0:
476,197,226186,1,8,0:3:0:0:
475,24,226353,6,0,P|454:63|451:107,1,88,10|0,0:0|0:0,0:0:0:0:
333,247,226686,2,0,P|329:203|308:164,1,88,10|0,0:3|0:0,0:0:0:0:
127,225,227019,5,8,0:0:0:0:
275,310,227186,2,0,P|310:284|333:247,1,88,2|8,0:0|0:3,0:0:0:0:
192,291,227519,1,10,0:3:0:0:
192,291,227686,2,0,P|231:309|275:310,1,88,8|0,0:0|0:0,0:0:0:0:
288,81,228019,6,0,P|228:140|248:222,2,176,10|8|8,0:3|0:0|0:3,0:0:0:0:
288,81,228853,1,8,0:3:0:0:
512,105,229019,5,10,0:0:0:0:
309,165,229186,1,2,0:0:0:0:
470,34,229353,5,6,0:0:0:0:
470,34,229519,1,8,0:3:0:0:
330,249,229686,5,10,0:0:0:0:
379,58,229853,1,10,0:3:0:0:
487,259,230019,5,8,0:3:0:0:
460,234,230103,1,8,0:3:0:0:
431,222,230186,1,8,0:3:0:0:
397,220,230269,1,8,0:3:0:0:
368,234,230353,5,8,0:3:0:0:
330,249,230436,1,8,0:3:0:0:
291,250,230519,1,8,0:3:0:0:
255,235,230603,1,8,0:3:0:0:
227,207,230686,6,0,B|216:178|226:133|234:152|245:109|223:84|223:84|229:108|217:137,1,176,6|8,0:0|0:0,0:0:0:0:
0,217,231353,5,10,0:3:0:0:
0,217,231519,1,8,0:3:0:0:
57,84,231686,2,0,P|100:86|139:105,1,88,8|0,0:0|0:0,0:0:0:0:
192,274,232019,6,0,P|179:211|206:152,1,132,10|0,0:3|0:0,0:0:0:0:
219,131,232353,2,0,L|227:31,1,88,8|0,0:0|0:0,0:0:0:0:
61,88,232686,5,10,0:3:0:0:
61,88,232853,1,8,0:3:0:0:
226,43,233019,2,0,P|270:56|305:96,1,88,8|0,0:0|0:0,0:0:0:0:
250,285,233353,6,0,P|267:201|218:130,2,176,10|8|8,0:3|0:0|0:3,0:0:0:0:
250,285,234186,1,8,0:3:0:0:
219,131,234353,5,10,0:0:0:0:
55,132,234519,1,2,0:0:0:0:
184,42,234686,2,0,P|249:43|299:85,1,132,10|0,0:3|0:0,0:0:0:0:
306,106,235019,5,8,0:0:0:0:
435,18,235186,2,0,P|403:48|385:87,1,88,2|8,0:0|0:3,0:0:0:0:
503,174,235519,1,10,0:3:0:0:
503,174,235686,2,0,P|494:131|469:96,1,88,8|0,0:0|0:0,0:0:0:0:
366,285,236019,6,0,P|348:205|419:164,2,176,6|8|8,0:2|0:0|0:3,0:0:0:0:
366,285,236853,1,8,0:3:0:0:
267,174,237019,6,0,P|227:155|183:157,1,88,10|0,0:0|0:0,0:0:0:0:
46,264,237353,2,0,P|81:238|102:200,1,88,10|0,0:3|0:0,0:0:0:0:
209,301,237686,5,8,0:0:0:0:
102,200,237853,2,0,P|91:157|101:115,1,88,2|8,0:0|0:3,0:0:0:0:
270,177,238186,1,10,0:3:0:0:
270,177,238353,2,0,P|280:135|271:93,1,88,8|0,0:0|0:0,0:0:0:0:
47,18,238686,6,0,P|98:85|185:68,2,176,10|8|8,0:3|0:0|0:3,0:0:0:0:
47,18,239519,1,8,0:3:0:0:
88,256,239686,5,10,0:0:0:0:
180,71,239853,1,2,0:0:0:0:
173,276,240019,5,6,0:0:0:0:
92,82,240186,1,8,0:3:0:0:
5,282,240353,5,10,0:0:0:0:
149,156,240519,1,10,0:3:0:0:
149,156,240686,1,8,0:3:0:0:
242,308,240853,5,10,0:2:0:0:
247,283,240936,1,8,0:2:0:0:
247,258,241019,5,8,0:2:0:0:
214,273,241103,1,8,0:2:0:0:
195,302,241186,1,8,0:2:0:0:
190,336,241269,1,8,0:2:0:0:
193,371,241353,5,6,0:2:0:0:
256,192,241436,12,2,243978,0:0:0:0:
