osu file format v14

[General]
AudioFilename: audio.mp3
AudioLeadIn: 0
PreviewTime: 978
Countdown: 0
SampleSet: Soft
StackLeniency: 0.4
Mode: 0
LetterboxInBreaks: 0
WidescreenStoryboard: 1

[Editor]
DistanceSpacing: 0.9
BeatDivisor: 4
GridSize: 32
TimelineZoom: 1.5

[Metadata]
Title:petit bonheur
TitleUnicode:petit bonheur
Artist:yuiko
ArtistUnicode:yuiko
Creator:Lasse
Version:Hard.
Source:あなたに恋する恋愛ルセット
Tags:yuikonnu ゆいこんぬ Meis Clauson anata ni koisuru ren'ai recette visual novel eroge opening full version
BeatmapID:1324223
BeatmapSetID:627354

[Difficulty]
HPDrainRate:5
CircleSize:3.8
OverallDifficulty:6.5
ApproachRate:7.2
SliderMultiplier:1.4
SliderTickRate:1

[Events]
//Background and Video events
0,0,"bg03.jpg",0,0
//Break Periods
2,161353,166686
//Storyboard Layer 0 (Background)
//Storyboard Layer 1 (Fail)
//Storyboard Layer 2 (Pass)
//Storyboard Layer 3 (Foreground)
//Storyboard Sound Samples

[TimingPoints]
20,333.333333333333,4,2,43,20,1,0
1019,-166.666666666667,4,2,43,20,0,0
1353,-166.666666666667,4,2,43,30,0,0
11936,-166.666666666667,4,2,99,5,0,0
12019,-166.666666666667,4,2,43,32,0,0
16019,-166.666666666667,4,2,43,35,0,0
16853,-166.666666666667,4,2,43,38,0,0
17353,-166.666666666667,4,2,43,40,0,0
17436,-166.666666666667,4,2,43,10,0,0
18353,-125,4,2,99,40,0,0
18686,-100,4,2,1,60,0,0
20269,-100,4,2,99,5,0,0
20353,-100,4,2,1,60,0,0
22936,-100,4,2,99,5,0,0
23019,-100,4,2,1,60,0,0
28853,-100,4,2,56,55,0,0
29019,-100,4,2,56,50,0,0
29186,-100,4,2,56,45,0,0
29353,-142.857142857143,4,2,25,45,0,0
38686,-142.857142857143,4,2,1,55,0,0
39186,-142.857142857143,4,2,1,58,0,0
39353,-142.857142857143,4,2,1,30,0,0
39519,-142.857142857143,4,2,1,55,0,0
39686,-142.857142857143,4,2,1,50,0,0
40019,-117.647058823529,4,2,1,50,0,0
49853,-117.647058823529,4,2,56,50,0,0
50353,-117.647058823529,4,2,1,50,0,0
50686,-142.857142857143,4,2,1,53,0,0
55186,-142.857142857143,4,2,1,43,0,0
55269,-142.857142857143,4,2,1,48,0,0
55353,-142.857142857143,4,2,1,53,0,0
55686,-142.857142857143,4,2,56,50,0,0
55853,-142.857142857143,4,2,56,47,0,0
56019,-111.111111111111,4,2,1,55,0,0
56269,-111.111111111111,4,2,99,5,0,0
56353,-111.111111111111,4,2,1,55,0,0
57603,-111.111111111111,4,2,99,5,0,0
57687,-111.111111111111,4,2,1,55,0,0
58686,-111.111111111111,4,2,1,57,0,0
59186,-111.111111111111,4,2,1,58,0,0
59519,-111.111111111111,4,2,1,59,0,0
59853,-111.111111111111,4,2,1,60,0,0
60186,-111.111111111111,4,2,1,61,0,0
60353,-111.111111111111,4,2,1,62,0,0
60686,-99.9999999999999,4,2,99,40,0,0
61019,-99.9999999999999,4,2,99,50,0,0
61061,-99.9999999999999,4,2,99,30,0,0
61103,-99.9999999999999,4,2,99,50,0,0
61144,-99.9999999999999,4,2,99,30,0,0
61186,-99.9999999999999,4,2,99,50,0,0
61228,-99.9999999999999,4,2,99,30,0,0
61269,-99.9999999999999,4,2,99,50,0,0
61311,-99.9999999999999,4,2,99,30,0,0
61353,-90.9090909090909,4,2,1,65,0,1
61603,-90.9090909090909,4,2,99,5,0,1
61686,-90.9090909090909,4,2,1,65,0,1
64269,-90.9090909090909,4,2,99,5,0,1
64352,-90.9090909090909,4,2,1,65,0,1
65603,-90.9090909090909,4,2,99,5,0,1
65686,-90.9090909090909,4,2,1,65,0,1
68269,-90.9090909090909,4,2,99,5,0,1
68353,-90.9090909090909,4,2,1,65,0,1
69353,-90.9090909090909,4,2,1,66,0,1
69686,-90.9090909090909,4,2,1,67,0,1
70019,-90.9090909090909,4,2,1,40,0,1
70186,-90.9090909090909,4,2,1,68,0,1
70519,-90.9090909090909,4,2,1,69,0,1
70853,-90.9090909090909,4,2,1,66,0,1
71186,-90.9090909090909,4,2,1,70,0,1
71686,-90.9090909090909,4,2,1,60,0,0
72019,-90.9090909090909,4,2,1,65,0,1
72269,-90.9090909090909,4,2,99,5,0,1
72353,-90.9090909090909,4,2,1,65,0,1
74936,-90.9090909090909,4,2,99,5,0,1
75019,-90.9090909090909,4,2,1,65,0,1
76269,-90.9090909090909,4,2,99,5,0,1
76353,-90.9090909090909,4,2,1,65,0,1
78936,-90.9090909090909,4,2,99,5,0,1
79019,-90.9090909090909,4,2,1,65,0,1
81603,-90.9090909090909,4,2,99,5,0,1
81686,-90.9090909090909,4,2,1,65,0,1
82353,-90.9090909090909,4,2,1,60,0,0
82686,-90.9090909090909,4,2,1,65,0,1
85186,-90.9090909090909,4,2,1,65,0,1
85353,-90.9090909090909,4,2,1,67,0,1
86019,-90.9090909090909,4,2,1,57,0,1
86103,-90.9090909090909,4,2,1,47,0,1
86353,-90.9090909090909,4,2,1,63,0,1
86686,-90.9090909090909,4,2,1,65,0,1
87519,-90.9090909090909,4,2,1,62,0,1
87686,-90.9090909090909,4,2,1,60,0,1
88019,-100,4,2,78,60,0,0
88103,-100,4,2,1,60,0,0
89353,-100,4,2,1,60,0,0
89603,-100,4,2,99,5,0,0
89686,-100,4,2,1,60,0,0
90353,-100,4,2,1,60,0,0
90686,-100,4,2,1,60,0,0
92269,-100,4,2,99,5,0,0
92353,-100,4,2,1,60,0,0
98186,-100,4,2,1,50,0,0
98269,-100,4,2,1,52,0,0
98353,-100,4,2,1,54,0,0
98436,-100,4,2,1,56,0,0
98519,-100,4,2,1,56,0,0
98603,-100,4,2,1,60,0,0
98686,-125,4,2,1,48,0,0
108019,-125,4,2,1,55,0,0
108519,-125,4,2,1,58,0,0
108686,-125,4,2,1,30,0,0
108853,-125,4,2,1,55,0,0
109019,-125,4,2,1,50,0,0
109353,-117.647058823529,4,2,1,50,0,0
119186,-117.647058823529,4,2,56,50,0,0
119686,-117.647058823529,4,2,1,50,0,0
120019,-142.857142857143,4,2,1,53,0,0
124519,-142.857142857143,4,2,1,43,0,0
124603,-142.857142857143,4,2,1,48,0,0
124686,-142.857142857143,4,2,1,53,0,0
125019,-142.857142857143,4,2,56,50,0,0
125186,-142.857142857143,4,2,56,47,0,0
125353,-111.111111111111,4,2,1,55,0,0
125603,-111.111111111111,4,2,99,5,0,0
125686,-111.111111111111,4,2,1,55,0,0
126936,-111.111111111111,4,2,99,5,0,0
127019,-111.111111111111,4,2,1,55,0,0
128019,-111.111111111111,4,2,1,57,0,0
128519,-111.111111111111,4,2,1,58,0,0
128853,-111.111111111111,4,2,1,59,0,0
129186,-111.111111111111,4,2,1,60,0,0
129519,-111.111111111111,4,2,1,61,0,0
129686,-111.111111111111,4,2,1,62,0,0
130019,-99.9999999999999,4,2,99,40,0,0
130353,-99.9999999999999,4,2,99,50,0,0
130394,-99.9999999999999,4,2,99,30,0,0
130436,-99.9999999999999,4,2,99,50,0,0
130478,-99.9999999999999,4,2,99,30,0,0
130519,-99.9999999999999,4,2,99,50,0,0
130561,-99.9999999999999,4,2,99,30,0,0
130603,-99.9999999999999,4,2,99,50,0,0
130644,-99.9999999999999,4,2,99,30,0,0
130686,-90.9090909090909,4,2,1,65,0,1
130936,-90.9090909090909,4,2,99,5,0,1
131019,-90.9090909090909,4,2,1,65,0,1
133603,-90.9090909090909,4,2,99,5,0,1
133686,-90.9090909090909,4,2,1,65,0,1
134936,-90.9090909090909,4,2,99,5,0,1
135019,-90.9090909090909,4,2,1,65,0,1
137603,-90.9090909090909,4,2,99,5,0,1
137686,-90.9090909090909,4,2,1,65,0,1
138686,-90.9090909090909,4,2,1,66,0,1
139019,-90.9090909090909,4,2,1,67,0,1
139353,-90.9090909090909,4,2,1,40,0,1
139519,-90.9090909090909,4,2,1,68,0,1
139853,-90.9090909090909,4,2,1,69,0,1
140186,-90.9090909090909,4,2,1,66,0,1
140519,-90.9090909090909,4,2,1,70,0,1
141019,-90.9090909090909,4,2,1,60,0,0
141353,-90.9090909090909,4,2,1,65,0,1
141603,-90.9090909090909,4,2,99,5,0,1
141686,-90.9090909090909,4,2,1,65,0,1
144269,-90.9090909090909,4,2,99,5,0,1
144353,-90.9090909090909,4,2,1,65,0,1
145603,-90.9090909090909,4,2,99,5,0,1
145686,-90.9090909090909,4,2,1,65,0,1
148269,-90.9090909090909,4,2,99,5,0,1
148353,-90.9090909090909,4,2,1,65,0,1
150936,-90.9090909090909,4,2,99,5,0,1
151019,-90.9090909090909,4,2,1,65,0,1
151686,-90.9090909090909,4,2,1,60,0,0
152019,-90.9090909090909,4,2,1,65,0,1
154519,-90.9090909090909,4,2,1,65,0,1
154686,-90.9090909090909,4,2,1,67,0,1
155353,-90.9090909090909,4,2,1,57,0,1
155436,-90.9090909090909,4,2,1,47,0,1
155686,-90.9090909090909,4,2,1,63,0,1
156019,-90.9090909090909,4,2,1,65,0,1
156853,-90.9090909090909,4,2,1,62,0,1
157019,-90.9090909090909,4,2,1,60,0,1
157186,-90.9090909090909,4,2,1,40,0,1
157353,-153.846153846154,4,2,43,56,0,0
157436,-125,4,2,43,10,0,0
160019,-125,4,2,62,30,0,0
167853,-125,4,2,62,28,0,0
168019,-200,4,2,62,32,0,0
178686,-166.666666666667,4,2,62,35,0,0
184019,-142.857142857143,4,2,62,37,0,0
189353,-125,4,2,62,40,0,0
189519,-125,4,2,62,41,0,0
189686,-125,4,2,62,42,0,0
189853,-125,4,2,62,43,0,0
190019,-125,4,2,62,44,0,0
190186,-125,4,2,62,45,0,0
190353,-125,4,2,62,46,0,0
190519,-125,4,2,62,48,0,0
190686,-125,4,2,62,50,0,0
190853,-125,4,2,62,52,0,0
191019,-125,4,2,62,54,0,0
191186,-125,4,2,62,56,0,0
191353,-125,4,2,99,58,0,0
191519,-125,4,2,99,60,0,0
191686,-125,4,2,99,62,0,0
191853,-125,4,2,99,64,0,0
192686,-100,4,2,99,40,0,0
193019,-100,4,2,99,50,0,0
193061,-100,4,2,99,30,0,0
193103,-100,4,2,99,50,0,0
193144,-100,4,2,99,30,0,0
193186,-100,4,2,99,50,0,0
193228,-100,4,2,99,30,0,0
193269,-100,4,2,99,50,0,0
193311,-100,4,2,99,30,0,0
193353,-90.9090909090909,4,2,1,65,0,1
193603,-90.9090909090909,4,2,99,5,0,1
193686,-90.9090909090909,4,2,1,65,0,1
196269,-90.9090909090909,4,2,99,5,0,1
196353,-90.9090909090909,4,2,1,65,0,1
197603,-90.9090909090909,4,2,99,5,0,1
197686,-90.9090909090909,4,2,1,65,0,1
200269,-90.9090909090909,4,2,99,5,0,1
200353,-90.9090909090909,4,2,1,65,0,1
201353,-90.9090909090909,4,2,1,66,0,1
201686,-90.9090909090909,4,2,1,67,0,1
202019,-90.9090909090909,4,2,1,40,0,1
202186,-90.9090909090909,4,2,1,68,0,1
202519,-90.9090909090909,4,2,1,69,0,1
202853,-90.9090909090909,4,2,1,66,0,1
203186,-90.9090909090909,4,2,1,70,0,1
203686,-90.9090909090909,4,2,1,60,0,0
204019,-90.9090909090909,4,2,1,65,0,1
204269,-90.9090909090909,4,2,99,5,0,1
204353,-90.9090909090909,4,2,1,65,0,1
206936,-90.9090909090909,4,2,99,5,0,1
207019,-90.9090909090909,4,2,1,65,0,1
208269,-90.9090909090909,4,2,99,5,0,1
208353,-90.9090909090909,4,2,1,65,0,1
210936,-90.9090909090909,4,2,99,5,0,1
211019,-90.9090909090909,4,2,1,65,0,1
213603,-90.9090909090909,4,2,99,5,0,1
213686,-90.9090909090909,4,2,1,65,0,1
214353,-90.9090909090909,4,2,1,60,0,0
214686,-90.9090909090909,4,2,1,65,0,1
217186,-90.9090909090909,4,2,1,65,0,1
217353,-90.9090909090909,4,2,1,67,0,1
218019,-90.9090909090909,4,2,1,57,0,1
218103,-90.9090909090909,4,2,1,47,0,1
218353,-90.9090909090909,4,2,1,63,0,1
218686,-90.9090909090909,4,2,1,65,0,1
219519,-90.9090909090909,4,2,1,62,0,1
219686,-90.9090909090909,4,2,1,60,0,1
220019,-100,4,2,78,60,0,0
220186,-100,4,2,1,60,0,0
221603,-100,4,2,99,5,0,0
221686,-100,4,2,1,60,0,0
224269,-100,4,2,99,5,0,0
224353,-100,4,2,1,60,0,0
230353,-100,4,2,56,60,0,0
230686,-100,4,2,1,60,0,0
232269,-100,4,2,99,5,0,0
232353,-100,4,2,1,60,0,0
234936,-100,4,2,99,5,0,0
235019,-100,4,2,1,60,0,0
240853,-100,4,2,1,50,0,0
241019,-100,4,2,1,60,0,0
241103,-100,4,2,1,61,0,0
241186,-100,4,2,1,62,0,0
241269,-100,4,2,1,63,0,0
241353,-100,4,2,1,60,0,0
241436,-100,4,2,1,30,0,0
242019,-100,4,2,1,20,0,0
242686,-100,4,2,1,10,0,0
243353,-100,4,2,1,5,0,0
243978,-100,4,2,99,30,0,0

[Colours]
Combo1 : 110,200,150
Combo2 : 240,100,130
Combo3 : 120,150,200
Combo4 : 250,120,180

[HitObjects]
83,327,1019,5,2,0:0:0:0:
83,327,1353,5,2,0:1:0:0:
143,246,1686,1,2,0:0:0:0:
143,246,1853,2,0,P|194:244|240:255,1,83.9999974365235,2|2,0:0|0:0,0:0:0:0:
353,331,2686,5,2,0:1:0:0:
353,331,3353,2,0,L|359:237,1,83.9999974365235,2|2,0:0|0:0,0:0:0:0:
433,179,4019,5,2,0:1:0:0:
397,90,4353,1,2,0:0:0:0:
397,90,4519,2,0,P|356:77|315:75,1,83.9999974365235,2|2,0:0|0:0,0:0:0:0:
224,121,5186,5,2,0:0:0:0:
224,121,5353,2,0,P|182:122|140:114,1,83.9999974365235,2|2,0:1|0:0,0:0:0:0:
85,63,5853,1,2,0:0:0:0:
85,63,6019,2,0,P|64:59|42:58,1,41.9999987182618,2|2,0:1|0:2,0:0:0:0:
9,205,6686,6,0,B|2:278|42:335|42:335|63:323|101:276,1,209.999993591309,2|2,0:1|0:1,0:0:0:0:
131,213,7686,1,2,0:0:0:0:
229,148,8019,5,2,0:1:0:0:
282,259,8353,1,2,0:0:0:0:
282,259,8519,2,0,P|322:270|364:272,1,83.9999974365235,2|2,0:0|0:0,0:0:0:0:
487,184,9353,6,0,B|447:155|390:170|390:170|332:162|312:103,1,209.999993591309,2|2,0:1|0:1,0:0:0:0:
305,23,10353,1,2,0:2:0:0:
187,12,10686,5,2,0:1:0:0:
115,104,11019,1,2,0:0:0:0:
115,104,11186,1,2,0:0:0:0:
166,215,11519,1,2,0:0:0:0:
166,215,11686,1,2,0:1:0:0:
282,226,12019,6,0,P|305:227|333:233,3,41.9999987182618,2|2|2|2,0:1|0:0|0:1|0:0,0:0:0:0:
385,274,12686,2,0,P|383:307|379:362,1,83.9999974365235,2|2,0:1|0:0,0:0:0:0:
227,353,13353,6,0,P|199:346|172:342,1,41.9999987182618,2|2,0:1|0:0,0:0:0:0:
111,359,13686,1,2,0:1:0:0:
111,359,13853,2,0,L|107:302,1,41.9999987182618,2|2,0:0|0:1,0:0:0:0:
64,255,14186,2,0,L|68:198,1,41.9999987182618,2|2,0:0|0:1,0:0:0:0:
59,61,14686,6,0,P|36:56|17:57,2,41.9999987182618,2|2|2,0:1|0:0|0:0,0:0:0:0:
130,101,15186,1,2,0:0:0:0:
130,101,15353,2,0,P|153:106|172:105,1,41.9999987182618,2|2,0:1|0:0,0:0:0:0:
241,75,15686,2,0,P|261:74|282:79,1,41.9999987182618,2|2,0:1|0:0,0:0:0:0:
345,120,16019,5,10,0:2:0:0:
476,44,16353,1,2,0:1:0:0:
476,44,16519,1,2,0:1:0:0:
476,195,16853,1,2,0:1:0:0:
476,195,17353,6,0,B|465:225|480:265|480:265|477:302|460:334|420:347|385:324,1,209.999993591309,10|0,0:1|0:0,0:0:0:0:
315,273,18353,6,0,P|293:269|265:267,3,28,10|2|2|2,0:1|0:0|0:0|0:0,0:0:0:0:
260,290,18686,6,0,P|183:312|123:278,1,140,6|8,0:0|0:0,0:0:0:0:
93,94,19353,1,10,0:3:0:0:
93,94,19519,1,8,0:3:0:0:
190,117,19686,2,0,P|195:151|196:186,1,70,8|0,0:0|0:0,0:0:0:0:
132,287,20019,6,0,P|65:263|-7:263,1,140,10|8,0:3|0:0,0:0:0:0:
97,98,20686,1,10,0:3:0:0:
97,98,20853,1,8,0:3:0:0:
190,117,21019,2,0,P|225:117|262:108,1,70,8|0,0:0|0:0,0:0:0:0:
362,47,21353,6,0,B|390:31|427:39|427:39|459:62|503:55,2,140,10|8|8,0:3|0:0|0:3,0:0:0:0:
240,201,22353,1,10,0:0:0:0:
190,117,22519,1,2,0:0:0:0:
143,202,22686,6,0,P|76:216|18:179,1,140,10|8,0:3|0:0,0:0:0:0:
34,84,23186,2,0,P|67:96|92:120,1,70,2|8,0:0|0:3,0:0:0:0:
143,203,23519,2,0,L|131:274,2,70,10|8|0,0:3|0:0|0:0,0:0:0:0:
242,134,24019,6,0,B|281:117|321:139|321:139|355:142|380:122,2,140,6|8|8,0:2|0:0|0:3,0:0:0:0:
131,272,25019,2,0,P|94:271|49:255,1,70,10|0,0:0|0:0,0:0:0:0:
16,150,25353,6,0,L|12:69,1,70,10|0,0:3|0:0,0:0:0:0:
82,10,25686,1,8,0:0:0:0:
171,49,25853,2,0,P|205:48|239:38,1,70,2|8,0:0|0:3,0:0:0:0:
334,63,26186,2,0,P|368:63|402:73,2,70,10|8|0,0:3|0:0|0:0,0:0:0:0:
242,140,26686,6,0,P|237:184|231:282,2,140,10|8|8,0:3|0:0|0:3,0:0:0:0:
402,73,27686,1,10,0:0:0:0:
478,134,27853,1,2,0:0:0:0:
387,169,28019,6,0,L|375:237,1,70,10|8,0:3|0:0,0:0:0:0:
398,333,28353,1,10,0:0:0:0:
304,304,28519,2,0,L|256:305,2,35,10|8|8,0:3|0:3|0:3,0:0:0:0:
375,238,28853,2,0,P|410:237|457:256,2,70,10|4|4,0:3|0:3|0:3,0:0:0:0:
269,304,29353,5,6,0:0:0:0:
137,218,29686,1,10,0:0:0:0:
137,218,29853,2,0,L|130:165,1,48.9999985046387,2|8,0:0|0:0,0:0:0:0:
81,108,30186,1,10,0:3:0:0:
81,108,30353,2,0,P|45:102|26:102,2,48.9999985046387,10|10|8,0:0|0:3|0:0,0:0:0:0:
216,186,31019,5,8,0:0:0:0:
216,186,31353,2,0,P|239:190|264:192,1,48.9999985046387,10|8,0:0|0:3,0:0:0:0:
326,144,31686,2,0,L|336:75,1,48.9999985046387,10|8,0:0|0:3,0:0:0:0:
390,42,32019,5,10,0:0:0:0:
497,156,32353,1,10,0:0:0:0:
497,156,32519,2,0,L|487:225,1,48.9999985046387,2|8,0:0|0:0,0:0:0:0:
482,283,32853,1,10,0:3:0:0:
482,283,33019,2,0,L|492:352,2,48.9999985046387,10|10|8,0:0|0:3|0:0,0:0:0:0:
399,149,33686,6,0,P|376:137|354:127,1,48.9999985046387,10|8,0:0|0:3,0:0:0:0:
277,117,34019,2,0,P|251:118|227:120,1,48.9999985046387,10|8,0:0|0:3,0:0:0:0:
154,150,34353,2,0,P|132:163|112:176,1,48.9999985046387,10|8,0:0|0:3,0:0:0:0:
91,252,34686,6,0,L|77:348,1,97.9999970092774,10|8,0:0|0:0,0:0:0:0:
219,284,35353,2,0,P|241:277|279:275,1,48.9999985046387,8|8,0:0|0:3,0:0:0:0:
341,314,35686,1,10,0:0:0:0:
341,314,35853,2,0,P|363:321|401:323,1,48.9999985046387,10|8,0:3|0:0,0:0:0:0:
450,275,36186,6,0,L|457:217,1,48.9999985046387,2|10,0:0|0:0,0:0:0:0:
427,153,36519,2,0,L|434:95,2,48.9999985046387,10|8|10,0:3|0:0|0:3,0:0:0:0:
352,177,37019,1,10,0:0:0:0:
352,177,37186,2,0,P|326:174|303:167,1,48.9999985046387,10|8,0:3|0:3,0:0:0:0:
205,42,37686,5,10,0:0:0:0:
205,42,37853,2,0,P|181:35|157:32,1,48.9999985046387,2|8,0:0|0:0,0:0:0:0:
82,75,38186,2,0,L|10:73,2,48.9999985046387,10|10|10,0:3|0:0|0:3,0:0:0:0:
163,135,38686,5,6,0:0:0:0:
75,179,38853,2,0,P|68:216|67:247,1,48.9999985046387,10|8,0:3|0:0,0:0:0:0:
102,318,39186,2,0,P|130:342|156:358,1,48.9999985046387,12|0,0:0|0:0,0:0:0:0:
235,364,39519,2,0,P|270:351|297:336,1,48.9999985046387,10|8,0:3|0:0,0:0:0:0:
341,271,39853,1,8,0:0:0:0:
347,260,39936,1,8,0:0:0:0:
353,249,40019,6,0,L|361:122,1,119.000002269745,6|10,0:0|0:0,0:0:0:0:
377,42,40519,2,0,P|403:29|432:26,1,59.5000011348725,2|8,0:0|0:3,0:0:0:0:
504,90,40853,1,10,0:3:0:0:
504,90,41019,2,0,L|509:160,1,59.5000011348725,10|2,0:0|0:0,0:0:0:0:
463,244,41353,6,0,B|454:275|454:275|467:323|444:364,1,119.000002269745,8|8,0:3|0:0,0:0:0:0:
279,298,42019,2,0,L|271:217,1,59.5000011348725,10|8,0:3|0:3,0:0:0:0:
224,163,42353,2,0,P|200:155|158:154,1,59.5000011348725,10|0,0:0|0:0,0:0:0:0:
72,186,42686,6,0,P|129:196|166:153,1,119.000002269745,10|10,0:3|0:0,0:0:0:0:
125,73,43186,2,0,L|112:0,1,59.5000011348725,2|8,0:0|0:3,0:0:0:0:
28,37,43519,1,10,0:3:0:0:
28,37,43686,2,0,L|15:110,1,59.5000011348725,10|2,0:0|0:0,0:0:0:0:
72,186,44019,6,0,L|85:259,1,59.5000011348725,8|0,0:3|0:0,0:0:0:0:
159,302,44353,2,0,P|189:298|225:284,1,59.5000011348725,10|0,0:0|0:0,0:0:0:0:
273,358,44686,2,0,P|291:333|308:298,1,59.5000011348725,10|8,0:3|0:3,0:0:0:0:
395,316,45019,2,0,P|391:285|377:248,1,59.5000011348725,10|0,0:0|0:0,0:0:0:0:
292,197,45353,6,0,B|168:183,1,119.000002269745,6|8,0:0|0:0,0:0:0:0:
10,95,46019,2,0,P|38:84|72:80,1,59.5000011348725,8|0,0:3|0:0,0:0:0:0:
156,85,46353,1,10,0:0:0:0:
155,84,46519,2,0,P|183:95|213:99,1,59.5000011348725,2|8,0:0|0:3,0:0:0:0:
299,73,46853,5,2,0:0:0:0:
299,73,47019,1,10,0:0:0:0:
299,73,47186,2,0,L|303:157,1,59.5000011348725,2|8,0:0|0:3,0:0:0:0:
353,205,47519,1,10,0:3:0:0:
353,205,47686,1,10,0:0:0:0:
353,205,47853,2,0,L|357:289,1,59.5000011348725,2|8,0:0|0:3,0:0:0:0:
470,137,48353,5,10,0:0:0:0:
470,137,48519,2,0,P|434:137|402:147,1,59.5000011348725,2|8,0:0|0:3,0:0:0:0:
360,212,48853,1,10,0:3:0:0:
360,212,49019,1,10,0:0:0:0:
360,212,49186,2,0,P|331:218|301:217,1,59.5000011348725,2|10,0:0|0:3,0:0:0:0:
170,47,49686,5,12,0:0:0:0:
170,47,49853,1,8,0:3:0:0:
102,103,50019,1,4,0:3:0:0:
102,103,50186,1,8,0:3:0:0:
110,192,50353,2,0,L|116:257,1,59.5000011348725,8|10,0:3|0:3,0:0:0:0:
33,290,50686,6,0,P|68:256|115:251,1,97.9999970092774,6|10,0:0|0:3,0:0:0:0:
188,291,51186,2,0,P|209:297|258:301,1,48.9999985046387,2|8,0:0|0:0,0:0:0:0:
317,316,51519,2,0,P|338:310|387:306,1,48.9999985046387,2|8,0:0|0:3,0:0:0:0:
450,333,51853,5,10,0:3:0:0:
450,333,52019,2,0,L|453:278,1,48.9999985046387,2|8,0:0|0:0,0:0:0:0:
479,207,52353,1,10,0:3:0:0:
479,207,52519,2,0,L|476:152,1,48.9999985046387,2|8,0:0|0:0,0:0:0:0:
444,80,52853,2,0,L|447:25,1,48.9999985046387,2|8,0:0|0:3,0:0:0:0:
322,142,53353,6,0,P|273:143|224:125,1,97.9999970092774,10|8,0:3|0:3,0:0:0:0:
159,78,53853,2,0,P|134:76|108:77,1,48.9999985046387,2|8,0:0|0:0,0:0:0:0:
53,138,54186,2,0,L|50:193,1,48.9999985046387,2|8,0:3|0:3,0:0:0:0:
165,308,54686,6,0,L|162:363,2,48.9999985046387,2|8|8,0:0|0:0|0:3,0:0:0:0:
229,246,55186,1,8,0:2:0:0:
240,240,55269,1,8,0:2:0:0:
252,235,55353,2,0,P|279:237|307:245,1,48.9999985046387,10|8,0:3|0:0,0:0:0:0:
375,200,55686,2,0,P|380:176|382:151,1,48.9999985046387,4|8,0:3|0:3,0:0:0:0:
363,47,56019,6,0,P|344:104|382:151,1,125.999996154785,6|10,0:0|0:0,0:0:0:0:
451,215,56519,2,0,P|453:253|444:284,1,62.9999980773926,2|8,0:0|0:3,0:0:0:0:
360,316,56853,2,0,L|271:309,2,62.9999980773926,10|8|0,0:3|0:0|0:0,0:0:0:0:
467,380,57353,6,0,B|488:349|483:303|483:303|440:272,1,125.999996154785,10|8,0:3|2:0,0:0:0:0:
261,234,58019,2,0,P|230:241|199:247,1,62.9999980773926,10|8,0:3|0:3,0:0:0:0:
104,250,58353,2,0,P|73:244|42:236,1,62.9999980773926,10|0,2:0|0:0,0:0:0:0:
9,131,58686,6,0,L|3:61,2,62.9999980773926,14|8|8,0:2|0:3|0:3,0:0:0:0:
42,236,59186,1,10,0:3:0:0:
117,154,59353,2,0,P|148:145|190:147,1,62.9999980773926,10|10,0:3|0:3,0:0:0:0:
261,234,59686,5,10,0:0:0:0:
298,118,59853,1,10,0:3:0:0:
368,296,60186,5,10,0:0:0:0:
261,234,60353,1,10,0:0:0:0:
87,353,60686,6,0,L|83:309,3,35,2|2|2|2,0:0|0:0|0:0|0:0,0:0:0:0:
62,276,61019,2,0,L|66:232,3,35,2|2|2|2,0:0|0:0|0:0|0:0,0:0:0:0:
44,199,61353,6,0,L|28:22,1,154.000004699707,6|10,0:0|0:0,0:0:0:0:
133,92,61853,2,0,P|169:92|227:74,1,77.0000023498536,2|8,0:0|0:3,0:0:0:0:
316,44,62186,1,10,0:3:0:0:
316,44,62353,2,0,P|352:44|410:62,1,77.0000023498536,8|0,0:0|0:0,0:0:0:0:
394,192,62686,6,0,P|364:119|396:49,1,154.000004699707,10|8,0:3|0:0,0:0:0:0:
485,251,63353,1,10,0:3:0:0:
485,251,63519,1,10,0:3:0:0:
394,192,63686,2,0,P|344:189|305:199,1,77.0000023498536,10|0,0:0|0:0,0:0:0:0:
360,335,64019,6,0,B|380:285|380:285|370:237|370:237|395:190,1,154.000004699707,10|10,0:3|0:0,0:0:0:0:
458,105,64519,1,2,0:3:0:0:
458,105,64686,2,0,L|476:14,2,77.0000023498536,8|8|8,0:3|0:3|0:0,0:0:0:0:
394,191,65186,5,2,0:0:0:0:
352,93,65353,2,0,P|315:56|208:63,1,154.000004699707,10|10,0:3|0:0,0:0:0:0:
166,150,65853,2,0,P|139:153|72:127,1,77.0000023498536,2|8,0:0|0:3,0:0:0:0:
144,47,66186,1,10,0:3:0:0:
144,47,66353,2,0,P|171:44|238:70,1,77.0000023498536,8|0,0:0|0:0,0:0:0:0:
352,93,66686,6,0,B|405:106|449:77|449:77|471:90|513:97,2,154.000004699707,6|8|8,0:0|0:0|0:3,0:0:0:0:
143,47,67686,2,0,P|182:44|218:56,1,77.0000023498536,10|0,0:0|0:0,0:0:0:0:
352,93,68019,6,0,P|285:104|211:41,1,154.000004699707,10|10,0:3|0:0,0:0:0:0:
169,152,68519,2,0,L|160:245,1,77.0000023498536,2|8,0:0|0:3,0:0:0:0:
94,314,68853,1,10,0:3:0:0:
94,314,69019,2,0,P|45:313|3:288,1,77.0000023498536,8|0,0:0|0:0,0:0:0:0:
161,228,69353,6,0,P|199:226|234:240,1,77.0000023498536,6|8,0:0|0:3,0:0:0:0:
314,334,69686,1,10,0:0:0:0:
387,234,69853,2,0,L|396:141,1,77.0000023498536,4|0,0:0|0:0,0:0:0:0:
410,38,70186,1,10,0:3:0:0:
410,38,70353,1,10,0:0:0:0:
511,134,70519,6,0,B|481:181|481:181|423:200|394:157,1,154.000004699707,4|8,0:0|0:3,0:0:0:0:
297,83,71019,1,8,0:0:0:0:
174,82,71186,2,0,B|203:34|203:34|261:15|291:59,1,154.000004699707,6|8,0:0|0:0,0:0:0:0:
286,188,71686,2,0,L|279:240,3,38.5000011749268,10|8|8|8,0:0|0:0|0:0|0:0,0:0:0:0:
262,268,72019,6,0,B|223:284|187:258|187:258|137:251|112:295,1,154.000004699707,6|10,0:0|0:0,0:0:0:0:
26,350,72519,2,0,L|18:273,1,77.0000023498536,2|8,0:0|0:3,0:0:0:0:
63,168,72853,1,10,0:3:0:0:
63,168,73019,2,0,L|71:91,1,77.0000023498536,8|0,0:0|0:0,0:0:0:0:
187,22,73353,6,0,P|237:75|319:66,1,154.000004699707,10|8,0:3|0:0,0:0:0:0:
166,255,74019,1,10,0:3:0:0:
166,255,74186,1,10,0:3:0:0:
151,147,74353,2,0,P|189:151|224:165,1,77.0000023498536,10|0,0:0|0:0,0:0:0:0:
292,303,74686,6,0,P|242:250|159:258,1,154.000004699707,10|10,0:3|0:0,0:0:0:0:
80,333,75186,1,2,0:3:0:0:
80,333,75353,2,0,P|42:341|4:340,2,77.0000023498536,8|8|8,0:3|0:3|0:0,0:0:0:0:
165,253,75853,5,2,0:0:0:0:
84,168,76019,2,0,P|73:95|123:39,1,154.000004699707,10|10,0:3|0:0,0:0:0:0:
233,63,76519,2,0,L|318:54,1,77.0000023498536,2|8,0:0|0:3,0:0:0:0:
416,107,76853,1,10,0:3:0:0:
416,107,77019,2,0,L|501:116,1,77.0000023498536,8|0,0:0|0:0,0:0:0:0:
486,256,77353,6,0,B|446:187|446:187|398:253,2,154.000004699707,6|8|8,0:0|0:0|0:3,0:0:0:0:
279,349,78353,2,0,B|239:351|239:351|203:342,1,77.0000023498536,10|0,0:0|0:0,0:0:0:0:
76,293,78686,6,0,B|155:285|155:285|203:342,1,154.000004699707,10|10,0:3|0:0,0:0:0:0:
292,269,79186,2,0,L|306:181,1,77.0000023498536,2|8,0:0|0:3,0:0:0:0:
241,102,79519,1,10,0:3:0:0:
241,102,79686,2,0,L|227:14,1,77.0000023498536,8|0,0:0|0:0,0:0:0:0:
355,107,80019,6,0,P|400:71|506:67,2,154.000004699707,10|8|8,0:3|0:0|0:3,0:0:0:0:
181,260,81019,2,0,P|141:263|96:247,1,77.0000023498536,10|0,0:0|0:0,0:0:0:0:
44,135,81353,6,0,B|85:148|85:148|122:198|106:253,1,154.000004699707,10|10,0:3|0:0,0:0:0:0:
175,344,81853,2,0,P|213:343|249:356,1,77.0000023498536,2|0,0:0|0:0,0:0:0:0:
331,275,82186,1,10,0:3:0:0:
331,275,82353,2,0,P|311:242|304:204,1,77.0000023498536,8|0,0:0|0:0,0:0:0:0:
362,75,82686,5,14,0:0:0:0:
362,75,82853,1,10,0:3:0:0:
439,189,83019,1,10,0:0:0:0:
439,189,83186,1,10,0:3:0:0:
304,204,83353,6,0,L|211:193,1,77.0000023498536,10|10,0:0|0:3,0:0:0:0:
285,65,83686,2,0,L|361:74,1,77.0000023498536,10|10,0:0|0:3,0:0:0:0:
227,194,84019,6,0,L|134:183,1,77.0000023498536,10|0,0:0|0:0,0:0:0:0:
208,55,84353,1,10,0:0:0:0:
208,55,84519,2,0,L|284:64,1,77.0000023498536,10|8,0:3|0:0,0:0:0:0:
151,185,84853,2,0,L|75:176,1,77.0000023498536,10|8,0:3|0:0,0:0:0:0:
1,58,85186,5,8,0:3:0:0:
19,51,85269,1,8,0:3:0:0:
38,48,85353,2,0,P|89:104|70:181,1,154.000004699707,6|8,0:0|0:0,0:0:0:0:
2,275,85853,1,10,0:3:0:0:
102,347,86019,2,0,L|143:347,3,38.5000011749268,10|8|8|8,0:2|0:2|0:2|0:2,0:2:0:0:
183,330,86353,2,0,L|224:330,3,38.5000011749268,10|8|10|8,0:0|0:0|0:0|0:0,0:0:0:0:
265,311,86686,6,0,B|289:297|328:307|328:307|364:338|419:321,1,154.000004699707,14|10,0:0|0:0,0:0:0:0:
494,231,87186,2,0,L|501:135,1,77.0000023498536,6|0,0:0|0:0,0:0:0:0:
432,51,87519,2,0,P|394:33|357:34,2,77.0000023498536,10|10|10,0:3|0:3|0:3,0:0:0:0:
371,173,88019,6,0,L|360:34,1,140,14|8,0:1|0:0,0:0:0:0:
210,160,88686,1,10,0:3:0:0:
210,160,88853,1,8,0:3:0:0:
138,92,89019,2,0,L|143:22,1,70,8|0,0:0|0:0,0:0:0:0:
11,118,89353,6,0,P|70:82|138:92,1,140,10|8,0:3|0:0,0:0:0:0:
239,258,90019,1,10,0:3:0:0:
239,258,90186,1,8,0:3:0:0:
314,194,90353,2,0,L|319:124,1,70,8|0,0:0|0:0,0:0:0:0:
421,61,90686,6,0,P|354:77|295:43,2,140,10|8|8,0:3|0:0|0:3,0:0:0:0:
506,237,91686,1,10,0:0:0:0:
471,326,91853,1,2,0:0:0:0:
411,251,92019,6,0,P|351:217|285:233,1,140,10|8,0:3|0:0,0:0:0:0:
204,289,92519,2,0,L|186:205,1,70,2|8,0:0|0:3,0:0:0:0:
119,150,92853,2,0,P|82:140|26:143,2,70,10|8|0,0:3|0:0|0:0,0:0:0:0:
244,152,93353,6,0,P|289:149|381:86,2,140,6|8|8,0:2|0:0|0:3,0:0:0:0:
50,139,94353,2,0,P|85:140|119:150,1,70,10|0,0:0|0:0,0:0:0:0:
244,152,94686,6,0,P|279:151|313:141,1,70,10|0,0:3|0:0,0:0:0:0:
373,64,95019,1,8,0:0:0:0:
442,133,95186,2,0,L|460:217,1,70,2|8,0:0|0:3,0:0:0:0:
497,290,95519,2,0,L|515:374,2,70,10|8|0,0:3|0:0|0:0,0:0:0:0:
372,244,96019,6,0,P|331:238|220:226,2,140,10|8|8,0:3|0:0|0:3,0:0:0:0:
512,91,97019,1,10,0:0:0:0:
469,1,97186,1,2,0:0:0:0:
399,88,97353,6,0,P|360:86|319:69,1,70,6|8,0:0|0:2,0:0:0:0:
241,7,97686,1,10,0:0:0:0:
148,70,97853,2,0,L|143:150,1,70,10|8,0:3|0:3,0:0:0:0:
93,240,98186,1,10,2:2:0:0:
83,254,98269,1,8,2:2:0:0:
72,269,98353,2,0,P|43:268|16:258,3,35,8|8|8|8,0:0|0:0|0:0|0:0,0:0:0:0:
15,235,98686,6,0,P|15:195|10:116,1,112,6|10,0:0|0:0,0:0:0:0:
51,49,99186,2,0,P|81:42|110:43,1,56,2|8,0:0|0:3,0:0:0:0:
183,52,99519,2,0,P|212:52|241:46,2,56,10|10|2,0:3|0:0|0:0,0:0:0:0:
136,113,100019,6,0,P|136:172|140:231,1,112,10|8,0:3|0:0,0:0:0:0:
254,331,100686,2,0,P|283:325|312:323,1,56,10|8,0:3|0:3,0:0:0:0:
382,294,101019,2,0,P|387:264|389:235,1,56,10|0,0:0|0:0,0:0:0:0:
429,170,101353,5,10,0:3:0:0:
339,48,101686,1,10,0:0:0:0:
339,48,101853,2,0,P|309:45|280:41,1,56,2|8,0:0|0:3,0:0:0:0:
205,50,102186,2,0,P|175:52|146:56,2,56,10|10|2,0:3|0:0|0:0,0:0:0:0:
251,113,102686,5,8,0:3:0:0:
369,215,103019,2,0,P|339:209|309:207,1,56,10|0,0:0|0:0,0:0:0:0:
236,224,103353,2,0,P|207:233|181:246,1,56,10|8,0:3|0:3,0:0:0:0:
124,295,103686,2,0,P|104:317|87:342,1,56,10|0,0:0|0:0,0:0:0:0:
33,261,104019,6,0,P|23:192|12:131,2,112,6|8|8,0:0|0:0|0:3,0:0:0:0:
188,249,105019,1,10,0:0:0:0:
188,249,105186,2,0,P|191:211|198:185,1,56,2|8,0:0|0:3,0:0:0:0:
277,159,105519,5,2,0:0:0:0:
277,159,105686,1,10,0:0:0:0:
277,159,105853,2,0,L|352:150,1,56,2|8,0:0|0:3,0:0:0:0:
382,68,106186,1,10,0:3:0:0:
382,68,106353,1,10,0:0:0:0:
382,68,106519,2,0,L|313:59,1,56,2|8,0:0|0:3,0:0:0:0:
173,26,107019,5,10,0:0:0:0:
173,26,107186,2,0,L|96:16,1,56,2|8,0:0|0:3,0:0:0:0:
61,74,107519,2,0,L|-15:83,2,56,10|10|2,0:3|0:0|0:0,0:0:0:0:
153,118,108019,5,6,0:0:0:0:
72,177,108186,2,0,P|64:203|60:231,1,56,10|8,0:3|0:0,0:0:0:0:
114,313,108519,2,0,P|140:321|168:325,1,56,12|0,0:0|0:0,0:0:0:0:
250,271,108853,2,0,P|258:245|262:217,1,56,10|8,0:3|0:0,0:0:0:0:
254,118,109186,1,8,0:0:0:0:
248,107,109269,1,8,0:0:0:0:
242,96,109353,6,0,B|268:68|268:68|305:46|352:72,1,119.000002269745,6|10,0:0|0:0,0:0:0:0:
392,157,109853,2,0,L|400:230,1,59.5000011348725,2|8,0:0|0:3,0:0:0:0:
482,255,110186,1,10,0:3:0:0:
482,255,110353,2,0,L|490:182,1,59.5000011348725,10|2,0:0|0:0,0:0:0:0:
392,157,110686,6,0,P|334:149|254:143,1,119.000002269745,8|8,0:3|0:0,0:0:0:0:
355,303,111353,2,0,P|328:290|300:279,1,59.5000011348725,10|8,0:3|0:3,0:0:0:0:
211,273,111686,2,0,P|173:276|140:282,1,59.5000011348725,10|0,0:0|0:0,0:0:0:0:
102,372,112019,6,0,P|147:338|151:278,1,119.000002269745,10|10,0:3|0:0,0:0:0:0:
98,207,112519,2,0,P|90:178|92:148,1,59.5000011348725,2|8,0:0|0:3,0:0:0:0:
143,75,112853,1,10,0:3:0:0:
143,75,113019,2,0,L|211:58,1,59.5000011348725,10|2,0:0|0:0,0:0:0:0:
311,60,113353,6,0,L|369:75,1,59.5000011348725,8|0,0:3|0:0,0:0:0:0:
419,148,113686,2,0,P|421:178|413:207,1,59.5000011348725,10|0,0:0|0:0,0:0:0:0:
331,241,114019,2,0,P|311:218|285:204,1,59.5000011348725,10|8,0:3|0:3,0:0:0:0:
201,235,114353,2,0,P|181:257|155:271,1,59.5000011348725,10|0,0:0|0:0,0:0:0:0:
40,277,114686,6,0,P|100:262|164:275,1,119.000002269745,6|8,0:0|0:0,0:0:0:0:
314,354,115353,2,0,P|355:353|379:349,1,59.5000011348725,8|0,0:3|0:0,0:0:0:0:
439,290,115686,1,10,0:0:0:0:
439,290,115853,2,0,L|445:210,1,59.5000011348725,2|8,0:0|0:3,0:0:0:0:
388,167,116186,5,2,0:0:0:0:
388,167,116353,1,10,0:0:0:0:
388,167,116519,2,0,L|382:87,1,59.5000011348725,2|8,0:0|0:3,0:0:0:0:
337,43,116853,1,10,0:3:0:0:
337,43,117019,1,10,0:0:0:0:
337,43,117186,2,0,P|297:36|264:36,1,59.5000011348725,2|8,0:0|0:3,0:0:0:0:
118,110,117686,5,10,0:0:0:0:
118,110,117853,2,0,P|158:103|191:103,1,59.5000011348725,2|8,0:0|0:3,0:0:0:0:
243,178,118186,1,10,0:3:0:0:
243,178,118353,1,10,0:0:0:0:
243,178,118519,2,0,L|249:258,1,59.5000011348725,2|8,0:0|0:3,0:0:0:0:
108,349,119019,5,12,0:0:0:0:
108,349,119186,1,8,0:3:0:0:
51,280,119353,1,4,0:3:0:0:
51,280,119519,1,8,0:3:0:0:
95,197,119686,2,0,L|101:132,1,59.5000011348725,8|10,0:3|0:3,0:0:0:0:
8,148,120019,6,0,P|55:156|105:133,1,97.9999970092774,6|10,0:0|0:3,0:0:0:0:
177,168,120519,2,0,P|203:167|247:178,1,48.9999985046387,2|8,0:0|0:0,0:0:0:0:
299,211,120853,2,0,P|323:214|347:213,1,48.9999985046387,2|8,0:0|0:3,0:0:0:0:
412,161,121186,5,10,0:3:0:0:
412,161,121353,2,0,L|416:104,1,48.9999985046387,2|8,0:0|0:0,0:0:0:0:
493,82,121686,1,10,0:3:0:0:
493,82,121853,2,0,L|496:137,1,48.9999985046387,2|8,0:0|0:0,0:0:0:0:
482,213,122186,2,0,L|479:268,1,48.9999985046387,2|8,0:0|0:3,0:0:0:0:
336,348,122686,6,0,P|332:302|328:247,1,97.9999970092774,10|8,0:3|0:3,0:0:0:0:
358,172,123186,2,0,L|361:117,1,48.9999985046387,2|8,0:0|0:0,0:0:0:0:
306,59,123519,2,0,P|278:51|247:49,1,48.9999985046387,2|8,0:3|0:3,0:0:0:0:
100,108,124019,6,0,L|35:111,2,48.9999985046387,2|8|8,0:0|0:0|0:3,0:0:0:0:
159,173,124519,1,8,0:2:0:0:
165,184,124603,1,8,0:2:0:0:
170,196,124686,2,0,L|160:251,1,48.9999985046387,10|8,0:3|0:0,0:0:0:0:
124,318,125019,2,0,L|131:366,1,48.9999985046387,4|8,0:3|0:3,0:0:0:0:
239,332,125353,6,0,P|284:323|372:327,1,125.999996154785,6|10,0:0|0:0,0:0:0:0:
448,367,125853,2,0,L|455:288,1,62.9999980773926,2|8,0:0|0:3,0:0:0:0:
417,216,126186,2,0,L|424:137,2,62.9999980773926,10|8|0,0:3|0:0|0:0,0:0:0:0:
363,325,126686,6,0,P|301:335|238:331,1,125.999996154785,10|8,0:3|2:0,0:0:0:0:
74,236,127353,2,0,L|67:157,1,62.9999980773926,10|8,0:3|0:3,0:0:0:0:
122,95,127686,2,0,L|129:16,1,62.9999980773926,10|0,2:0|0:0,0:0:0:0:
227,80,128019,6,0,P|259:69|300:62,2,62.9999980773926,14|8|8,0:2|0:3|0:3,0:0:0:0:
188,179,128519,1,10,0:3:0:0:
122,95,128686,2,0,P|88:89|46:89,1,62.9999980773926,10|10,0:3|0:3,0:0:0:0:
74,236,129019,5,10,0:0:0:0:
188,179,129186,1,10,0:3:0:0:
93,363,129519,5,10,0:0:0:0:
74,236,129686,1,10,0:0:0:0:
256,338,130019,6,0,L|300:340,3,35,10|10|10|10,0:2|0:3|0:3|0:3,0:0:0:0:
335,323,130353,2,0,L|378:332,3,35,2|2|2|2,0:0|0:0|0:0|0:0,0:0:0:0:
414,313,130686,6,0,P|446:245|436:170,1,154.000004699707,6|10,0:0|0:0,0:0:0:0:
344,110,131186,2,0,P|308:110|250:92,1,77.0000023498536,2|8,0:0|0:3,0:0:0:0:
163,125,131519,1,10,0:3:0:0:
163,125,131686,2,0,P|127:125|69:143,1,77.0000023498536,8|0,0:0|0:0,0:0:0:0:
141,265,132019,6,0,B|170:229|170:229|188:167|159:118,1,154.000004699707,10|8,0:3|0:0,0:0:0:0:
36,336,132686,1,10,0:3:0:0:
36,336,132853,1,10,0:3:0:0:
11,215,133019,2,0,L|2:116,1,77.0000023498536,10|0,0:0|0:0,0:0:0:0:
102,32,133353,6,0,P|172:39|276:42,1,154.000004699707,10|10,0:3|0:0,0:0:0:0:
317,140,133853,1,2,0:3:0:0:
317,140,134019,2,0,P|276:130|225:124,2,77.0000023498536,8|8|8,0:3|0:3|0:0,0:0:0:0:
381,226,134519,5,2,0:0:0:0:
476,174,134686,2,0,B|477:142|483:118|483:118|472:84|472:84|482:52|482:13,1,154.000004699707,10|10,0:3|0:0,0:0:0:0:
371,40,135186,2,0,P|333:30|295:25,1,77.0000023498536,2|8,0:0|0:3,0:0:0:0:
241,125,135519,1,10,0:3:0:0:
241,125,135686,2,0,P|204:134|166:139,1,77.0000023498536,8|0,0:0|0:0,0:0:0:0:
56,50,136019,6,0,B|85:24|128:32|128:32|166:53|202:41,2,154.000004699707,6|8|8,0:0|0:0|0:3,0:0:0:0:
25,263,137019,2,0,P|62:254|100:249,1,77.0000023498536,10|0,0:0|0:0,0:0:0:0:
219,307,137353,6,0,P|146:308|99:223,1,154.000004699707,10|10,0:3|0:0,0:0:0:0:
158,157,137853,2,0,P|167:119|172:81,1,77.0000023498536,2|8,0:0|0:3,0:0:0:0:
74,34,138186,1,10,0:3:0:0:
74,34,138353,2,0,P|64:71|59:109,1,77.0000023498536,8|0,0:0|0:0,0:0:0:0:
100,248,138686,6,0,B|129:239|129:239|181:244,1,77.0000023498536,6|8,0:0|0:3,0:0:0:0:
256,336,139019,1,10,0:0:0:0:
336,243,139186,2,0,B|383:239|383:239|412:248,1,77.0000023498536,4|0,0:0|0:0,0:0:0:0:
502,331,139519,1,10,0:3:0:0:
502,331,139686,1,10,0:0:0:0:
512,176,139853,6,0,B|485:104|485:104|416:160,1,154.000004699707,4|8,0:0|0:3,0:0:0:0:
336,243,140353,1,8,0:0:0:0:
254,151,140519,2,0,B|273:76|273:76|338:118,1,154.000004699707,6|8,0:0|0:0,0:0:0:0:
336,243,141019,2,0,L|333:297,3,38.5000011749268,10|8|8|8,0:0|0:0|0:0|0:0,0:0:0:0:
313,321,141353,6,0,B|237:344|237:344|163:307,1,154.000004699707,6|10,0:0|0:0,0:0:0:0:
74,245,141853,2,0,P|35:235|-14:238,1,77.0000023498536,2|8,0:0|0:3,0:0:0:0:
72,134,142186,1,10,0:3:0:0:
72,134,142353,2,0,P|61:95|34:54,1,77.0000023498536,8|0,0:0|0:0,0:0:0:0:
183,52,142686,6,0,P|248:25|341:35,1,154.000004699707,10|8,0:3|0:0,0:0:0:0:
449,225,143353,1,10,0:3:0:0:
449,225,143519,1,10,0:3:0:0:
512,130,143686,2,0,P|476:115|438:111,1,77.0000023498536,10|0,0:0|0:0,0:0:0:0:
329,198,144019,6,0,P|253:206|181:180,1,154.000004699707,10|10,0:3|0:0,0:0:0:0:
96,109,144519,1,2,0:3:0:0:
96,109,144686,2,0,L|81:8,2,77.0000023498536,8|8|8,0:3|0:3|0:0,0:0:0:0:
73,222,145186,5,2,0:0:0:0:
181,180,145353,2,0,P|256:171|328:197,1,154.000004699707,10|10,0:3|0:0,0:0:0:0:
427,256,145853,2,0,P|465:259|500:246,1,77.0000023498536,2|8,0:0|0:3,0:0:0:0:
505,129,146186,1,10,0:3:0:0:
505,129,146353,2,0,P|469:115|431:118,1,77.0000023498536,8|0,0:0|0:0,0:0:0:0:
328,197,146686,6,0,P|252:205|180:179,2,154.000004699707,6|8|8,0:0|0:0|0:3,0:0:0:0:
495,336,147686,2,0,P|457:326|419:322,1,77.0000023498536,10|0,0:0|0:0,0:0:0:0:
280,331,148019,6,0,B|335:354|335:354|386:360|419:321,1,154.000004699707,10|10,0:3|0:0,0:0:0:0:
467,216,148519,2,0,L|477:126,1,77.0000023498536,2|8,0:0|0:3,0:0:0:0:
411,43,148853,1,10,0:3:0:0:
411,43,149019,2,0,P|373:37|329:25,1,77.0000023498536,8|0,0:0|0:0,0:0:0:0:
215,68,149353,6,0,P|150:51|57:43,2,154.000004699707,10|8|8,0:3|0:0|0:3,0:0:0:0:
2,160,150353,2,0,P|43:164|87:176,1,77.0000023498536,10|0,0:0|0:0,0:0:0:0:
48,294,150686,6,0,P|24:237|92:170,1,154.000004699707,10|10,0:3|0:0,0:0:0:0:
192,186,151186,2,0,P|233:182|277:170,1,77.0000023498536,2|0,0:0|0:0,0:0:0:0:
380,220,151519,1,10,0:3:0:0:
380,220,151686,2,0,P|421:224|465:236,1,77.0000023498536,8|0,0:0|0:0,0:0:0:0:
404,371,152019,5,14,0:0:0:0:
404,371,152186,1,10,0:3:0:0:
287,317,152353,1,10,0:0:0:0:
287,317,152519,1,10,0:3:0:0:
380,220,152686,6,0,L|385:143,1,77.0000023498536,10|10,0:0|0:3,0:0:0:0:
238,104,153019,2,0,L|244:181,1,77.0000023498536,10|10,0:0|0:3,0:0:0:0:
385,143,153353,6,0,L|392:51,1,77.0000023498536,10|0,0:0|0:0,0:0:0:0:
232,27,153686,1,10,0:0:0:0:
232,27,153853,2,0,L|238:104,1,77.0000023498536,10|8,0:3|0:0,0:0:0:0:
93,127,154186,2,0,L|99:50,1,77.0000023498536,10|8,0:3|0:0,0:0:0:0:
239,104,154519,5,8,0:3:0:0:
257,109,154603,1,8,0:3:0:0:
276,109,154686,2,0,B|305:109|328:121|328:121|348:102|369:93|397:94|423:109,1,154.000004699707,6|8,0:0|0:0,0:0:0:0:
498,202,155186,1,10,0:3:0:0:
393,266,155353,2,0,L|355:262,3,38.5000011749268,10|8|8|8,0:2|0:2|0:2|0:2,0:2:0:0:
314,285,155686,2,0,L|276:289,3,38.5000011749268,10|8|10|8,0:0|0:0|0:0|0:0,0:0:0:0:
236,314,156019,6,0,B|207:308|187:311|187:311|156:324|156:324|124:325|88:302,1,154.000004699707,14|10,0:0|0:0,0:0:0:0:
24,197,156519,2,0,L|15:100,1,77.0000023498536,6|0,0:0|0:0,0:0:0:0:
140,107,156853,2,0,L|147:30,2,77.0000023498536,10|8|0,0:2|0:0|0:0,0:0:0:0:
181,215,157353,6,0,B|231:234|272:197|272:197|310:182|363:187|374:241|374:241|475:343|602:167|395:99|374:241|374:241|358:277|338:296|308:305|278:286|278:286|295:278|310:264,1,727.999966674806,10|2,0:1|3:0,0:0:0:0:
59,86,167853,5,8,0:0:0:0:
59,86,168019,2,0,P|104:37|212:69,1,175,10|2,3:3|3:0,0:0:0:0:
256,192,169353,1,2,3:0:0:0:
256,192,170186,1,2,3:0:0:0:
393,243,170686,6,0,P|404:192|395:141,1,105,10|2,3:3|0:0,0:0:0:0:
256,192,171686,1,10,0:3:0:0:
172,140,172019,2,0,P|111:127|33:121,1,140,2|8,3:0|0:0,0:0:0:0:
33,121,172853,1,10,3:2:0:0:
0,234,173186,5,8,0:0:0:0:
0,234,173353,2,0,P|100:236|173:278,1,175,14|2,3:3|3:0,0:0:0:0:
256,192,174686,1,2,3:0:0:0:
256,192,175519,1,2,3:0:0:0:
345,308,176019,5,10,3:3:0:0:
345,308,177019,1,10,0:3:0:0:
440,283,177353,1,2,3:3:0:0:
256,192,178186,1,10,3:2:0:0:
351,167,178519,5,8,0:0:0:0:
351,167,178686,2,0,B|392:147|408:102|397:46|359:33|359:33|346:56|363:83,1,209.999993591309,14|2,3:3|3:0,0:0:0:0:
427,238,180019,1,2,0:0:0:0:
256,192,180853,1,2,3:0:0:0:
130,95,181353,6,0,B|113:69|113:35|113:35|145:38|169:59,1,125.999996154785,10|0,3:3|0:0,0:0:0:0:
256,192,182353,1,10,0:3:0:0:
342,114,182686,2,0,P|425:100|508:110,1,167.999994873047,2|8,3:0|0:0,0:0:0:0:
507,109,183519,1,10,3:2:0:0:
498,219,183853,5,8,0:0:0:0:
498,219,184019,2,0,B|458:201|405:196|349:222|342:267|342:267|383:266|398:235,1,244.999992523194,14|2,3:3|3:0,0:0:0:0:
256,192,185353,1,2,3:2:0:0:
256,192,186186,1,2,3:0:0:0:
119,313,186686,5,10,3:3:0:0:
119,313,187519,1,2,3:0:0:0:
78,181,188019,1,2,3:3:0:0:
256,192,188853,6,0,P|262:163|264:132,2,48.9999985046387,10|10|8,3:2|0:3|0:0,0:0:0:0:
167,217,189353,5,10,3:3:0:0:
256,56,189686,1,8,0:3:0:0:
256,56,189853,1,8,0:3:0:0:
345,217,190186,1,8,0:3:0:0:
345,217,190353,1,8,0:3:0:0:
256,328,190686,6,0,L|256:264,1,56,10|8,0:3|0:3,0:0:0:0:
345,217,191019,2,0,L|345:153,1,56,8|8,0:3|0:3,0:0:0:0:
256,56,191353,5,8,0:0:0:0:
256,56,191519,1,8,0:0:0:0:
391,31,191686,1,8,0:0:0:0:
391,31,191853,1,8,0:0:0:0:
7,24,192686,6,0,L|51:28,3,35,2|2|2|2,0:0|0:0|0:0|0:0,0:0:0:0:
84,49,193019,2,0,L|128:45,3,35,10|10|10|6,0:2|0:2|0:3|0:3,0:0:0:0:
161,67,193353,6,0,P|191:136|168:226,1,154.000004699707,6|10,0:0|0:0,0:0:0:0:
88,293,193853,2,0,P|125:285|163:291,1,77.0000023498536,2|8,0:0|0:3,0:0:0:0:
261,352,194186,1,10,0:3:0:0:
261,352,194353,2,0,P|298:359|336:353,1,77.0000023498536,8|0,0:0|0:0,0:0:0:0:
412,249,194686,6,0,P|381:179|395:104,1,154.000004699707,10|8,0:3|0:0,0:0:0:0:
493,321,195353,1,10,0:3:0:0:
493,321,195519,1,10,0:3:0:0:
412,249,195686,2,0,P|377:232|339:228,1,77.0000023498536,10|0,0:0|0:0,0:0:0:0:
195,244,196019,6,0,P|269:258|339:227,1,154.000004699707,10|10,0:3|0:0,0:0:0:0:
388,131,196519,1,2,0:3:0:0:
388,131,196686,2,0,L|396:37,2,77.0000023498536,8|8|8,0:3|0:3|0:0,0:0:0:0:
339,227,197186,5,2,0:0:0:0:
250,164,197353,2,0,B|200:149|200:149|155:169|155:169|102:160,1,154.000004699707,10|10,0:3|0:0,0:0:0:0:
20,85,197853,2,0,P|54:82|102:69,1,77.0000023498536,2|8,0:0|0:3,0:0:0:0:
201,34,198186,1,10,0:3:0:0:
201,34,198353,2,0,P|239:34|277:40,1,77.0000023498536,8|0,0:0|0:0,0:0:0:0:
388,131,198686,6,0,B|401:163|393:194|393:194|378:223|378:223|397:243|400:286,2,154.000004699707,6|8|8,0:0|0:0|0:3,0:0:0:0:
201,34,199686,2,0,P|239:34|277:40,1,77.0000023498536,10|0,0:0|0:0,0:0:0:0:
388,131,200019,6,0,P|317:105|277:40,1,154.000004699707,10|10,0:3|0:0,0:0:0:0:
199,115,200519,2,0,L|185:210,1,77.0000023498536,2|8,0:0|0:3,0:0:0:0:
95,249,200853,1,10,0:3:0:0:
95,249,201019,2,0,P|46:248|4:223,1,77.0000023498536,8|0,0:0|0:0,0:0:0:0:
124,102,201353,6,0,P|163:100|198:114,1,77.0000023498536,6|8,0:0|0:3,0:0:0:0:
286,203,201686,1,10,0:0:0:0:
388,131,201853,2,0,L|399:28,1,77.0000023498536,4|0,0:0|0:0,0:0:0:0:
511,10,202186,1,10,0:3:0:0:
511,10,202353,1,10,0:0:0:0:
509,162,202519,6,0,B|463:185|463:185|400:187|387:131,1,154.000004699707,4|8,0:0|0:3,0:0:0:0:
283,64,203019,1,8,0:0:0:0:
286,203,203186,2,0,B|337:209|337:209|396:187|388:131,1,154.000004699707,6|8,0:0|0:0,0:0:0:0:
283,64,203686,2,0,L|231:54,3,38.5000011749268,10|8|8|8,0:0|0:0|0:0|0:0,0:0:0:0:
203,71,204019,6,0,B|159:79|159:79|98:51|98:51|55:60,1,154.000004699707,6|10,0:0|0:0,0:0:0:0:
5,163,204519,2,0,L|-1:240,1,77.0000023498536,2|8,0:0|0:3,0:0:0:0:
115,261,204853,1,10,0:3:0:0:
115,261,205019,2,0,L|121:184,1,77.0000023498536,8|0,0:0|0:0,0:0:0:0:
203,71,205353,6,0,P|265:116|347:89,1,154.000004699707,10|8,0:3|0:0,0:0:0:0:
231,311,206019,1,10,0:3:0:0:
231,311,206186,1,10,0:3:0:0:
115,261,206353,2,0,L|121:184,1,77.0000023498536,10|0,0:0|0:0,0:0:0:0:
203,71,206686,6,0,P|275:54|335:99,1,154.000004699707,10|10,0:3|0:0,0:0:0:0:
362,211,207186,1,2,0:3:0:0:
362,211,207353,2,0,L|368:288,2,77.0000023498536,8|8|8,0:3|0:3|0:0,0:0:0:0:
335,99,207853,5,2,0:0:0:0:
235,156,208019,2,0,P|161:153|114:94,1,154.000004699707,10|10,0:3|0:0,0:0:0:0:
42,185,208519,2,0,L|36:262,1,77.0000023498536,2|8,0:0|0:3,0:0:0:0:
112,356,208853,1,10,0:3:0:0:
112,356,209019,2,0,P|147:349|197:347,1,77.0000023498536,8|0,0:0|0:0,0:0:0:0:
334,361,209353,6,0,L|343:207,2,154.000004699707,6|8|8,0:0|0:0|0:3,0:0:0:0:
412,143,210353,2,0,P|377:119|331:113,1,77.0000023498536,10|0,0:0|0:0,0:0:0:0:
190,123,210686,6,0,L|343:113,1,154.000004699707,10|10,0:3|0:0,0:0:0:0:
441,50,211186,2,0,P|403:41|372:19,1,77.0000023498536,2|8,0:0|0:3,0:0:0:0:
256,24,211519,1,10,0:3:0:0:
256,24,211686,2,0,L|179:28,1,77.0000023498536,8|0,0:0|0:0,0:0:0:0:
41,87,212019,6,0,P|127:98|193:125,2,154.000004699707,10|8|8,0:3|0:0|0:3,0:0:0:0:
7,316,213019,2,0,P|37:310|92:314,1,77.0000023498536,10|0,0:0|0:0,0:0:0:0:
213,353,213353,6,0,B|236:350|236:350|261:352|261:352|306:328|294:253,1,154.000004699707,10|10,0:3|0:0,0:0:0:0:
199,197,213853,2,0,P|190:160|189:122,1,77.0000023498536,2|0,0:0|0:0,0:0:0:0:
263,35,214186,1,10,0:3:0:0:
263,35,214353,2,0,L|355:18,1,77.0000023498536,8|0,0:0|0:0,0:0:0:0:
317,176,214686,5,14,0:0:0:0:
317,176,214853,1,10,0:3:0:0:
193,125,215019,1,10,0:0:0:0:
193,125,215186,1,10,0:3:0:0:
73,195,215353,6,0,L|55:111,1,77.0000023498536,10|10,0:0|0:3,0:0:0:0:
193,125,215686,2,0,L|177:50,1,77.0000023498536,10|10,0:0|0:3,0:0:0:0:
319,125,216019,6,0,L|335:50,1,77.0000023498536,10|0,0:0|0:0,0:0:0:0:
439,195,216353,1,10,0:0:0:0:
439,195,216519,2,0,L|455:119,1,77.0000023498536,10|8,0:3|0:0,0:0:0:0:
335,200,216853,2,0,L|319:125,1,77.0000023498536,10|8,0:3|0:0,0:0:0:0:
196,56,217186,5,8,0:3:0:0:
176,49,217269,1,8,0:3:0:0:
157,43,217353,2,0,B|124:33|99:36|99:36|74:45|40:49|40:49|62:55|87:74,1,154.000004699707,6|8,0:0|0:0,0:0:0:0:
18,173,217853,1,10,0:3:0:0:
88,273,218019,2,0,L|132:278,3,38.5000011749268,10|8|8|8,0:2|0:2|0:2|0:2,0:2:0:0:
169,295,218353,2,0,L|213:290,3,38.5000011749268,10|8|10|8,0:0|0:0|0:0|0:0,0:0:0:0:
245,316,218686,6,0,P|298:347|385:315,1,154.000004699707,14|10,0:0|0:0,0:0:0:0:
442,212,219186,2,0,L|449:126,1,77.0000023498536,6|0,0:0|0:0,0:0:0:0:
360,47,219519,2,0,P|329:36|263:30,2,77.0000023498536,10|10|10,0:3|0:3|0:3,0:0:0:0:
306,161,220019,6,0,B|281:120|281:120|272:90|285:28,1,140,14|8,0:1|0:0,0:0:0:0:
152,174,220686,1,10,0:3:0:0:
152,174,220852,1,8,0:3:0:0:
101,89,221019,2,0,P|67:78|32:77,1,70,8|0,0:0|0:0,0:0:0:0:
9,209,221352,6,0,P|2:140|32:77,1,140,10|8,0:3|0:0,0:0:0:0:
224,38,222019,1,10,0:3:0:0:
224,38,222186,1,8,0:3:0:0:
282,117,222353,2,0,P|332:115|377:106,1,70,8|0,0:0|0:0,0:0:0:0:
449,35,222686,6,0,P|441:104|441:174,2,140,10|8|8,0:3|0:0|0:3,0:0:0:0:
338,197,223686,1,10,0:0:0:0:
282,117,223852,1,2,0:0:0:0:
241,206,224019,6,0,P|172:228|116:189,1,140,10|10,0:3|0:0,0:0:0:0:
42,131,224519,2,0,P|39:101|31:52,1,70,2|8,0:0|0:3,0:0:0:0:
130,77,224853,2,0,P|133:47|141:-2,2,70,10|8|0,0:3|0:0|0:0,0:0:0:0:
119,193,225353,6,0,P|111:262|96:330,2,140,6|8|8,0:2|0:0|0:3,0:0:0:0:
240,346,226352,2,0,P|271:336|319:324,1,70,10|0,0:0|0:0,0:0:0:0:
422,362,226686,6,0,L|433:277,1,70,10|0,0:3|0:0,0:0:0:0:
481,208,227019,1,8,0:0:0:0:
430,123,227186,2,0,L|421:53,1,70,2|8,0:0|0:3,0:0:0:0:
329,89,227519,2,0,L|320:19,2,70,10|8|0,0:3|0:0|0:0,0:0:0:0:
388,208,228019,6,0,P|324:178|255:176,2,140,10|8|8,0:3|0:0|0:3,0:0:0:0:
249,346,229019,1,10,0:0:0:0:
192,268,229186,1,2,0:0:0:0:
255,175,229352,6,0,P|260:141|256:106,1,70,6|8,0:0|0:3,0:0:0:0:
165,39,229686,1,10,0:0:0:0:
102,132,229853,2,0,P|96:166|100:201,1,70,10|8,0:3|0:3,0:0:0:0:
192,268,230186,1,8,0:3:0:0:
209,270,230269,1,8,0:3:0:0:
227,273,230353,2,0,L|287:269,3,35,8|8|8|8,0:3|0:3|0:3|0:3,0:0:0:0:
296,283,230686,6,0,B|362:273|357:310|434:299,1,140,6|8,0:0|0:0,0:0:0:0:
509,118,231353,1,10,0:3:0:0:
509,118,231519,1,8,0:3:0:0:
446,42,231686,2,0,P|404:33|373:32,1,70,8|0,0:0|0:0,0:0:0:0:
259,65,232019,6,0,P|325:76|376:31,1,140,10|8,0:3|0:0,0:0:0:0:
240,173,232686,1,10,0:3:0:0:
240,173,232853,1,8,0:3:0:0:
189,74,233019,2,0,P|223:64|258:64,1,70,8|0,0:0|0:0,0:0:0:0:
365,150,233353,6,0,L|505:137,2,140,10|8|8,0:3|0:0|0:3,0:0:0:0:
318,340,234353,1,10,0:0:0:0:
256,264,234519,1,2,0:0:0:0:
194,340,234686,6,0,B|126:359|126:359|54:328,1,140,10|8,0:3|0:0,0:0:0:0:
22,241,235186,2,0,L|14:160,1,70,2|8,0:0|0:3,0:0:0:0:
66,87,235519,2,0,L|72:17,2,70,10|8|0,0:3|0:0|0:0,0:0:0:0:
171,141,236019,6,0,P|255:123|337:126,2,140,6|8|8,0:2|0:0|0:3,0:0:0:0:
317,272,237019,2,0,P|350:271|387:257,1,70,10|0,0:0|0:0,0:0:0:0:
453,165,237353,6,0,L|459:80,1,70,10|0,0:3|0:0,0:0:0:0:
372,45,237686,1,8,0:0:0:0:
309,123,237853,2,0,P|275:123|238:115,1,70,2|8,0:0|0:3,0:0:0:0:
158,61,238186,2,0,P|123:53|88:53,2,70,10|8|0,0:3|0:0|0:0,0:0:0:0:
169,180,238686,6,0,L|155:324,2,140,10|8|8,0:3|0:0|0:3,0:0:0:0:
292,26,239686,1,10,0:0:0:0:
309,123,239853,1,2,0:0:0:0:
398,57,240019,6,0,P|432:58|466:66,1,70,6|8,0:0|0:3,0:0:0:0:
495,175,240353,1,10,0:0:0:0:
452,277,240519,2,0,P|417:275|383:267,1,70,10|8,0:3|0:3,0:0:0:0:
280,221,240853,1,10,0:2:0:0:
261,218,240936,1,8,0:2:0:0:
243,216,241020,2,0,L|182:222,3,35,8|8|8|8,0:2|0:2|0:2|0:2,0:0:0:0:
159,200,241353,5,6,0:2:0:0:
256,192,241436,12,2,243978,0:0:0:0:
