osu file format v14

[General]
AudioFilename: audio.mp3
AudioLeadIn: 0
PreviewTime: 60681
Countdown: 0
SampleSet: Soft
StackLeniency: 0.3
Mode: 0
LetterboxInBreaks: 0
WidescreenStoryboard: 0

[Editor]
Bookmarks: 1317,11983,18650,29317,39983,50650,55983,61317,82650,87983,98650,109317,111942
DistanceSpacing: 0.6
BeatDivisor: 4
GridSize: 32
TimelineZoom: 2.4

[Metadata]
Title:petit bonheur
TitleUnicode:petit bonheur
Artist:yuiko
ArtistUnicode:yuiko
Creator:Lasse
Version:Delight
Source:あなたに恋する恋愛ルセット
Tags:yuikonnu ゆいこんぬ Meis Clauson anata ni koisuru ren'ai recette visual novel eroge opening Mir Momochikun Kalibe Karen
BeatmapID:1280898
BeatmapSetID:606278

[Difficulty]
HPDrainRate:7
CircleSize:4.3
OverallDifficulty:8
ApproachRate:9
SliderMultiplier:1.76
SliderTickRate:1

[Events]
//Background and Video events
0,0,"bg.jpg",0,0
//Break Periods
//Storyboard Layer 0 (Background)
//Storyboard Layer 1 (Fail)
//Storyboard Layer 2 (Pass)
//Storyboard Layer 3 (Foreground)
//Storyboard Sound Samples

[TimingPoints]
-16,333.333333333333,4,2,43,20,1,0
983,-200,4,2,43,20,0,0
1317,-200,4,2,43,30,0,0
11900,-200,4,2,99,5,0,0
11983,-200,4,2,43,32,0,0
15983,-200,4,2,43,35,0,0
16817,-200,4,2,43,38,0,0
17317,-200,4,2,43,40,0,0
17400,-200,4,2,43,10,0,0
18317,-200,4,2,1,40,0,0
18650,-100,4,2,1,60,0,0
20233,-100,4,2,99,5,0,0
20317,-100,4,2,1,60,0,0
22900,-100,4,2,99,5,0,0
22983,-100,4,2,1,60,0,0
28817,-100,4,2,56,55,0,0
28983,-100,4,2,56,50,0,0
29150,-100,4,2,56,45,0,0
29317,-142.857142857143,4,2,25,45,0,0
38650,-142.857142857143,4,2,1,55,0,0
39150,-142.857142857143,4,2,1,58,0,0
39317,-142.857142857143,4,2,1,30,0,0
39483,-142.857142857143,4,2,1,55,0,0
39650,-142.857142857143,4,2,1,50,0,0
39983,-117.647058823529,4,2,1,50,0,0
49817,-117.647058823529,4,2,56,50,0,0
50317,-117.647058823529,4,2,1,50,0,0
50650,-153.846153846153,4,2,1,53,0,0
55650,-153.846153846153,4,2,56,50,0,0
55817,-153.846153846153,4,2,56,47,0,0
55983,-111.111111111111,4,2,1,55,0,0
56233,-111.111111111111,4,2,99,5,0,0
56317,-111.111111111111,4,2,1,55,0,0
57567,-111.111111111111,4,2,99,5,0,0
57651,-111.111111111111,4,2,1,55,0,0
58650,-111.111111111111,4,2,1,57,0,0
59150,-111.111111111111,4,2,1,58,0,0
59483,-111.111111111111,4,2,1,59,0,0
59817,-111.111111111111,4,2,1,60,0,0
60150,-111.111111111111,4,2,1,61,0,0
60317,-111.111111111111,4,2,1,62,0,0
60650,-111.111111111111,4,2,1,40,0,0
60983,-111.111111111111,4,2,99,50,0,0
61025,-111.111111111111,4,2,99,30,0,0
61067,-111.111111111111,4,2,99,50,0,0
61108,-111.111111111111,4,2,99,30,0,0
61150,-111.111111111111,4,2,99,50,0,0
61192,-111.111111111111,4,2,99,30,0,0
61233,-111.111111111111,4,2,99,50,0,0
61275,-111.111111111111,4,2,99,30,0,0
61317,-83.3333333333333,4,2,1,65,0,1
61567,-83.3333333333333,4,2,99,5,0,1
61650,-83.3333333333333,4,2,1,65,0,1
64233,-83.3333333333333,4,2,99,5,0,1
64316,-83.3333333333333,4,2,1,65,0,1
65567,-83.3333333333333,4,2,99,5,0,1
65650,-83.3333333333333,4,2,1,65,0,1
68233,-83.3333333333333,4,2,99,5,0,1
68317,-83.3333333333333,4,2,1,65,0,1
69317,-83.3333333333333,4,2,1,66,0,1
69650,-83.3333333333333,4,2,1,67,0,1
69983,-83.3333333333333,4,2,1,40,0,1
70150,-83.3333333333333,4,2,1,68,0,1
70483,-76.9230769230769,4,2,1,69,0,1
70817,-76.9230769230769,4,2,1,66,0,1
71150,-71.4285714285714,4,2,1,70,0,1
71650,-83.3333333333333,4,2,1,60,0,0
71983,-83.3333333333333,4,2,1,65,0,1
72233,-83.3333333333333,4,2,99,5,0,1
72317,-83.3333333333333,4,2,1,65,0,1
74900,-83.3333333333333,4,2,99,5,0,1
74983,-83.3333333333333,4,2,1,65,0,1
76233,-83.3333333333333,4,2,99,5,0,1
76317,-83.3333333333333,4,2,1,65,0,1
78900,-83.3333333333333,4,2,99,5,0,1
78983,-83.3333333333333,4,2,1,65,0,1
81567,-83.3333333333333,4,2,99,5,0,1
81650,-83.3333333333333,4,2,1,65,0,1
82317,-83.3333333333333,4,2,1,60,0,0
82650,-76.9230769230769,4,2,1,65,0,1
85317,-71.4285714285714,4,2,1,67,0,1
85983,-71.4285714285714,4,2,1,57,0,1
86317,-71.4285714285714,4,2,1,63,0,1
86650,-83.3333333333333,4,2,1,65,0,1
87483,-83.3333333333333,4,2,1,62,0,1
87650,-83.3333333333333,4,2,1,60,0,1
87983,-100,4,2,43,60,0,0
88067,-100,4,2,1,60,0,0
89317,-100,4,2,1,60,0,0
89567,-100,4,2,99,5,0,0
89650,-100,4,2,1,60,0,0
90317,-100,4,2,1,60,0,0
90650,-100,4,2,1,60,0,0
92233,-100,4,2,99,5,0,0
92317,-100,4,2,1,60,0,0
98317,-100,4,2,56,60,0,0
98650,-100,4,2,1,60,0,0
100233,-100,4,2,99,5,0,0
100317,-100,4,2,1,60,0,0
102900,-100,4,2,99,5,0,0
102983,-100,4,2,1,60,0,0
108817,-100,4,2,1,50,0,0
108983,-100,4,2,1,60,0,0
109067,-100,4,2,1,61,0,0
109150,-100,4,2,1,62,0,0
109233,-100,4,2,1,63,0,0
109317,-100,4,2,1,60,0,0
109400,-100,4,2,1,30,0,0
109983,-100,4,2,1,20,0,0
110650,-100,4,2,1,10,0,0
111317,-100,4,2,1,5,0,0
111942,-100,4,2,99,30,0,0

[Colours]
Combo1 : 250,150,180
Combo2 : 180,250,180
Combo3 : 240,200,240
Combo4 : 250,240,140

[HitObjects]
87,317,983,5,2,0:0:0:0:
87,317,1317,5,2,0:1:0:0:
207,346,1650,1,2,0:0:0:0:
207,346,1817,2,0,P|253:336|297:332,1,88,2|2,0:0|0:0,0:0:0:0:
477,351,2650,5,2,0:1:0:0:
477,351,3317,2,0,L|483:253,1,88,2|2,0:0|0:0,0:0:0:0:
491,140,3983,5,2,0:1:0:0:
379,193,4317,1,2,0:0:0:0:
379,193,4483,2,0,P|335:191|282:180,1,88,2|2,0:0|0:0,0:0:0:0:
136,129,5150,5,2,0:0:0:0:
180,194,5317,2,0,P|190:247|188:300,1,88,2|2,0:1|0:0,0:0:0:0:
139,341,5817,1,2,0:0:0:0:
139,341,5983,2,0,P|119:332|86:326,1,44,2|2,0:1|0:2,0:0:0:0:
0,128,6650,6,0,B|116:165|99:75|216:118,1,220,2|2,0:1|0:1,0:0:0:0:
263,173,7650,1,2,0:0:0:0:
363,102,7983,5,2,0:1:0:0:
254,40,8317,1,2,0:0:0:0:
254,40,8483,2,0,P|210:36|166:29,1,88,2|2,0:0|0:0,0:0:0:0:
131,225,9317,6,0,B|155:168|125:123|125:123|109:54|166:29,1,220,2|2,0:1|0:1,0:0:0:0:
241,14,10317,1,2,0:2:0:0:
317,110,10650,5,2,0:1:0:0:
425,51,10983,1,2,0:0:0:0:
425,51,11150,2,0,P|452:50|486:44,1,44,2|0,0:0|0:0,0:0:0:0:
512,120,11483,1,2,0:0:0:0:
512,120,11650,2,0,P|504:153|507:197,1,66,2|0,0:1|0:0,0:0:0:0:
508,208,11983,6,0,P|505:230|504:261,1,44,2|2,0:1|0:0,0:0:0:0:
463,315,12317,2,0,P|441:316|419:319,1,44,2|2,0:1|0:0,0:0:0:0:
352,352,12650,2,0,P|309:354|265:349,1,88,2|2,0:1|0:0,0:0:0:0:
185,223,13317,6,0,L|182:160,1,44,2|2,0:1|0:0,0:0:0:0:
115,146,13650,1,2,0:1:0:0:
115,146,13817,2,0,L|112:83,1,44,2|2,0:0|0:1,0:0:0:0:
42,76,14150,1,2,0:0:0:0:
42,76,14317,2,0,L|39:13,1,44,2|2,0:1|0:0,0:0:0:0:
157,30,14650,6,0,P|135:30|114:26,2,44,2|2|2,0:1|0:0|0:0,0:0:0:0:
231,15,15150,1,2,0:0:0:0:
284,67,15317,2,0,L|287:130,1,44,2|2,0:1|0:0,0:0:0:0:
317,179,15650,2,0,L|320:242,1,44,2|2,0:1|0:0,0:0:0:0:
386,296,15983,5,10,0:2:0:0:
362,118,16317,1,2,0:1:0:0:
317,179,16483,1,2,0:1:0:0:
460,303,16817,1,2,0:1:0:0:
197,170,17317,6,0,P|198:76|286:109,1,220,10|0,0:1|0:0,0:0:0:0:
284,203,18317,5,14,0:3:0:0:
282,218,18400,1,2,0:0:0:0:
280,233,18483,1,2,0:0:0:0:
278,248,18567,1,2,0:0:0:0:
274,263,18650,6,0,B|213:295|213:295|154:303|115:257,1,176,6|8,0:0|0:0,0:0:0:0:
287,109,19317,5,10,0:3:0:0:
287,109,19483,1,8,0:3:0:0:
385,215,19650,2,0,P|392:261|396:316,1,88,8|0,0:0|0:0,0:0:0:0:
462,85,19983,6,0,P|391:80|340:26,1,132,10|0,0:3|0:0,0:0:0:0:
337,21,20317,2,0,L|248:16,1,88,8|0,0:0|0:0,0:0:0:0:
115,72,20650,5,10,0:3:0:0:
115,72,20817,1,8,0:3:0:0:
249,16,20983,2,0,P|260:61|267:102,1,88,8|0,0:0|0:0,0:0:0:0:
70,218,21317,6,0,P|124:153|208:165,2,176,10|8|8,0:3|0:0|0:3,0:0:0:0:
70,218,22150,1,8,0:3:0:0:
115,72,22317,5,10,0:0:0:0:
155,233,22483,1,2,0:0:0:0:
345,194,22650,2,0,P|295:152|231:153,1,132,10|0,0:3|0:0,0:0:0:0:
207,164,22983,5,8,0:0:0:0:
262,324,23150,2,0,P|272:281|264:239,1,88,2|8,0:0|0:3,0:0:0:0:
101,326,23483,1,10,0:3:0:0:
101,326,23650,2,0,P|131:356|172:371,1,88,8|0,0:0|0:0,0:0:0:0:
187,105,23983,6,0,P|174:192|181:279,2,176,6|8|8,0:2|0:0|0:3,0:0:0:0:
187,105,24817,1,8,0:3:0:0:
346,178,24983,6,0,P|303:175|261:160,1,88,10|0,0:0|0:0,0:0:0:0:
345,23,25317,2,0,P|388:25|430:40,1,88,10|0,0:3|0:0,0:0:0:0:
346,178,25650,5,8,0:0:0:0:
263,51,25817,2,0,P|302:31|345:23,1,88,2|8,0:0|0:3,0:0:0:0:
346,178,26150,1,10,0:3:0:0:
349,182,26317,2,0,P|308:200|266:209,1,88,8|0,0:0|0:0,0:0:0:0:
76,306,26650,6,0,P|163:309|246:339,2,176,10|8|8,0:3|0:0|0:3,0:0:0:0:
76,306,27483,1,8,0:3:0:0:
14,140,27650,5,10,0:0:0:0:
158,179,27817,1,2,0:0:0:0:
92,32,27983,5,10,0:3:0:0:
79,197,28150,1,8,0:0:0:0:
246,47,28317,5,10,0:0:0:0:
230,223,28483,1,10,0:3:0:0:
230,223,28567,1,8,0:3:0:0:
230,223,28650,1,8,0:3:0:0:
166,83,28817,5,10,0:3:0:0:
280,162,28983,1,4,0:3:0:0:
364,83,29150,1,4,0:3:0:0:
512,170,29317,5,6,0:0:0:0:
512,170,29650,1,10,0:0:0:0:
459,238,29817,2,0,P|452:267|455:309,1,61.5999981201172,2|8,0:0|0:0,0:0:0:0:
359,357,30150,5,10,0:3:0:0:
283,314,30317,1,8,0:0:0:0:
205,346,30483,1,10,0:3:0:0:
205,346,30650,2,0,P|141:353|78:327,1,123.199996240234,8|8,0:0|0:0,0:0:0:0:
29,268,31150,1,8,0:3:0:0:
85,172,31317,6,0,P|92:135|90:108,1,61.5999981201172,10|8,0:0|0:3,0:0:0:0:
146,45,31650,2,0,P|183:52|211:47,1,61.5999981201172,8|8,0:0|0:3,0:0:0:0:
311,11,31983,5,10,0:0:0:0:
311,11,32317,1,10,0:0:0:0:
375,68,32483,2,0,P|381:98|380:128,1,61.5999981201172,2|8,0:0|0:0,0:0:0:0:
355,239,32817,5,10,0:3:0:0:
430,197,32983,1,10,0:0:0:0:
490,266,33150,1,10,0:3:0:0:
490,266,33317,2,0,P|496:296|494:326,1,61.5999981201172,8|0,0:0|0:0,0:0:0:0:
385,352,33650,6,0,L|317:341,1,61.5999981201172,10|8,0:0|0:3,0:0:0:0:
237,347,33983,2,0,L|169:336,1,61.5999981201172,10|8,0:0|0:3,0:0:0:0:
89,342,34317,1,10,0:0:0:0:
89,342,34483,1,8,0:3:0:0:
42,241,34650,6,0,B|28:200|28:200|44:149|19:117,2,123.199996240234,8|8|8,0:0|0:0|0:0,0:0:0:0:
116,197,35483,1,8,0:3:0:0:
216,245,35650,5,10,0:0:0:0:
290,200,35817,2,0,P|324:193|355:202,1,61.5999981201172,8|8,0:3|0:0,0:0:0:0:
451,247,36150,5,2,0:0:0:0:
427,163,36317,1,10,0:0:0:0:
441,78,36483,2,0,P|448:37|444:13,1,61.5999981201172,10|8,0:3|0:0,0:0:0:0:
353,102,36817,5,10,0:3:0:0:
279,57,36983,1,10,0:0:0:0:
199,90,37150,1,10,0:3:0:0:
199,90,37317,2,0,P|165:97|134:88,1,61.5999981201172,10|0,0:3|0:0,0:0:0:0:
46,31,37650,5,10,0:0:0:0:
61,115,37817,2,0,L|54:181,1,61.5999981201172,2|8,0:0|0:0,0:0:0:0:
0,310,38150,5,10,0:3:0:0:
89,267,38317,1,10,0:0:0:0:
166,327,38483,1,10,0:3:0:0:
287,127,38650,5,6,0:0:0:0:
89,267,38817,1,10,0:3:0:0:
54,176,38983,1,8,0:0:0:0:
322,218,39150,6,0,L|394:221,1,61.5999981201172,12|0,0:0|0:0,0:0:0:0:
462,161,39483,5,10,0:3:0:0:
383,220,39650,1,8,0:0:0:0:
354,208,39733,1,8,0:0:0:0:
331,188,39817,1,8,0:0:0:0:
316,162,39900,1,8,0:0:0:0:
310,131,39983,6,0,L|306:46,1,74.8000014266968,6|0,0:0|0:0,0:0:0:0:
191,19,40317,1,8,0:0:0:0:
306,56,40483,2,0,P|354:36|373:12,1,74.8000014266968,2|8,0:0|0:3,0:0:0:0:
483,76,40817,5,10,0:3:0:0:
368,19,40983,1,10,0:0:0:0:
314,135,41150,1,2,0:0:0:0:
314,135,41317,2,0,B|272:142|242:114|242:114|197:108|168:143,1,149.600002853394,10|8,0:3|0:0,0:0:0:0:
142,216,41817,1,0,0:0:0:0:
157,62,41983,6,0,P|169:97|176:134,1,74.8000014266968,10|8,0:3|0:3,0:0:0:0:
234,239,42317,2,0,P|222:274|214:311,1,74.8000014266968,10|0,0:0|0:0,0:0:0:0:
92,383,42650,6,0,P|84:346|72:310,1,74.8000014266968,10|0,0:3|0:0,0:0:0:0:
2,214,42983,1,10,0:0:0:0:
73,311,43150,2,0,P|109:303|145:292,1,74.8000014266968,2|8,0:0|0:3,0:0:0:0:
246,215,43483,5,10,0:3:0:0:
145,292,43650,1,10,0:0:0:0:
92,175,43817,1,2,0:0:0:0:
92,175,43983,2,0,L|82:96,1,74.8000014266968,8|0,0:3|0:0,0:0:0:0:
219,24,44317,6,0,P|188:44|172:76,1,74.8000014266968,10|0,0:0|0:0,0:0:0:0:
316,110,44650,2,0,P|283:94|247:96,1,74.8000014266968,10|8,0:3|0:3,0:0:0:0:
289,236,44983,2,0,P|287:200|267:169,1,74.8000014266968,10|0,0:0|0:0,0:0:0:0:
95,259,45317,6,0,P|164:275|212:221,2,149.600002853394,6|8|8,0:0|0:0|0:3,0:0:0:0:
95,259,46150,1,0,0:0:0:0:
212,221,46317,5,10,0:0:0:0:
303,297,46483,2,0,P|306:326|308:375,1,74.8000014266968,2|8,0:0|0:3,0:0:0:0:
212,221,46817,5,2,0:0:0:0:
303,297,46983,1,10,0:0:0:0:
414,255,47150,2,0,P|443:251|492:250,1,74.8000014266968,2|8,0:0|0:3,0:0:0:0:
303,297,47483,5,10,0:3:0:0:
414,255,47650,1,10,0:0:0:0:
436,141,47817,1,2,0:0:0:0:
436,141,47983,2,0,P|439:103|441:66,1,74.8000014266968,8|0,0:3|0:0,0:0:0:0:
301,23,48317,5,10,0:0:0:0:
440,66,48483,2,0,P|476:49|503:17,1,74.8000014266968,2|8,0:0|0:3,0:0:0:0:
301,23,48817,5,10,0:3:0:0:
440,66,48983,1,10,0:0:0:0:
276,130,49150,5,2,0:0:0:0:
415,173,49317,2,0,P|454:176|494:162,1,74.8000014266968,8|0,0:3|0:0,0:0:0:0:
301,23,49650,5,12,0:0:0:0:
276,130,49817,1,8,0:3:0:0:
319,36,49983,5,4,0:3:0:0:
296,126,50150,1,8,0:3:0:0:
337,49,50317,5,8,0:3:0:0:
316,122,50483,1,10,0:3:0:0:
494,94,50650,6,0,P|439:79|389:103,1,114.399994763184,6|10,0:0|0:3,0:0:0:0:
437,212,51150,2,0,P|446:185|446:157,1,57.1999973815919,2|8,0:0|0:0,0:0:0:0:
316,122,51483,2,0,P|307:149|307:177,1,57.1999973815919,2|8,0:0|0:3,0:0:0:0:
396,300,51817,5,10,0:3:0:0:
313,339,51983,2,0,P|284:339|257:330,1,57.1999973815919,2|8,0:0|0:0,0:0:0:0:
195,261,52317,1,10,0:3:0:0:
257,330,52483,2,0,P|278:310|292:286,1,57.1999973815919,2|8,0:0|0:0,0:0:0:0:
262,197,52817,2,0,P|255:170|256:142,1,57.1999973815919,2|8,0:0|0:3,0:0:0:0:
363,158,53150,5,8,0:3:0:0:
363,158,53233,1,8,0:3:0:0:
363,158,53317,2,0,P|294:163|246:131,1,114.399994763184,10|8,0:3|0:3,0:0:0:0:
322,74,53817,2,0,P|349:66|380:69,1,57.1999973815919,2|8,0:0|0:0,0:0:0:0:
452,120,54150,5,2,0:0:0:0:
452,120,54317,2,0,P|460:147|457:177,1,57.1999973815919,8|8,0:3|0:3,0:0:0:0:
401,247,54650,2,0,P|392:274|394:302,2,57.1999973815919,2|8|8,0:0|0:0|0:3,0:0:0:0:
457,175,55150,5,8,0:3:0:0:
459,147,55233,1,8,0:3:0:0:
452,120,55317,1,10,0:3:0:0:
359,52,55483,1,8,0:0:0:0:
434,97,55650,5,4,0:3:0:0:
330,49,55817,1,8,0:3:0:0:
256,189,55983,6,0,P|200:205|150:177,1,118.799996374512,6|0,0:0|0:0,0:0:0:0:
135,159,56317,1,10,0:0:0:0:
207,49,56483,2,0,P|217:87|209:126,1,79.1999975830079,2|8,0:0|0:3,0:0:0:0:
61,200,56817,1,10,0:3:0:0:
61,200,56900,1,10,0:3:0:0:
61,200,56983,2,0,P|52:162|60:123,1,79.1999975830079,8|0,0:0|0:0,0:0:0:0:
249,180,57317,6,0,B|188:189|195:150|135:159,1,118.799996374512,10|0,0:3|0:0,0:0:0:0:
137,235,57650,2,0,P|144:197|135:159,1,79.1999975830079,8|0,2:0|0:0,0:0:0:0:
20,57,57983,5,10,0:3:0:0:
20,57,58150,1,8,0:3:0:0:
135,159,58317,2,0,P|173:166|211:156,1,79.1999975830079,10|0,2:0|0:0,0:0:0:0:
370,30,58650,5,14,0:2:0:0:
412,149,58817,1,8,0:3:0:0:
388,273,58983,1,8,0:3:0:0:
358,45,59150,5,10,0:3:0:0:
400,258,59317,1,10,0:3:0:0:
448,30,59483,5,10,0:3:0:0:
323,210,59650,1,10,0:0:0:0:
160,32,59817,5,10,0:3:0:0:
160,32,60150,5,10,0:0:0:0:
76,348,60317,1,10,0:0:0:0:
76,348,60650,5,2,0:0:0:0:
66,330,60733,1,2,0:0:0:0:
63,310,60817,1,2,0:0:0:0:
66,290,60900,1,2,0:0:0:0:
74,272,60983,6,0,P|59:270|48:273,1,19.799999395752,2|2,0:0|0:0,0:0:0:0:
78,252,61067,2,0,P|68:252|58:255,1,19.799999395752,2|2,0:0|0:0,0:0:0:0:
75,232,61150,2,0,P|65:235|57:240,1,19.799999395752,2|2,0:0|0:0,0:0:0:0:
67,213,61233,2,0,P|58:218|52:225,1,19.799999395752,2|2,0:0|0:0,0:0:0:0:
54,196,61317,6,0,P|36:120|74:53,1,158.399995166016,6|0,0:0|0:0,0:0:0:0:
96,40,61650,1,10,0:0:0:0:
238,159,61817,6,0,P|186:159|140:135,1,105.599996777344,2|8,0:0|0:3,0:0:0:0:
347,6,62150,1,10,0:3:0:0:
347,6,62233,1,2,0:3:0:0:
347,6,62317,2,0,P|348:59|324:105,1,105.599996777344,8|0,0:0|0:0,0:0:0:0:
95,320,62650,6,0,P|171:251|277:274,1,211.199993554688,10|8,0:3|0:0,0:0:0:0:
270,269,63317,5,10,0:3:0:0:
394,382,63483,1,10,0:3:0:0:
506,255,63650,2,0,L|517:143,1,105.599996777344,10|0,0:0|0:0,0:0:0:0:
350,79,63983,6,0,P|275:92|222:35,1,158.399995166016,10|0,0:3|0:0,0:0:0:0:
220,11,64317,1,10,0:0:0:0:
109,138,64483,5,2,0:3:0:0:
109,138,64567,1,2,0:3:0:0:
109,138,64650,2,0,P|103:80|94:33,2,105.599996777344,8|8|8,0:3|0:3|0:0,0:0:0:0:
0,303,65150,5,2,0:0:0:0:
108,138,65317,2,0,P|181:112|248:150,1,158.399995166016,10|0,0:3|0:0,0:0:0:0:
260,174,65650,1,8,0:0:0:0:
396,5,65817,6,0,P|375:54|370:106,1,105.599996777344,2|8,0:0|0:3,0:0:0:0:
427,338,66150,1,10,0:3:0:0:
427,338,66233,1,2,0:0:0:0:
427,338,66317,2,0,P|447:289|452:237,1,105.599996777344,8|0,0:0|0:0,0:0:0:0:
247,149,66650,6,0,B|145:108|144:180|40:136,2,211.199993554688,6|8|8,0:0|0:0|0:3,0:0:0:0:
250,153,67483,1,8,0:3:0:0:
181,326,67650,6,0,P|169:275|188:227,1,105.599996777344,10|0,0:0|0:0,0:0:0:0:
376,68,67983,2,0,P|350:139|276:158,1,158.399995166016,10|0,0:3|0:0,0:0:0:0:
250,153,68317,1,8,0:0:0:0:
115,46,68483,6,0,P|64:38|13:51,1,105.599996777344,2|8,0:0|0:3,0:0:0:0:
0,269,68817,1,10,0:3:0:0:
0,269,68900,1,2,0:0:0:0:
0,268,68983,2,0,P|23:222|62:186,1,105.599996777344,8|0,0:0|0:0,0:0:0:0:
299,342,69317,5,6,0:0:0:0:
299,342,69483,1,8,0:3:0:0:
250,153,69650,5,10,0:0:0:0:
96,292,69817,2,0,P|44:295|0:268,1,105.599996777344,4|0,0:0|0:0,0:0:0:0:
245,127,70150,5,10,0:3:0:0:
304,368,70317,1,10,0:0:0:0:
438,118,70483,6,0,B|445:95|424:72|424:72|402:96|390:143|411:172|418:157|433:202|415:242,1,228.799989526368,4|8,0:0|0:3,0:0:0:0:
304,368,70983,5,8,0:0:0:0:
245,127,71150,2,0,B|206:81|144:66|84:73|84:73|101:107|142:116,1,246.399992480469,6|8,0:0|0:0,0:0:0:0:
415,242,71650,5,10,0:0:0:0:
420,221,71733,1,8,0:0:0:0:
418,199,71817,1,8,0:0:0:0:
412,178,71900,1,8,0:0:0:0:
402,159,71983,6,0,P|380:91|428:12,1,158.399995166016,6|0,0:0|0:0,0:0:0:0:
445,16,72317,1,10,0:0:0:0:
492,202,72483,6,0,P|440:193|401:158,1,105.599996777344,2|8,0:0|0:3,0:0:0:0:
492,351,72817,1,10,0:3:0:0:
492,351,72900,1,2,0:3:0:0:
492,351,72983,2,0,P|453:316|401:307,1,105.599996777344,8|0,0:0|0:0,0:0:0:0:
134,209,73317,6,0,B|244:183|236:257|347:231,1,211.199993554688,10|8,0:3|0:0,0:0:0:0:
338,233,73983,5,10,0:3:0:0:
180,292,74150,1,10,0:3:0:0:
45,188,74317,2,0,L|34:76,1,105.599996777344,10|0,0:0|0:0,0:0:0:0:
40,345,74650,6,0,P|81:281|157:277,1,158.399995166016,10|0,0:3|0:0,0:0:0:0:
180,292,74983,1,10,0:0:0:0:
356,357,75150,5,2,0:3:0:0:
356,357,75233,1,2,0:3:0:0:
355,357,75317,2,0,P|298:362|250:342,2,105.599996777344,8|8|8,0:3|0:3|0:0,0:0:0:0:
512,251,75817,5,2,0:0:0:0:
355,357,75983,2,0,P|319:305|328:195,1,158.399995166016,10|0,0:3|0:0,0:0:0:0:
335,191,76317,1,8,0:0:0:0:
509,140,76483,6,0,P|456:139|411:113,1,105.599996777344,2|8,0:0|0:3,0:0:0:0:
211,60,76817,1,10,0:3:0:0:
211,60,76900,1,2,0:0:0:0:
211,60,76983,2,0,P|263:59|309:86,1,105.599996777344,8|0,0:0|0:0,0:0:0:0:
228,351,77317,6,0,B|269:249|197:248|241:146,2,211.199993554688,6|8|8,0:0|0:0|0:3,0:0:0:0:
228,351,78150,1,8,0:3:0:0:
20,309,78317,6,0,P|68:289|121:292,1,105.599996777344,10|0,0:0|0:0,0:0:0:0:
27,32,78650,2,0,P|90:76|97:152,1,158.399995166016,10|0,0:3|0:0,0:0:0:0:
87,178,78983,1,8,0:0:0:0:
221,310,79150,6,0,P|173:289|121:292,1,105.599996777344,2|8,0:0|0:3,0:0:0:0:
308,350,79483,1,10,0:3:0:0:
308,350,79567,1,2,0:0:0:0:
308,350,79650,2,0,P|311:297|293:247,1,105.599996777344,8|0,0:0|0:0,0:0:0:0:
87,178,79983,6,0,P|190:187|279:133,2,211.199993554688,10|8|8,0:3|0:0|0:3,0:0:0:0:
87,178,80817,1,8,0:3:0:0:
239,37,80983,6,0,P|294:28|339:48,1,105.599996777344,10|0,0:0|0:0,0:0:0:0:
285,294,81317,2,0,P|246:227|261:151,1,158.399995166016,10|0,0:3|0:0,0:0:0:0:
279,133,81650,1,8,0:0:0:0:
384,283,81817,6,0,P|335:302|284:293,1,105.599996777344,2|0,0:0|0:0,0:0:0:0:
426,126,82150,1,10,0:3:0:0:
426,126,82233,1,2,0:0:0:0:
426,126,82317,2,0,P|445:174|436:225,1,105.599996777344,8|0,0:0|0:0,0:0:0:0:
198,282,82650,5,10,0:0:0:0:
354,184,82817,1,10,0:3:0:0:
177,179,82983,5,10,0:0:0:0:
349,200,83150,1,10,0:3:0:0:
220,85,83317,5,10,0:0:0:0:
344,216,83483,1,10,0:3:0:0:
309,32,83650,5,10,0:0:0:0:
339,232,83817,1,10,0:3:0:0:
503,93,83983,6,0,P|465:51|410:38,1,114.399994763184,10|0,0:0|0:0,0:0:0:0:
223,102,84317,5,10,0:0:0:0:
448,186,84483,2,0,P|489:147|503:93,1,114.399994763184,10|8,0:3|0:0,0:0:0:0:
186,185,84817,6,0,P|145:148|131:93,1,114.399994763184,10|8,0:3|0:0,0:0:0:0:
6,268,85150,1,8,0:3:0:0:
20,278,85233,1,8,0:3:0:0:
32,286,85317,6,0,P|71:178|186:185,1,246.399992480469,6|8,0:0|0:0,0:0:0:0:
336,338,85817,1,10,0:3:0:0:
491,146,85983,5,10,0:3:0:0:
466,163,86067,1,8,0:3:0:0:
436,167,86150,1,8,0:3:0:0:
408,155,86233,1,8,0:3:0:0:
389,131,86317,5,10,0:0:0:0:
425,158,86400,1,8,0:0:0:0:
435,202,86483,1,10,0:0:0:0:
413,242,86567,1,8,0:0:0:0:
371,258,86650,6,0,L|251:251,1,105.599996777344,14|8,0:0|0:3,0:0:0:0:
92,349,86983,5,10,0:0:0:0:
8,146,87150,2,0,P|-1:95|20:44,1,105.599996777344,6|0,0:0|0:0,0:0:0:0:
262,118,87483,5,10,0:3:0:0:
90,104,87650,1,10,0:3:0:0:
106,84,87733,1,10,0:3:0:0:
129,72,87817,1,10,0:3:0:0:
155,71,87900,1,10,0:3:0:0:
180,81,87983,6,0,P|283:86|320:23,1,176,14|8,0:1|0:0,0:0:0:0:
434,292,88650,5,10,0:3:0:0:
434,292,88816,1,8,0:3:0:0:
311,221,88983,2,0,P|268:209|206:212,1,88,8|0,0:0|0:0,0:0:0:0:
103,360,89317,6,0,P|165:368|208:321,1,132,10|0,0:3|0:0,0:0:0:0:
218,296,89650,2,0,L|226:189,1,88,8|0,0:0|0:0,0:0:0:0:
161,72,89983,5,10,0:3:0:0:
161,72,90150,1,8,0:3:0:0:
224,208,90317,2,0,P|267:220|329:217,1,88,8|0,0:0|0:0,0:0:0:0:
512,126,90650,6,0,P|442:67|355:71,2,176,10|8|8,0:3|0:0|0:3,0:0:0:0:
512,126,91483,1,8,0:3:0:0:
361,68,91650,5,10,0:0:0:0:
310,220,91817,1,2,0:0:0:0:
158,131,91983,2,0,P|95:110|30:118,1,132,10|0,0:3|0:0,0:0:0:0:
7,131,92317,5,10,0:0:0:0:
151,216,92483,2,0,P|163:174|158:131,1,88,2|8,0:0|0:3,0:0:0:0:
13,45,92817,1,10,0:3:0:0:
13,45,92983,2,0,P|1:87|6:130,1,88,8|0,0:0|0:0,0:0:0:0:
132,342,93317,6,0,P|82:272|-5:279,2,176,6|8|8,0:2|0:0|0:3,0:0:0:0:
132,342,94150,1,8,0:3:0:0:
315,371,94317,6,0,P|347:374|403:362,1,88,10|0,0:0|0:0,0:0:0:0:
342,209,94650,2,0,P|309:205|253:217,1,88,10|0,0:3|0:0,0:0:0:0:
401,363,94983,5,8,0:0:0:0:
255,216,95150,2,0,P|215:235|183:265,1,88,2|8,0:0|0:3,0:0:0:0:
401,363,95483,1,10,0:3:0:0:
404,367,95650,2,0,P|443:347|475:317,1,88,8|0,0:0|0:0,0:0:0:0:
400,83,95983,6,0,P|385:170|382:258,2,176,10|8|8,0:3|0:0|0:3,0:0:0:0:
400,83,96817,1,8,0:3:0:0:
382,257,96983,5,10,0:0:0:0:
505,149,97150,1,2,0:0:0:0:
319,48,97317,5,6,0:0:0:0:
319,48,97483,1,8,0:3:0:0:
382,257,97650,5,10,0:0:0:0:
486,63,97817,1,10,0:3:0:0:
455,221,97983,5,8,0:3:0:0:
434,195,98067,1,8,0:3:0:0:
406,179,98150,1,8,0:3:0:0:
373,175,98233,1,8,0:3:0:0:
341,184,98317,5,8,0:3:0:0:
302,194,98400,1,8,0:3:0:0:
263,190,98483,1,8,0:3:0:0:
229,170,98567,1,8,0:3:0:0:
205,140,98650,6,0,B|187:95|206:27|206:27|194:60|168:74,1,176,6|8,0:0|0:0,0:0:0:0:
68,269,99317,5,10,0:3:0:0:
68,269,99483,1,8,0:3:0:0:
17,132,99650,2,0,L|6:29,1,88,8|0,0:0|0:0,0:0:0:0:
68,269,99983,6,0,P|117:227|185:243,1,132,10|0,0:3|0:0,0:0:0:0:
196,259,100317,2,0,P|243:272|284:261,1,88,8|0,0:0|0:0,0:0:0:0:
364,113,100650,5,10,0:3:0:0:
364,113,100817,1,8,0:3:0:0:
280,262,100983,2,0,L|270:349,1,88,8|0,0:0|0:0,0:0:0:0:
466,232,101317,6,0,B|441:198|400:198|400:198|349:217|306:185,2,176,10|8|8,0:3|0:0|0:3,0:0:0:0:
469,236,102150,1,8,0:3:0:0:
364,113,102317,5,10,0:0:0:0:
280,262,102483,1,2,0:0:0:0:
457,361,102650,2,0,P|479:300|469:236,1,132,10|0,0:3|0:0,0:0:0:0:
451,215,102983,5,8,0:0:0:0:
279,262,103150,2,0,P|236:265|196:247,1,88,2|8,0:0|0:3,0:0:0:0:
280,98,103483,1,10,0:3:0:0:
280,98,103650,2,0,P|323:94|363:112,1,88,8|0,0:0|0:0,0:0:0:0:
311,355,103983,6,0,P|292:270|307:184,2,176,6|8|8,0:2|0:0|0:3,0:0:0:0:
311,355,104817,1,8,0:3:0:0:
306,184,104983,6,0,P|265:171|200:180,1,88,10|0,0:0|0:0,0:0:0:0:
71,239,105317,2,0,P|114:241|156:228,1,88,10|0,0:3|0:0,0:0:0:0:
89,84,105650,5,8,0:0:0:0:
71,239,105817,2,0,L|64:350,1,88,2|8,0:0|0:3,0:0:0:0:
300,271,106150,1,10,0:3:0:0:
300,271,106317,2,0,L|307:160,1,88,8|0,0:0|0:0,0:0:0:0:
172,33,106650,6,0,P|227:91|325:77,2,176,10|8|8,0:3|0:0|0:3,0:0:0:0:
175,37,107483,1,8,0:3:0:0:
169,219,107650,5,10,0:0:0:0:
74,67,107817,1,2,0:0:0:0:
71,239,107983,5,6,0:0:0:0:
175,37,108150,1,8,0:3:0:0:
269,244,108317,5,10,0:0:0:0:
112,151,108483,1,10,0:3:0:0:
112,151,108650,1,8,0:3:0:0:
291,72,108817,5,10,0:2:0:0:
282,48,108900,1,8,0:2:0:0:
265,29,108983,5,8,0:2:0:0:
251,61,109067,1,8,0:2:0:0:
248,95,109150,1,8,0:2:0:0:
256,128,109233,1,8,0:2:0:0:
278,155,109317,5,6,0:2:0:0:
256,192,109400,12,2,111942,0:0:0:0:
