osu file format v14

[General]
AudioFilename: petit.mp3
AudioLeadIn: 0
PreviewTime: 60650
Countdown: 0
SampleSet: Soft
StackLeniency: 0.7
Mode: 2
LetterboxInBreaks: 0
EpilepsyWarning: 1
WidescreenStoryboard: 1

[Editor]
DistanceSpacing: 0.6
BeatDivisor: 4
GridSize: 8
TimelineZoom: 1.8

[Metadata]
Title:petit bonheur
TitleUnicode:petit bonheur
Artist:yuiko
ArtistUnicode:yuiko
Creator:-Luminate
Version:Salad
Source:あなたに恋する恋愛ルセット
Tags:Unisonshift Unison shift Anata ni Koi Suru Ren'ai Recette La recette de mon amour pour toi meis clauson japanese video game vn visual novel eroge opening rew0825 -hex- hex sinnoh jemzuu ajamez
BeatmapID:2461717
BeatmapSetID:1178666

[Difficulty]
HPDrainRate:4
CircleSize:3
OverallDifficulty:7
ApproachRate:7
SliderMultiplier:1.4
SliderTickRate:1

[Events]
//Background and Video events
0,0,"sweet.png",0,0
//Break Periods
//Storyboard Layer 0 (Background)
//Storyboard Layer 1 (Fail)
//Storyboard Layer 2 (Pass)
//Storyboard Layer 3 (Foreground)
Sprite,Foreground,Centre,"SB\parrallel.png",320,240 V,0,92061,97394,0.5,0.5 M,1,93394,93644,-300,240,100,240 F,0,93394,93644,0,1 M,0,93644,97394,100,240,110,240
Sprite,Foreground,Centre,"SB\parrallel.png",320,240 M,1,100061,100394,720,240,520,240 F,0,100061,100394,0,1 V,0,100061,107728,0.5,0.5 P,0,100061,108061,H M,0,100394,107728,520,240,515,240
Sprite,Foreground,Centre,"SB\parrallel.png",320,240 P,0,107728,108061,H MX,0,107728,108061,515,550 V,0,107728,108061,0.5,0.5,1,0.5
Sprite,Foreground,Centre,"SB\label2.png",320,240 M,1,93561,93728,68,370,88,370 F,0,93561,93728,0,1 S,0,93561,97061,0.6 M,0,93728,97061,88,370,98,370
Sprite,Foreground,Centre,"SB\label2.png",320,240 M,1,97061,97394,98,370,68,370 F,1,97061,97394,1,0 S,0,97061,97394,0.6
//Storyboard Layer 4 (Overlay)
//Storyboard Sound Samples

[TimingPoints]
1395,333.333333333333,4,2,1,40,1,0
12061,-100,4,2,1,45,0,0
18728,-100,4,2,1,65,0,0
29561,-100,4,2,3,50,0,0
38728,-100,4,2,1,55,0,0
40061,-100,4,2,1,60,0,0
50728,-100,4,2,1,58,0,0
56061,-100,4,2,1,60,0,0
58728,-100,4,2,1,63,0,0
60728,-100,4,2,1,35,0,0
61061,-100,4,2,1,45,0,0
61394,-100,4,2,2,75,0,1
61561,-100,4,2,1,75,0,1
66728,-100,4,2,2,75,0,1
66895,-100,4,2,1,75,0,1
72061,-100,4,2,2,75,0,1
72228,-100,4,2,1,75,0,1
77394,-100,4,2,2,75,0,1
77561,-100,4,2,1,75,0,1
82728,-100,4,2,2,75,0,1
82895,-100,4,2,1,75,0,1
88061,-100,4,2,2,65,0,0
88228,-100,4,2,1,65,0,0
97394,-100,4,2,1,70,0,0
98728,-100,4,2,1,65,0,0
108061,-100,4,2,1,70,0,0
109478,-100,4,2,1,25,0,0
110728,-100,4,2,1,15,0,0
112019,-100,4,2,1,30,0,0

[Colours]
Combo1 : 128,128,255
Combo2 : 245,232,137
Combo3 : 255,255,9
Combo4 : 32,214,223

[HitObjects]
168,280,1061,5,0,0:0:0:0:
320,288,1395,2,0,P|352:216|288:168,1,140,2|0,0:0|0:0,0:0:0:0:
232,176,1894,1,0,0:0:0:0:
368,344,2228,2,0,L|144:344,1,210,0|2,0:0|0:0,0:0:0:0:
384,272,3394,2,0,P|424:224|384:168,1,140,0|0,0:0|0:0,0:0:0:0:
88,176,4061,5,2,0:0:0:0:
208,176,4394,1,0,0:0:0:0:
208,176,4561,2,0,L|56:176,1,140,0|2,0:0|0:0,0:0:0:0:
208,272,5228,1,0,0:0:0:0:
384,328,5394,2,0,P|408:240|376:224,1,140,2|0,0:0|0:0,0:0:0:0:
320,184,5894,2,0,L|488:184,1,140,2|0,0:0|0:0,0:0:0:0:
88,328,6728,6,0,P|24:256|120:200,1,210,2|0,0:0|0:0,0:0:0:0:
208,192,7561,1,0,0:0:0:0:
208,128,7728,2,0,L|368:128,1,140,0|2,0:0|0:0,0:0:0:0:
240,296,8394,1,0,0:0:0:0:
240,296,8561,1,2,0:0:0:0:
344,344,8894,2,0,L|112:344,1,210,0|2,0:0|0:0,0:0:0:0:
424,248,10394,5,0,0:0:0:0:
304,248,10728,2,0,P|264:176|328:144,1,140,2|0,0:0|0:0,0:0:0:0:
376,144,11228,1,0,0:0:0:0:
104,328,11561,2,0,L|344:328,1,210,2|2,0:0|0:0,0:0:0:0:
440,264,12394,5,2,0:0:0:0:
304,192,12728,2,0,L|464:192,1,140,2|0,0:0|0:0,0:0:0:0:
168,320,13394,2,0,P|72:280|48:232,1,140,2|2,0:0|0:0,0:0:0:0:
56,184,13894,1,0,0:0:0:0:
328,304,14228,2,0,L|104:304,1,210,0|2,0:0|0:0,0:0:0:0:
296,216,15228,5,0,0:0:0:0:
296,216,15394,1,2,0:0:0:0:
416,168,15728,1,2,0:0:0:0:
176,160,16061,2,0,P|136:96|200:56,1,140,2|0,0:0|0:0,0:0:0:0:
256,56,16561,2,0,L|96:56,1,140,2|2,0:0|0:0,0:0:0:0:
488,88,17394,6,0,P|360:168|488:344,1,420,2|12,0:0|0:3,0:0:0:0:
208,360,18728,6,0,L|48:360,1,140,14|8,0:0|0:1,0:0:0:0:
192,288,19394,1,10,0:0:0:0:
248,224,19561,1,8,0:0:0:0:
192,168,19728,1,8,0:1:0:0:
456,336,20061,6,0,L|288:336,1,140,10|8,0:0|0:1,0:0:0:0:
184,240,20728,1,10,0:0:0:0:
256,208,20894,1,8,0:0:0:0:
328,176,21061,1,8,0:1:0:0:
48,88,21394,6,0,L|200:88,2,140,10|8|8,0:0|0:1|0:0,0:0:0:0:
48,176,22228,1,8,0:0:0:0:
128,224,22394,1,8,0:1:0:0:
400,312,22728,6,0,L|248:312,1,140,10|8,0:0|0:1,0:0:0:0:
264,232,23228,2,0,L|416:232,1,140,2|8,0:0|0:0,0:0:0:0:
408,144,23728,1,8,0:1:0:0:
136,144,24061,6,0,L|24:56,2,140,6|8|8,0:0|0:1|0:0,0:0:0:0:
136,224,24894,1,8,0:0:0:0:
64,272,25061,1,8,0:1:0:0:
336,336,25394,6,0,L|480:336,1,140,10|8,0:0|0:1,0:0:0:0:
400,280,25894,2,0,L|392:192,1,70,2|8,0:0|0:0,0:0:0:0:
480,176,26228,1,8,0:0:0:0:
480,176,26394,1,8,0:1:0:0:
208,176,26728,6,0,L|56:176,2,140,10|8|8,0:0|0:1|0:0,0:0:0:0:
208,256,27561,1,8,0:0:0:0:
304,256,27728,2,0,L|400:256,1,70,8|2,0:1|0:0,0:0:0:0:
208,208,28061,6,0,L|120:208,2,70,14|8|8,0:0|0:1|0:1,0:0:0:0:
352,208,28728,1,8,0:0:0:0:
424,168,28894,1,8,0:3:0:0:
424,88,29061,1,8,0:0:0:0:
352,48,29228,1,4,0:3:0:0:
176,48,29394,6,0,L|24:48,1,140,14|10,0:0|0:1,0:0:0:0:
32,120,29894,2,0,L|32:272,1,140,2|10,0:0|0:0,0:0:0:0:
112,264,30394,1,10,0:1:0:0:
200,264,30561,1,8,0:0:0:0:
200,192,30728,6,0,L|48:192,1,140,10|8,0:1|0:1,0:0:0:0:
184,120,31394,1,10,0:1:0:0:
56,80,31728,1,10,0:1:0:0:
328,320,32061,6,0,L|480:320,1,140,10|10,0:1|0:1,0:0:0:0:
464,256,32561,2,0,L|320:256,1,140,2|10,0:0|0:0,0:0:0:0:
324,256,33061,1,10,0:1:0:0:
400,208,33228,1,8,0:0:0:0:
320,176,33394,5,10,0:1:0:0:
176,80,33728,1,10,0:1:0:0:
320,16,34061,1,10,0:1:0:0:
472,80,34394,1,10,0:1:0:0:
184,240,34728,6,0,P|112:248|40:240,2,140,10|8|8,0:1|0:1|0:1,0:0:0:0:
320,240,35728,1,10,0:1:0:0:
320,176,35894,6,0,L|176:176,1,140,10|2,0:0|0:0,0:0:0:0:
184,112,36394,1,10,0:1:0:0:
264,64,36561,2,0,L|96:64,1,140,2|8,0:0|0:0,0:0:0:0:
120,144,37061,1,10,0:1:0:0:
208,144,37228,6,0,L|368:144,1,140,10|0,0:0|0:0,0:0:0:0:
348,144,37728,1,10,0:1:0:0:
348,144,37894,1,2,0:0:0:0:
200,264,38228,2,0,L|112:264,2,70,10|10|8,0:0|0:1|0:0,0:0:0:0:
368,264,38728,6,0,L|440:264,2,70,14|10|8,0:1|0:0|0:0,0:0:0:0:
272,264,39228,1,12,0:1:0:0:
440,184,39561,2,0,L|528:184,2,70,14|8|8,0:1|0:1|0:1,0:0:0:0:
256,184,40061,6,0,L|96:184,2,140,12|8|8,0:0|0:1|0:0,0:0:0:0:
344,240,40894,1,8,0:0:0:0:
344,240,41061,1,8,0:1:0:0:
64,304,41394,6,0,L|216:304,2,140,8|8|8,0:0|0:1|0:0,0:0:0:0:
64,240,42228,1,8,0:0:0:0:
152,216,42394,1,8,0:1:0:0:
456,152,42728,6,0,L|296:152,2,140,10|8|8,0:0|0:1|0:0,0:0:0:0:
456,216,43561,1,8,0:0:0:0:
376,264,43728,2,0,L|288:264,1,70,8|2,0:1|0:0,0:0:0:0:
232,208,44061,6,0,L|400:208,2,140,8|8|10,0:0|0:1|0:0,0:0:0:0:
232,128,44894,1,8,0:0:0:0:
312,96,45061,1,8,0:1:0:0:
32,288,45394,6,0,L|192:288,2,140,14|8|8,0:0|0:1|0:0,0:0:0:0:
176,224,46394,1,10,0:1:0:0:
104,160,46561,2,0,L|264:160,1,140,2|8,0:0|0:0,0:0:0:0:
328,160,47061,1,8,0:1:0:0:
328,160,47228,1,2,0:0:0:0:
176,304,47561,2,0,L|104:304,2,70,8|8|2,0:0|0:1|0:0,0:0:0:0:
360,304,48061,6,0,L|512:304,2,140,8|8|8,0:0|0:1|0:0,0:0:0:0:
360,240,48894,1,10,0:0:0:0:
440,192,49061,1,8,0:1:0:0:
360,152,49228,1,2,0:0:0:0:
176,152,49394,6,0,L|32:152,1,140,10|14,0:0|0:1,0:0:0:0:
136,248,50061,1,8,0:0:0:0:
136,248,50228,1,8,0:3:0:0:
56,248,50394,1,8,0:0:0:0:
336,320,50728,6,0,L|504:320,1,140,14|10,0:0|0:0,0:0:0:0:
400,296,51228,1,2,0:0:0:0:
512,200,51561,2,0,L|360:200,1,140,2|2,0:0|0:0,0:0:0:0:
192,200,52061,6,0,L|24:200,1,140,10|10,0:0|0:0,0:0:0:0:
136,160,52561,1,2,0:0:0:0:
16,72,52894,2,0,L|104:72,1,70,2|8,0:0|0:0,0:0:0:0:
376,72,53394,6,0,L|208:72,1,140,10|8,0:0|0:0,0:0:0:0:
304,128,53894,1,2,0:0:0:0:
376,176,54061,1,8,0:1:0:0:
296,304,54228,2,0,P|264:224|304:192,1,140,2|8,0:0|0:0,0:0:0:0:
400,192,54728,6,0,L|480:192,2,70,10|8|8,0:0|0:1|0:0,0:0:0:0:
136,192,55394,2,0,L|64:192,2,70,8|8|4,0:1|0:1|0:3,0:0:0:0:
424,144,56061,6,0,L|264:144,2,140,14|8|8,0:0|0:1|0:0,0:0:0:0:
424,224,56894,1,8,0:0:0:0:
352,272,57061,1,8,0:1:0:0:
64,272,57394,6,0,L|208:272,1,140,10|8,0:0|0:1,0:0:0:0:
344,208,58061,1,8,0:0:0:0:
200,152,58394,1,8,0:1:0:0:
480,328,58728,6,0,B|480:248|480:248|408:208,1,140,14|8,0:0|0:0,0:0:0:0:
344,200,59228,1,8,0:0:0:0:
312,120,59394,1,8,0:0:0:0:
352,48,59561,1,8,0:0:0:0:
424,32,59728,1,8,0:0:0:0:
264,32,59894,1,10,0:0:0:0:
72,40,60228,5,8,0:1:0:0:
72,40,60394,1,8,0:1:0:0:
200,112,60728,2,0,L|40:112,1,140,2|2,0:0|0:0,0:0:0:0:
352,312,61394,6,0,L|496:312,1,140,14|8,0:0|0:1,0:0:0:0:
416,288,61894,1,2,0:0:0:0:
136,232,62228,1,10,0:0:0:0:
56,216,62394,1,8,0:1:0:0:
336,144,62728,6,0,L|496:144,2,140,10|8|8,0:0|0:1|0:0,0:0:0:0:
256,96,63561,1,8,0:0:0:0:
336,56,63728,1,10,0:1:0:0:
64,296,64061,6,0,P|40:208|80:160,1,140,10|8,0:0|0:1,0:0:0:0:
168,176,64561,2,0,P|192:96|160:56,1,140,2|8,0:0|0:0,0:0:0:0:
80,40,65061,1,8,0:1:0:0:
160,32,65228,1,0,0:0:0:0:
336,320,65394,6,0,L|480:320,1,140,10|8,0:0|0:1,0:0:0:0:
408,280,65894,2,0,L|400:192,1,70,2|8,0:0|0:0,0:0:0:0:
496,168,66228,2,0,L|336:168,1,140,10|0,0:0|0:0,0:0:0:0:
176,168,66728,6,0,L|24:168,2,140,14|8|8,0:0|0:1|0:0,0:0:0:0:
264,168,67561,1,8,0:0:0:0:
344,168,67728,1,8,0:1:0:0:
64,296,68061,5,10,0:0:0:0:
200,296,68394,1,8,0:1:0:0:
272,232,68561,2,0,L|112:232,1,140,2|8,0:0|0:0,0:0:0:0:
136,152,69061,1,8,0:1:0:0:
416,256,69394,6,0,P|456:200|408:144,1,140,14|8,0:0|0:1,0:0:0:0:
240,144,69894,2,0,P|200:88|248:32,1,140,6|2,0:0|0:0,0:0:0:0:
320,32,70394,1,8,0:1:0:0:
488,32,70561,6,0,L|320:32,1,140,14|8,0:0|0:0,0:0:0:0:
264,32,71061,1,8,0:1:0:0:
184,32,71228,1,14,0:0:0:0:
344,136,71561,2,0,L|440:136,2,70,8|8|8,0:1|0:1|0:1,0:0:0:0:
168,224,72061,6,0,L|0:224,1,140,14|8,0:0|0:1,0:0:0:0:
112,208,72561,1,2,0:0:0:0:
384,176,72894,1,10,0:0:0:0:
448,176,73061,1,8,0:1:0:0:
144,72,73394,6,0,L|312:72,1,140,10|8,0:0|0:1,0:0:0:0:
120,216,74061,2,0,L|120:128,1,70,8|8,0:0|0:0,0:0:0:0:
208,144,74394,1,8,0:1:0:0:
480,280,74728,6,0,L|320:280,1,140,10|8,0:0|0:1,0:0:0:0:
339,185,75228,2,0,L|491:185,1,140,2|8,0:0|0:0,0:0:0:0:
480,64,75728,1,8,0:1:0:0:
400,61,75894,1,0,0:0:0:0:
224,272,76061,6,0,P|192:200|240:144,1,140,10|8,0:0|0:1,0:0:0:0:
304,120,76561,2,0,L|136:120,1,140,2|8,0:0|0:0,0:0:0:0:
160,40,77061,1,8,0:1:0:0:
456,272,77394,6,0,L|296:272,2,140,14|8|8,0:0|0:1|0:0,0:0:0:0:
456,200,78228,1,8,0:0:0:0:
376,176,78394,1,8,0:1:0:0:
88,168,78728,6,0,L|248:168,1,140,10|8,0:0|0:1,0:0:0:0:
320,144,79228,2,0,P|352:88|312:32,1,140,2|8,0:0|0:0,0:0:0:0:
216,32,79728,1,8,0:1:0:0:
488,168,80061,6,0,L|328:168,2,140,10|8|8,0:0|0:1|0:0,0:0:0:0:
488,248,80894,1,8,0:0:0:0:
424,312,81061,1,8,0:1:0:0:
136,344,81394,6,0,L|136:200,1,140,10|8,0:0|0:1,0:0:0:0:
232,200,81894,2,0,L|376:200,1,140,2|8,0:0|0:0,0:0:0:0:
376,128,82394,1,8,0:1:0:0:
88,144,82728,6,0,P|48:80|104:32,1,140,14|8,0:0|0:1,0:0:0:0:
368,144,83394,2,0,P|408:80|352:32,1,140,10|8,0:1|0:1,0:0:0:0:
80,248,84061,6,0,L|240:248,1,140,14|8,0:1|0:1,0:0:0:0:
304,248,84561,1,10,0:0:0:0:
304,128,84728,2,0,L|144:128,1,140,8|8,0:1|0:1,0:0:0:0:
440,40,85394,6,0,L|272:40,2,140,14|8|8,0:1|0:1|0:1,0:0:0:0:
160,168,86394,1,8,0:1:0:0:
440,256,86728,6,0,P|472:176|432:136,1,140,14|8,0:0|0:1,0:0:0:0:
264,136,87228,2,0,L|104:136,1,140,14|8,0:0|0:0,0:0:0:0:
48,136,87728,1,4,0:3:0:0:
336,336,88061,6,0,L|496:336,1,140,14|8,0:0|0:1,0:0:0:0:
352,264,88727,1,8,0:0:0:0:
296,200,88894,1,8,0:0:0:0:
352,144,89061,1,8,0:1:0:0:
80,312,89394,6,0,L|248:312,1,140,10|8,0:0|0:1,0:0:0:0:
352,216,90061,1,8,0:0:0:0:
280,184,90227,1,8,0:0:0:0:
208,152,90394,1,8,0:1:0:0:
488,64,90727,6,0,L|336:64,2,140,10|8|8,0:0|0:1|0:0,0:0:0:0:
488,152,91561,1,8,0:0:0:0:
408,200,91727,1,8,0:1:0:0:
136,288,92061,6,0,L|288:288,1,140,10|8,0:0|0:1,0:0:0:0:
272,208,92561,2,0,L|120:208,1,140,2|8,0:0|0:0,0:0:0:0:
48,208,93061,1,8,0:1:0:0:
344,120,93394,6,0,L|480:56,2,140,14|8|8,0:0|0:1|0:0,0:0:0:0:
344,200,94227,1,8,0:0:0:0:
416,248,94394,1,10,0:1:0:0:
160,312,94727,6,0,L|16:304,1,140,10|8,0:0|0:1,0:0:0:0:
104,256,95227,2,0,P|136:192|88:128,1,140,2|8,0:0|0:0,0:0:0:0:
40,136,95727,1,8,0:1:0:0:
360,104,96061,6,0,L|512:104,2,140,10|8|8,0:0|0:1|0:0,0:0:0:0:
224,104,97061,1,8,0:1:0:0:
224,104,97228,1,8,0:0:0:0:
392,304,97394,6,0,P|432:240|368:200,1,140,14|14,0:1|0:1,0:0:0:0:
104,200,98061,2,0,L|32:200,2,70,10|8|8,0:1|0:0|0:3,0:0:0:0:
392,312,98728,6,0,L|232:312,1,140,14|8,0:0|0:1,0:0:0:0:
368,264,99394,1,8,0:0:0:0:
432,208,99561,1,8,0:0:0:0:
368,152,99728,1,8,0:1:0:0:
88,144,100061,6,0,L|240:144,1,140,10|8,0:0|0:1,0:0:0:0:
104,264,100728,1,8,0:0:0:0:
40,208,100895,1,8,0:0:0:0:
104,152,101062,1,8,0:1:0:0:
376,152,101394,6,0,L|512:112,2,140,10|8|8,0:0|0:1|0:0,0:0:0:0:
296,208,102228,1,8,0:0:0:0:
376,288,102394,2,0,L|384:192,1,70,8|2,0:1|0:0,0:0:0:0:
208,216,102728,6,0,L|56:216,1,140,10|8,0:0|0:1,0:0:0:0:
144,176,103228,2,0,L|296:176,1,140,2|8,0:0|0:0,0:0:0:0:
368,176,103728,1,8,0:1:0:0:
80,328,104061,6,0,L|224:328,2,140,14|8|10,0:0|0:1|0:0,0:0:0:0:
200,344,105061,1,8,0:1:0:0:
480,288,105394,6,0,L|320:288,1,140,10|8,0:0|0:1,0:0:0:0:
264,288,105894,1,2,0:0:0:0:
344,232,106061,2,0,L|416:232,2,70,8|8|8,0:0|0:0|0:1,0:0:0:0:
64,200,106728,6,0,P|40:128|80:64,1,140,10|8,0:0|0:1,0:0:0:0:
200,288,107394,1,8,0:0:0:0:
120,256,107561,1,8,0:0:0:0:
120,192,107728,1,8,0:1:0:0:
200,160,107894,1,8,0:0:0:0:
376,160,108061,6,0,L|464:160,2,70,10|12|14,0:1|0:1|0:1,0:0:0:0:
224,240,108728,1,8,0:1:0:0:
144,224,108894,2,0,P|112:160|160:104,1,140,8|4,0:3|0:3,0:0:0:0:
328,104,109394,5,14,0:0:0:0:
256,192,109728,12,2,112019,0:0:0:0:
