osu file format v14

[General]
AudioFilename: audio.mp3
AudioLeadIn: 0
PreviewTime: 4192
Countdown: 0
SampleSet: Soft
StackLeniency: 0.7
Mode: 0
LetterboxInBreaks: 0
WidescreenStoryboard: 1

[Editor]
DistanceSpacing: 0.3
BeatDivisor: 4
GridSize: 8
TimelineZoom: 1.9

[Metadata]
Title:Zankou Luminescence (Short ver.)
TitleUnicode:Zankou Luminescence (Short ver.)
Artist:yuiko
ArtistUnicode:yuiko
Creator:Maffe
Version:Wispy Hard
Source:Enkou Shoujo 2 ~JK Idol Masuzu no Baai~
Tags:visual novel eroge yuiko frill
BeatmapID:1403934
BeatmapSetID:663131

[Difficulty]
HPDrainRate:6
CircleSize:4
OverallDifficulty:6
ApproachRate:6
SliderMultiplier:0.8
SliderTickRate:1

[Events]
//Background and Video events
0,0,"864443.jpg",0,0
//Break Periods
//Storyboard Layer 0 (Background)
//Storyboard Layer 1 (Fail)
//Storyboard Layer 2 (Pass)
//Storyboard Layer 3 (Foreground)
//Storyboard Sound Samples

[TimingPoints]
4162,666.666666666667,4,2,1,70,1,0
4192,-100,4,2,1,70,0,0
4692,-100,4,2,1,30,0,0
5025,-100,4,2,1,100,0,0
5358,-100,4,2,1,70,0,0
6025,-100,4,2,1,30,0,0
6358,-100,4,2,1,100,0,0
6692,-100,4,2,1,70,0,0
7358,-100,4,2,1,30,0,0
7692,-100,4,2,1,100,0,0
8025,-100,4,2,1,70,0,0
8358,-100,4,2,1,30,0,0
8692,-100,4,2,1,70,0,0
9025,-100,4,2,1,30,0,0
9358,-100,4,2,1,70,0,0
10025,-100,4,2,1,30,0,0
10192,-100,4,2,1,30,0,0
10358,-100,4,2,1,30,0,0
10692,-100,4,2,1,70,0,0
11358,-100,4,2,1,30,0,0
11692,-100,4,2,1,100,0,0
12025,-100,4,2,1,70,0,0
12692,-100,4,2,1,30,0,0
13025,-100,4,2,1,100,0,0
13358,-133.333333333333,4,2,1,50,0,0
13692,-133.333333333333,4,2,1,5,0,0
14525,-133.333333333333,4,2,1,5,0,0
14692,-133.333333333333,4,2,1,5,0,0
15025,-133.333333333333,4,2,1,100,0,0
16429,526.315789473684,4,2,1,100,1,0
16429,-66.6666666666667,4,2,1,90,0,0
16956,263.157894736842,4,2,1,80,1,1
16956,-100,4,2,1,80,0,1
25311,-83.3333333333333,4,2,1,100,0,1
33732,-100,4,2,1,100,0,0
38403,-100,4,2,1,50,0,0
38666,-100,4,2,1,100,0,0

[Colours]
Combo1 : 74,134,255
Combo2 : 0,255,255
Combo3 : 0,0,128
Combo4 : 128,255,255

[HitObjects]
168,280,4162,22,0,P|160:256|152:192,1,80,0|0,0:0|0:0,0:0:0:0:
256,136,5495,2,0,P|248:160|240:224,1,80,0|0,0:0|0:0,0:0:0:0:
424,288,6828,6,0,P|400:280|336:272,1,80,0|0,0:0|0:0,0:0:0:0:
184,336,8162,2,0,P|176:304|176:288,1,40,0|0,0:0|0:0,0:0:0:0:
248,232,8828,2,0,P|254:199|261:185,1,40,0|0,0:0|0:0,0:0:0:0:
432,256,9495,6,0,P|408:264|344:272,1,80,0|0,0:0|0:0,0:0:0:0:
288,168,10828,2,0,P|312:176|376:184,1,80,0|0,0:0|0:0,0:0:0:0:
440,0,12161,6,0,P|432:24|424:88,1,80,0|0,0:0|0:0,0:0:0:0:
488,240,13495,6,0,P|464:248|368:256,1,120.000004577637,0|0,0:0|0:0,0:0:0:0:
232,208,16429,6,8,L|264:192,3,30.0000011444092,8|8|8|8,0:0|0:0|0:0|0:0,0:0:0:0:
328,160,16956,5,0,1:2:0:0:
144,104,17482,2,0,P|176:96|224:96,1,80,10|0,0:0|0:0,0:0:0:0:
304,112,17877,1,0,1:2:0:0:
296,80,18271,5,0,1:2:0:0:
424,192,18534,1,8,0:0:0:0:
384,120,18798,2,0,L|376:72,1,40,2|0,0:0|0:0,0:0:0:0:
360,0,19061,5,0,1:2:0:0:
472,48,19324,1,0,0:0:0:0:
344,192,19587,2,0,P|312:184|264:184,1,80,10|0,0:0|0:0,0:0:0:0:
184,200,19982,1,0,1:2:0:0:
203,230,20376,5,0,1:2:0:0:
64,280,20640,1,8,0:0:0:0:
110,168,20903,2,0,L|104:208,1,40,2|0,0:0|0:0,0:0:0:0:
128,88,21166,5,0,1:2:0:0:
16,136,21429,1,0,0:0:0:0:
144,280,21692,2,0,P|176:272|224:272,1,80,10|0,0:0|0:0,0:0:0:0:
304,288,22087,1,0,1:2:0:0:
296,256,22481,5,0,1:2:0:0:
424,368,22744,1,8,0:0:0:0:
384,296,23008,2,0,L|376:248,1,40,2|0,0:0|0:0,0:0:0:0:
360,176,23271,5,0,1:2:0:0:
472,224,23534,1,2,0:0:0:0:
344,368,23798,2,0,P|311:361|268:341,1,80,10|0,0:0|0:0,0:0:0:0:
202,293,24193,1,2,0:0:0:0:
230,279,24587,5,0,1:2:0:0:
127,169,24850,2,8,L|128:136,2,20,8|8|8,0:0|0:0|0:0,0:0:0:0:
120,72,25113,2,8,P|144:64|176:64,1,40,0|0,0:0|0:0,0:0:0:0:
248,88,25377,5,0,1:2:0:0:
224,176,25640,1,0,0:0:0:0:
400,168,25903,2,0,P|368:160|304:160,1,95.9999970703126,10|0,0:0|0:0,0:0:0:0:
224,176,26298,1,0,1:2:0:0:
232,144,26692,5,0,1:2:0:0:
104,256,26955,1,8,0:0:0:0:
144,184,27219,2,0,L|152:128,1,47.9999985351563,2|0,0:0|0:0,0:0:0:0:
160,56,27482,5,0,1:2:0:0:
56,112,27745,1,0,0:0:0:0:
184,256,28008,2,0,P|216:248|280:248,1,95.9999970703126,10|0,0:0|0:0,0:0:0:0:
360,264,28403,1,0,1:2:0:0:
347,289,28798,5,0,1:2:0:0:
488,344,29060,1,8,0:0:0:0:
433,224,29324,2,0,L|440:272,1,47.9999985351563,2|0,0:0|0:0,0:0:0:0:
416,144,29587,5,0,1:2:0:0:
512,208,29850,1,0,0:0:0:0:
408,352,30113,2,0,P|375:345|317:318,1,95.9999970703126,10|0,0:0|0:0,0:0:0:0:
251,270,30508,1,0,1:2:0:0:
245,302,30903,5,0,1:2:0:0:
169,144,31165,1,8,0:0:0:0:
182,229,31429,2,0,L|165:283,1,47.9999985351563,2|0,0:0|0:0,0:0:0:0:
150,355,31692,5,0,1:2:0:0:
90,256,31955,1,0,0:0:0:0:
245,302,32219,2,0,P|253:270|252:206,1,95.9999970703126,8|0,0:0|0:0,0:0:0:0:
232,128,32614,1,0,1:2:0:0:
176,184,33008,5,0,1:2:0:0:
120,32,33271,2,0,L|112:88,1,47.9999985351563
96,160,33534,2,0,L|88:216,1,47.9999985351563
256,192,33798,8,0,38534,0:0:0:0:
