osu file format v14

[General]
AudioFilename: audio.mp3
AudioLeadIn: 0
PreviewTime: 4192
Countdown: 0
SampleSet: Soft
StackLeniency: 0.7
Mode: 0
LetterboxInBreaks: 0
WidescreenStoryboard: 1

[Editor]
DistanceSpacing: 0.3
BeatDivisor: 4
GridSize: 8
TimelineZoom: 1.9

[Metadata]
Title:Zankou Luminescence (Short ver.)
TitleUnicode:Zankou Luminescence (Short ver.)
Artist:yuiko
ArtistUnicode:yuiko
Creator:Maffe
Version:Ponderous Hard
Source:Enkou Shoujo 2 ~JK Idol Masuzu no Baai~
Tags:visual novel eroge yuiko frill
BeatmapID:1403935
BeatmapSetID:663131

[Difficulty]
HPDrainRate:6
CircleSize:4
OverallDifficulty:7
ApproachRate:8
SliderMultiplier:1
SliderTickRate:1

[Events]
//Background and Video events
0,0,"864443.jpg",0,0
//Break Periods
//Storyboard Layer 0 (Background)
//Storyboard Layer 1 (Fail)
//Storyboard Layer 2 (Pass)
//Storyboard Layer 3 (Foreground)
//Storyboard Sound Samples

[TimingPoints]
4162,666.666666666667,4,2,1,70,1,0
4192,-100,4,2,1,70,0,0
4692,-100,4,2,1,30,0,0
5025,-100,4,2,1,100,0,0
5358,-100,4,2,1,70,0,0
6025,-100,4,2,1,30,0,0
6358,-100,4,2,1,100,0,0
6692,-100,4,2,1,70,0,0
7358,-100,4,2,1,30,0,0
7692,-100,4,2,1,100,0,0
8025,-100,4,2,1,70,0,0
8358,-100,4,2,1,30,0,0
8692,-100,4,2,1,70,0,0
9025,-100,4,2,1,30,0,0
9358,-100,4,2,1,70,0,0
10025,-100,4,2,1,30,0,0
10192,-100,4,2,1,30,0,0
10358,-100,4,2,1,30,0,0
10692,-100,4,2,1,70,0,0
11358,-100,4,2,1,30,0,0
11692,-100,4,2,1,100,0,0
12025,-100,4,2,1,70,0,0
12692,-100,4,2,1,30,0,0
13025,-100,4,2,1,100,0,0
13358,-133.333333333333,4,2,1,50,0,0
13692,-133.333333333333,4,2,1,5,0,0
14525,-133.333333333333,4,2,1,5,0,0
14692,-133.333333333333,4,2,1,5,0,0
15025,-133.333333333333,4,2,1,100,0,0
16429,526.315789473684,4,2,1,90,1,0
16956,263.157894736842,4,2,1,80,1,1
16956,-100,4,2,1,80,0,1
25311,-83.3333333333333,4,2,1,100,0,1
33732,-100,4,2,1,100,0,0
38403,-100,4,2,1,50,0,0
38666,-100,4,2,1,100,0,0

[Colours]
Combo1 : 74,134,255
Combo2 : 0,255,255
Combo3 : 0,0,128
Combo4 : 128,255,255

[HitObjects]
256,312,4162,22,0,L|240:192,1,100,0|0,0:0|0:0,0:0:0:0:
344,192,5495,2,0,L|360:72,1,100,0|0,0:0|0:0,0:0:0:0:
408,312,6828,6,0,L|304:304,1,100,0|0,0:0|0:0,0:0:0:0:
152,336,8162,2,0,L|160:272,1,50,0|0,0:0|0:0,0:0:0:0:
176,144,8828,2,0,L|168:208,1,50,0|0,0:0|0:0,0:0:0:0:
308,304,9495,6,0,L|292:184,1,100,0|0,0:0|0:0,0:0:0:0:
384,184,10828,2,0,L|400:64,1,100,0|0,0:0|0:0,0:0:0:0:
176,144,12162,6,0,L|288:128,1,100,0|0,0:0|0:0,0:0:0:0:
112,256,13495,2,0,L|272:272,1,150.000005722046,0|0,0:0|0:0,0:0:0:0:
304,240,16429,6,0,L|272:208,1,25,8|8,0:0|0:0,0:0:0:0:
224,160,16692,2,0,L|192:128,1,25,8|8,0:0|0:0,0:0:0:0:
120,288,16956,6,0,P|160:280|224:304,1,100,0|0,1:2|0:0,0:0:0:0:
256,368,17350,1,0,0:0:0:0:
352,304,17482,2,0,L|408:288,1,50,10|0,0:0|0:0,0:0:0:0:
300,190,17745,1,0,0:0:0:0:
300,190,17877,6,0,L|294:245,1,50,0|0,1:2|0:0,0:0:0:0:
209,120,18140,2,0,L|215:175,1,50,0|0,0:0|1:2,0:0:0:0:
170,269,18403,2,0,P|142:274|118:273,1,50,0|8,0:0|0:0,0:0:0:0:
62,199,18666,2,0,L|53:96,1,100,0|0,0:0|0:0,0:0:0:0:
168,152,19061,6,0,P|208:160|272:136,1,100,0|0,1:2|0:0,0:0:0:0:
304,72,19455,1,0,0:0:0:0:
448,149,19587,2,0,L|400:136,1,50,10|0,0:0|0:0,0:0:0:0:
348,250,19850,1,0,0:0:0:0:
348,250,19982,6,0,L|342:195,1,50,0|0,1:2|0:0,0:0:0:0:
235,283,20245,2,0,L|229:332,1,50,0|0,0:0|1:2,0:0:0:0:
218,171,20508,2,0,P|190:166|166:167,1,50,0|8,0:0|0:0,0:0:0:0:
110,241,20771,2,0,L|101:344,1,100,0|0,0:0|0:0,0:0:0:0:
200,264,21166,6,0,P|240:256|304:280,1,100,0|0,1:2|0:0,0:0:0:0:
336,344,21560,1,0,0:0:0:0:
432,280,21692,2,0,L|488:264,1,50,10|0,0:0|0:0,0:0:0:0:
380,166,21955,1,0,0:0:0:0:
380,166,22087,6,0,L|374:221,1,50,0|0,1:2|0:0,0:0:0:0:
289,96,22350,2,0,L|295:151,1,50,0|0,0:0|1:2,0:0:0:0:
250,245,22613,2,0,P|222:250|198:249,1,50,0|8,0:0|0:0,0:0:0:0:
142,175,22876,2,0,L|133:72,1,100,0|0,0:0|0:0,0:0:0:0:
232,152,23271,6,0,P|259:152|292:141,1,50,0|0,1:2|0:0,0:0:0:0:
322,26,23534,2,0,L|331:79,1,50,2|0,0:0|0:0,0:0:0:0:
440,120,23797,2,0,L|432:64,1,50,10|0,0:0|0:0,0:0:0:0:
412,250,24060,1,0,0:0:0:0:
412,250,24192,6,0,L|406:195,1,50,10|0,0:0|0:0,0:0:0:0:
305,285,24455,2,0,L|299:334,1,50,0|0,0:0|1:2,0:0:0:0:
282,171,24719,1,0,0:0:0:0:
194,257,24850,1,8,0:0:0:0:
194,257,24916,1,8,0:0:0:0:
194,257,24982,1,8,0:0:0:0:
104,280,25113,2,0,L|120:336,1,50,0|0,0:0|0:0,0:0:0:0:
301,292,25377,6,0,P|269:265|179:262,1,119.999996337891,0|0,1:2|0:0,0:0:0:0:
104,280,25771,1,0,0:0:0:0:
73,193,25903,2,0,L|25:145,1,59.9999981689454,10|0,0:0|0:0,0:0:0:0:
172,122,26166,1,0,0:0:0:0:
172,122,26298,6,0,L|152:184,1,59.9999981689454,0|0,1:2|0:0,0:0:0:0:
286,104,26561,2,0,L|248:152,1,59.9999981689454,0|0,0:0|1:2,0:0:0:0:
248,254,26824,2,0,P|270:271|312:288,1,59.9999981689454,0|8,0:0|0:0,0:0:0:0:
392,256,27087,2,0,L|424:128,1,119.999996337891,0|0,0:0|0:0,0:0:0:0:
315,198,27482,6,0,P|278:176|189:189,1,119.999996337891,0|0,1:2|0:0,0:0:0:0:
118,220,27876,1,0,0:0:0:0:
23,105,28008,2,0,L|72:139,1,59.9999981689454,10|0,0:0|0:0,0:0:0:0:
158,52,28271,1,0,0:0:0:0:
158,52,28403,6,0,L|149:116,1,59.9999981689454,0|0,1:2|0:0,0:0:0:0:
266,57,28666,2,0,L|296:4,1,59.9999981689454,0|0,0:0|1:2,0:0:0:0:
256,169,28929,2,0,P|280:181|324:191,1,59.9999981689454,0|8,0:0|0:0,0:0:0:0:
398,146,29192,2,0,L|407:14,1,119.999996337891,0|0,0:0|0:0,0:0:0:0:
310,132,29587,6,0,P|278:158|188:161,1,119.999996337891,0|0,1:2|0:0,0:0:0:0:
113,143,29981,1,0,0:0:0:0:
81,230,30113,2,0,L|33:278,1,59.9999981689454,10|0,0:0|0:0,0:0:0:0:
180,300,30376,1,0,0:0:0:0:
180,300,30508,6,0,L|160:238,1,59.9999981689454,0|0,1:2|0:0,0:0:0:0:
295,319,30771,2,0,L|257:271,1,59.9999981689454,0|0,0:0|1:2,0:0:0:0:
264,112,31034,2,0,P|285:95|328:77,1,59.9999981689454,0|8,0:0|0:0,0:0:0:0:
416,120,31297,2,0,L|448:248,1,119.999996337891
320,176,31692,6,0,P|280:190|195:162,1,119.999996337891,0|0,1:2|0:0,0:0:0:0:
130,119,32086,1,0,0:0:0:0:
15,215,32218,2,0,L|70:190,1,59.9999981689454,8|0,0:0|0:0,0:0:0:0:
139,290,32481,1,0,0:0:0:0:
139,290,32613,6,0,L|141:224,1,59.9999981689454,0|0,1:2|0:0,0:0:0:0:
232,320,32877,2,0,L|248:383,1,59.9999981689454
222,171,33140,1,8,0:0:0:0:
302,283,33271,1,8,0:0:0:0:
361,290,33402,1,8,0:0:0:0:
421,297,33534,1,8,0:0:0:0:
480,305,33665,1,8,0:0:0:0:
256,192,33798,12,0,38534,0:0:0:0:
