osu file format v14

[General]
AudioFilename: audio.mp3
AudioLeadIn: 0
PreviewTime: 125244
Countdown: 0
SampleSet: Soft
StackLeniency: 0.5
Mode: 0
LetterboxInBreaks: 0
EpilepsyWarning: 1
WidescreenStoryboard: 1

[Editor]
Bookmarks: 11837,32936,54035,64584,87002,98870,119969,130518,152936,164804,191178,191260,191425,191507,191672,191755,191919,192084,192167,192331,192414,192579,192661,192826,192991,193073,193238,193320,193485,193650,193733,193897,194062,194145,194309,194392,194557,194639,194804,194969,195051,195216,195298,195463,195628,195793,195875,196040,196205,196288,196452,196617,196700,196864,197029,197194,197277,197441,197606,197771,197936,198018,198183,198348,198513,198678,198760,198925,199090,199255,199419,199584,199667,199831,199996,200161,200244,213925,232057,236013,247881,256947,261562
DistanceSpacing: 1.2
BeatDivisor: 4
GridSize: 16
TimelineZoom: 1.600005

[Metadata]
Title:Kimi to Yumemishi
TitleUnicode:キミトユメミシ
Artist:yuiko
ArtistUnicode:ゆいこ
Creator:keeVY
Version:Yogurtt's Insane
Source:キミトユメミシ
Tags:lasse yogurtt kuse shikibe mayu kazato asa shizuku- japanese pop ゆいこんぬ yuikonnu primary video game eroge visual novel Laplacian Kimiyume kubsnia_zhoyl_
BeatmapID:3110303
BeatmapSetID:1501736

[Difficulty]
HPDrainRate:5
CircleSize:4
OverallDifficulty:8
ApproachRate:9
SliderMultiplier:1.76
SliderTickRate:1

[Events]
//Background and Video events
0,0,"8.jpg",0,0
//Break Periods
2,88520,92995
2,154455,158211
2,191377,199644
//Storyboard Layer 0 (Background)
//Storyboard Layer 1 (Fail)
//Storyboard Layer 2 (Pass)
//Storyboard Layer 3 (Foreground)
Sprite,Foreground,Centre,"sb\other\Yogurtt.png",0,240 S,0,251330,,0.35 MX,0,251330,253930,434,439 F,0,251430,251730,0,1 F,0,252579,253000,1,0
//Storyboard Layer 4 (Overlay)
//Storyboard Sound Samples

[TimingPoints]
1288,329.67032967033,4,2,1,60,1,0
1452,-166.666666666667,4,2,1,60,0,0
6562,-111.111111111111,4,2,1,75,0,0
7469,-111.111111111111,4,2,1,5,0,0
7552,-111.111111111111,4,2,1,75,0,0
7798,-111.111111111111,4,2,1,5,0,0
7881,-111.111111111111,4,2,1,75,0,0
8788,-111.111111111111,4,2,1,5,0,0
8870,-111.111111111111,4,2,1,75,0,0
11013,-249.999999999999,4,2,1,60,0,0
11507,-249.999999999999,4,2,1,65,0,0
11837,-125,4,2,1,60,0,0
13073,-125,4,2,1,5,0,0
13156,-125,4,2,1,60,0,0
27661,-125,4,2,1,60,0,0
30216,-125,4,2,1,5,0,0
30298,-125,4,2,1,60,0,0
31617,-125,4,2,1,70,0,0
32936,-111.111111111111,4,2,1,70,0,0
44722,-111.111111111111,4,2,1,5,0,0
44804,-111.111111111111,4,2,1,70,0,0
48760,-111.111111111111,4,2,1,75,0,0
52716,-111.111111111111,4,2,1,70,0,0
54364,-133.333333333333,4,2,1,70,0,0
55930,-133.333333333333,4,2,1,5,0,0
56012,-133.333333333333,4,2,1,70,0,0
56260,-133.333333333333,4,2,1,5,0,0
56342,-133.333333333333,4,2,1,70,0,0
56590,-133.333333333333,4,2,1,5,0,0
56672,-133.333333333333,4,2,1,70,0,0
59309,-133.333333333333,4,2,1,55,0,0
61947,-133.333333333333,4,2,1,70,0,0
62441,-117.647058823529,4,2,1,75,0,0
62936,-105.263157894737,4,2,1,80,0,0
63266,-105.263157894737,4,2,1,85,0,0
64255,-105.263157894737,4,2,1,70,0,0
64584,-100,4,2,1,90,0,1
75134,-100,4,2,1,80,0,0
75463,-100,4,2,1,80,0,1
75628,-100,4,2,1,90,0,1
83046,-125,4,2,1,90,0,1
85683,-100,4,2,1,90,0,1
87002,-100,4,2,1,80,0,0
97881,-250,4,2,1,70,0,0
98870,-111.111111111111,4,2,1,75,0,0
100106,-111.111111111111,4,2,1,5,0,0
100189,-111.111111111111,4,2,1,75,0,0
105381,-111.111111111111,4,2,1,5,0,0
105463,-111.111111111111,4,2,1,75,0,0
109667,-111.111111111111,4,2,1,5,0,0
109749,-111.111111111111,4,2,1,75,0,0
110656,-111.111111111111,4,2,1,5,0,0
110738,-111.111111111111,4,2,1,75,0,0
119969,-133.333333333333,4,2,1,70,0,0
121864,-133.333333333333,4,2,1,5,0,0
121946,-133.333333333333,4,2,1,70,0,0
122194,-133.333333333333,4,2,1,5,0,0
122276,-133.333333333333,4,2,1,70,0,0
122524,-133.333333333333,4,2,1,5,0,0
122606,-133.333333333333,4,2,1,70,0,0
125244,-133.333333333333,4,2,1,55,0,0
127881,-133.333333333333,4,2,1,70,0,0
128375,-117.647058823529,4,2,1,75,0,0
128870,-105.263157894737,4,2,1,80,0,0
129200,-105.263157894737,4,2,1,85,0,0
130189,-105.263157894737,4,2,1,70,0,0
130518,-100,4,2,1,90,0,1
141068,-100,4,2,1,75,0,0
141397,-100,4,2,1,90,0,1
148980,-125,4,2,1,90,0,1
151617,-100,4,2,1,90,0,1
152936,-100,4,2,1,80,0,0
164062,-100,4,2,1,5,0,0
164145,-100,4,2,1,80,0,0
165051,-100,4,2,1,5,0,0
165134,-100,4,2,1,80,0,0
167359,-100,4,2,1,5,0,0
167442,-100,4,2,1,80,0,0
167689,-100,4,2,1,5,0,0
167772,-100,4,2,1,80,0,0
170326,-100,4,2,1,5,0,0
170409,-100,4,2,1,80,0,0
172963,-100,4,2,1,5,0,0
173046,-100,4,2,1,80,0,0
184502,-100,4,2,1,5,0,0
184585,-100,4,2,1,80,0,0
184831,-100,4,2,1,5,0,0
184914,-100,4,2,1,80,0,0
185903,-100,4,2,1,75,0,0
187222,-125,4,2,1,75,0,0
188540,-125,4,2,1,65,0,0
191178,-125,4,2,1,55,0,0
200408,-125,4,2,1,60,0,0
201150,-125,4,2,1,5,0,0
201233,-125,4,2,1,60,0,0
201727,-125,4,2,1,70,0,0
201974,-125,4,2,1,5,0,0
202056,-125,4,2,1,70,0,0
204612,-125,4,2,1,5,0,0
204694,-125,4,2,1,70,0,0
209886,-125,4,2,1,5,0,0
209968,-125,4,2,1,70,0,0
213842,-125,4,2,1,5,0,0
213925,-90.9090909090909,4,2,1,90,0,1
223815,-90.9090909090909,4,2,1,85,0,0
224145,-90.9090909090909,4,2,1,90,0,1
232057,-111.111111111111,4,2,1,90,0,1
234694,-90.9090909090908,4,2,1,90,0,1
236013,-100,4,2,1,85,0,0
237579,-100,4,2,1,5,0,0
237661,-100,4,2,1,85,0,0
238897,-100,4,2,1,5,0,0
238979,-100,4,2,1,85,0,0
240216,-100,4,2,1,5,0,0
240298,-100,4,2,1,85,0,0
241535,-100,4,2,1,5,0,0
241617,-100,4,2,1,85,0,0
244172,-100,4,2,1,5,0,0
244254,-100,4,2,1,85,0,0
247716,-100,4,2,1,5,0,0
247881,-142.857142857143,4,2,1,70,0,0
252496,-142.857142857143,4,2,1,75,0,0
253156,-125,4,2,1,75,0,0
253650,-125,4,2,1,60,0,0
254309,-125,4,2,1,65,0,0
254969,-125,4,2,1,75,0,0
255298,-125,4,2,1,80,0,0
256947,-194.174757281553,4,2,1,70,0,0
257606,-194.174757281553,4,2,1,65,0,0
258266,-194.174757281553,4,2,1,55,0,0
258925,-194.174757281553,4,2,1,45,0,0
259584,-194.174757281553,4,2,1,35,0,0
260244,-194.174757281553,4,2,1,25,0,0
260903,-194.174757281553,4,2,1,15,0,0
261562,-194.174757281553,4,1,1,15,0,0

[Colours]
Combo1 : 250,180,240
Combo2 : 120,200,230
Combo3 : 255,230,130
Combo4 : 160,230,150

[HitObjects]
121,81,1288,5,2,0:0:0:0:
121,81,1452,2,0,P|95:133|108:186,1,105.599996777344,0|2,0:0|0:0,0:0:0:0:
216,97,2112,1,0,0:0:0:0:
241,87,2277,1,0,0:0:0:0:
266,90,2441,1,0,0:0:0:0:
240,182,2606,6,0,L|167:199,2,52.7999983886719,2|0|0,0:0|0:0|0:0,0:0:0:0:
284,248,3101,1,2,0:0:0:0:
258,318,3430,1,2,0:0:0:0:
442,374,3925,6,0,P|434:347|427:304,1,52.7999983886719,2|0,0:0|0:0,0:0:0:0:
429,322,4255,1,0,0:0:0:0:
340,311,4419,2,0,P|353:286|378:250,1,52.7999983886719,2|0,0:0|0:0,0:0:0:0:
201,259,4914,5,0,0:0:0:0:
145,344,5244,2,0,P|105:320|113:251,1,105.599996777344,2|0,0:0|0:0,0:0:0:0:
272,193,5738,2,0,P|230:213|160:225,1,105.599996777344,2|0,0:0|0:0,0:0:0:0:
172,224,6233,1,0,0:0:0:0:
21,192,6397,5,8,0:1:0:0:
21,192,6480,1,8,0:1:0:0:
21,192,6562,2,0,L|10:276,1,79.1999975830079,12|0,0:0|0:0,0:0:0:0:
88,114,6892,1,8,0:1:0:0:
88,114,7057,2,0,L|98:35,1,79.1999975830079,8|8,0:3|0:3,0:0:0:0:
167,90,7386,1,4,0:3:0:0:
275,127,7551,1,4,0:3:0:0:
386,10,7716,1,8,0:0:0:0:
241,56,7881,6,0,P|200:99|232:194,1,158.399995166016,12|0,0:1|0:0,0:0:0:0:
378,259,8375,1,8,0:3:0:0:
378,259,8540,2,0,P|419:216|387:121,1,158.399995166016,8|8,0:1|0:0,0:0:0:0:
273,264,9035,5,8,0:3:0:0:
273,264,9117,1,8,0:3:0:0:
273,264,9200,2,0,L|290:359,1,79.1999975830079,12|8,0:0|0:1,0:0:0:0:
341,187,9529,1,8,0:1:0:0:
275,127,9694,1,12,0:0:0:0:
461,64,9859,1,8,0:1:0:0:
338,203,10024,1,8,0:1:0:0:
279,26,10189,1,8,0:3:0:0:
360,97,10353,5,12,0:1:0:0:
360,97,11013,6,0,L|325:87,2,35.2,2|2|2,0:0|0:0|0:0,0:0:0:0:
197,164,11507,1,2,0:0:0:0:
197,164,11837,6,0,L|37:188,2,140.8,14|0|0,0:1|0:0|0:0,0:0:0:0:
140,308,12826,2,0,P|174:313|207:324,1,70.4,2|0,0:0|0:0,0:0:0:0:
282,370,13156,6,0,P|314:325|276:232,1,140.8,2|2,3:2|0:0,0:0:0:0:
214,243,13650,1,2,0:0:0:0:
384,132,13980,2,0,L|366:211,2,70.4,2|0|2,0:0|0:0|0:0,0:0:0:0:
226,32,14474,6,0,L|262:193,1,140.8,8|2,0:1|0:0,0:0:0:0:
335,37,14969,1,2,0:0:0:0:
146,153,15298,1,2,0:0:0:0:
350,273,15628,1,2,0:0:0:0:
282,319,15793,6,0,L|213:365,1,70.4,0|0,3:2|0:0,0:0:0:0:
150,335,16123,1,0,0:0:0:0:
76,362,16288,2,0,P|48:330|82:228,1,140.8,2|2,0:0|0:0,0:0:0:0:
139,253,16782,2,0,L|218:235,1,70.4,2|2,0:0|0:0,0:0:0:0:
68,162,17112,6,0,L|-11:144,2,70.4,10|0|2,0:1|0:0|0:0,0:0:0:0:
169,35,17606,2,0,P|153:108|145:180,1,140.8,2|0,0:0|0:0,0:0:0:0:
242,86,18101,2,0,P|246:120|253:155,1,70.4,2|0,0:0|0:0,0:0:0:0:
299,248,18430,6,0,P|264:255|229:259,2,70.4,2|0|2,3:2|0:0|0:0,0:0:0:0:
365,202,18925,1,2,0:0:0:0:
239,342,19255,1,2,0:0:0:0:
99,216,19584,1,2,0:0:0:0:
130,290,19749,6,0,P|122:324|118:359,1,70.4,8|0,0:1|0:0,0:0:0:0:
118,359,20079,1,0,0:0:0:0:
226,323,20244,2,0,B|303:308|285:365|385:333,1,140.8,2|0,0:0|0:0,0:0:0:0:
449,373,20738,2,0,P|440:319|441:278,1,70.4,2|2,0:0|0:0,0:0:0:0:
449,201,21068,5,2,3:2:0:0:
429,212,21233,1,2,0:0:0:0:
406,211,21397,1,2,0:0:0:0:
382,196,21562,2,0,P|373:142|374:101,1,70.4,2|0,0:0|0:0,0:0:0:0:
200,229,22057,6,0,L|124:247,1,70.4,2|0,0:0|0:0,0:0:0:0:
61,123,22386,2,0,L|226:153,2,140.8,10|0|0,0:1|0:0|0:0,0:0:0:0:
309,27,23375,2,0,P|287:62|278:110,1,70.4,2|0,0:0|0:0,0:0:0:0:
304,182,23705,6,0,P|360:146|370:62,1,140.8,2|2,3:2|0:0,0:0:0:0:
262,105,24200,2,0,L|162:119,1,70.4,2|0,0:0|0:0,0:0:0:0:
327,203,24529,1,2,0:0:0:0:
327,203,24694,2,0,L|396:193,1,70.4,2|0,0:0|0:0,0:0:0:0:
250,288,25024,6,0,B|195:279|195:279|168:289|168:289|87:273,1,140.8,10|2,0:1|0:0,0:0:0:0:
151,192,25518,2,0,B|96:201|96:201|69:191|69:191|-12:207,1,140.8,2|2,0:0|0:0,0:0:0:0:
105,117,26013,1,2,0:0:0:0:
235,168,26178,1,2,0:0:0:0:
112,278,26342,6,0,L|106:353,2,70.4,2|2|2,3:2|0:0|0:0,0:0:0:0:
260,384,26837,2,0,L|243:233,1,140.8,2|2,0:0|0:0,0:0:0:0:
326,168,27331,6,0,P|361:186|371:230,1,70.4,2|0,0:0|0:0,0:0:0:0:
370,222,27579,1,2,0:0:0:0:
363,227,27661,2,0,P|316:201|341:117,1,140.8,10|0,0:1|0:0,0:0:0:0:
389,77,28156,1,2,0:0:0:0:
230,125,28485,1,0,0:0:0:0:
71,173,28815,1,0,0:0:0:0:
135,93,28980,6,0,L|116:22,1,70.4,2|0,3:2|0:0,0:0:0:0:
149,213,29309,2,0,L|167:281,1,70.4,2|0,0:0|0:0,0:0:0:0:
248,143,29639,1,2,0:0:0:0:
252,133,29969,1,2,0:0:0:0:
258,126,30298,6,0,L|345:102,2,70.4,10|0|2,0:1|0:0|0:0,0:0:0:0:
375,33,30793,2,0,P|409:67|394:162,1,140.8,2|2,0:0|0:0,0:0:0:0:
322,190,31288,2,0,L|340:257,1,70.4,2|0,0:0|0:0,0:0:0:0:
304,329,31617,5,8,0:3:0:0:
232,300,31782,1,2,0:0:0:0:
223,198,31947,1,2,0:0:0:0:
151,227,32112,1,8,0:3:0:0:
272,101,32441,5,4,0:3:0:0:
151,227,32606,2,0,P|118:170|140:115,1,105.6,6|0,0:3|0:0,0:0:0:0:
178,73,32936,6,0,P|131:112|16:81,1,158.399995166016,14|10,0:1|0:1,0:0:0:0:
221,180,33430,2,0,P|295:194|404:217,1,158.399995166016,2|2,0:0|0:0,0:0:0:0:
465,148,33925,1,10,0:1:0:0:
407,279,34090,1,2,3:2:0:0:
465,148,34255,6,0,P|453:99|447:53,1,79.1999975830079,10|0,0:1|0:0,0:0:0:0:
277,96,34584,1,10,0:1:0:0:
277,96,34749,2,0,P|325:118|362:112,1,79.1999975830079,2|8,0:0|0:1,0:0:0:0:
293,18,35079,2,0,P|286:57|276:95,1,79.1999975830079,10|8,0:0|0:1,0:0:0:0:
221,180,35408,1,2,0:0:0:0:
36,128,35573,6,0,P|74:118|209:101,1,158.399995166016,10|10,0:1|0:1,0:0:0:0:
97,245,36068,2,0,P|116:249|183:258,1,79.1999975830079,2|8,0:0|0:1,0:0:0:0:
298,167,36397,2,0,P|258:171|220:179,1,79.1999975830079,2|8,0:0|0:1,0:0:0:0:
152,280,36727,1,2,3:2:0:0:
277,345,36892,5,8,0:1:0:0:
174,257,37057,1,0,0:0:0:0:
312,150,37222,1,8,0:1:0:0:
261,254,37386,2,0,P|235:185|242:81,1,158.399995166016,0|10,0:0|0:1,0:0:0:0:
323,60,37881,1,10,0:0:0:0:
323,60,37963,1,8,0:0:0:0:
323,60,38046,1,10,0:1:0:0:
398,148,38211,6,0,P|411:182|407:234,1,79.1999975830079,10|0,0:1|0:0,0:0:0:0:
341,277,38540,1,10,0:1:0:0:
246,283,38705,2,0,P|280:296|332:292,1,79.1999975830079,2|8,0:0|0:1,0:0:0:0:
130,142,39200,6,0,L|148:245,1,79.1999975830079,10|0,0:1|3:2,0:0:0:0:
35,318,39529,2,0,B|52:255|52:255|43:222|43:222|52:163,1,158.399995166016,10|10,0:1|0:1,0:0:0:0:
91,61,40024,2,0,L|194:43,1,79.1999975830079,2|8,0:0|0:1,0:0:0:0:
249,85,40353,1,10,0:0:0:0:
217,158,40518,1,8,0:1:0:0:
318,213,40683,1,2,3:2:0:0:
318,213,40848,6,0,P|350:167|337:68,2,158.399995166016,10|8|8,0:1|0:1|0:1,0:0:0:0:
508,237,41837,5,10,0:1:0:0:
436,264,42002,1,2,0:0:0:0:
364,291,42167,1,10,0:1:0:0:
445,184,42331,5,0,0:0:0:0:
424,347,42496,1,8,0:1:0:0:
445,184,42661,2,0,L|429:91,2,79.1999975830079,10|0|8,0:0|0:0|0:1,0:0:0:0:
340,280,43156,1,10,0:3:0:0:
218,184,43320,5,2,3:2:0:0:
211,177,43403,1,0,3:2:0:0:
203,170,43485,2,0,L|385:197,2,158.399995166016,10|8|8,0:1|0:1|0:1,0:0:0:0:
174,97,44309,1,8,0:0:0:0:
16,175,44474,2,0,P|-3:135|12:75,1,79.1999975830079,10|0,0:1|0:0,0:0:0:0:
90,120,44804,6,0,P|92:197|99:302,1,158.399995166016,10|10,0:1|0:1,0:0:0:0:
16,301,45298,2,0,P|53:350|161:331,1,158.399995166016,2|2,0:0|0:0,0:0:0:0:
180,275,45793,1,10,0:1:0:0:
180,275,45958,1,8,0:3:0:0:
294,336,46123,6,0,L|386:324,1,79.1999975830079,10|0,0:1|0:0,0:0:0:0:
277,322,46452,1,10,0:1:0:0:
227,197,46617,6,0,L|135:185,1,79.1999975830079,2|8,0:0|0:1,0:0:0:0:
244,183,46946,1,2,0:0:0:0:
325,243,47112,1,10,0:1:0:0:
336,142,47277,1,10,0:0:0:0:
148,186,47441,6,0,P|128:152|133:106,1,79.1999975830079,12|8,0:1|0:1,0:0:0:0:
284,12,47771,1,8,0:0:0:0:
230,103,47936,1,12,0:1:0:0:
230,103,48266,6,0,L|213:45,2,39.5999987915039,2|2|10,0:0|0:0|0:1,0:0:0:0:
4,154,48760,6,0,P|-16:208|30:299,1,158.399995166016,14|8,0:1|0:0,0:0:0:0:
24,295,49419,1,0,0:0:0:0:
92,262,49584,1,8,0:1:0:0:
163,286,49749,1,8,0:0:0:0:
196,353,49914,1,0,0:0:0:0:
245,229,50079,6,0,L|230:139,1,79.1999975830079,8|0,0:1|0:0,0:0:0:0:
350,57,50408,1,10,0:0:0:0:
310,160,50573,1,0,0:0:0:0:
153,137,50738,2,0,L|231:150,1,79.1999975830079,10|0,0:1|0:0,0:0:0:0:
376,64,51068,2,0,L|297:77,1,79.1999975830079,8|2,0:0|0:0,0:0:0:0:
334,239,51397,6,0,L|524:279,2,158.399995166016,10|8|0,0:1|0:0|0:0,0:0:0:0:
278,297,52222,1,8,0:1:0:0:
212,255,52386,1,8,0:0:0:0:
207,334,52551,5,8,0:1:0:0:
207,334,52634,1,8,0:1:0:0:
207,334,52716,1,14,0:1:0:0:
334,239,52881,1,0,0:0:0:0:
199,166,53046,1,8,0:0:0:0:
94,287,53211,5,8,0:0:0:0:
94,287,53293,1,8,0:0:0:0:
94,287,53375,2,0,L|102:199,1,79.1999975830079,10|8,0:3|0:0,0:0:0:0:
240,178,53705,2,0,L|232:90,1,79.1999975830079,8|8,0:0|0:0,0:0:0:0:
89,38,54035,5,12,0:1:0:0:
89,38,54364,2,0,P|36:75|43:163,1,132.000005035401,10|10,0:1|0:0,0:0:0:0:
210,82,55024,1,2,0:0:0:0:
283,140,55189,2,0,L|318:166,1,33.0000012588501,10|8,0:0|0:0,0:0:0:0:
326,172,55353,2,0,P|386:156|477:138,1,132.000005035401,8|10,0:1|0:1,0:0:0:0:
454,141,55848,1,0,0:0:0:0:
479,253,56013,2,0,P|419:269|328:287,1,132.000005035401,8|2,0:0|0:0,0:0:0:0:
161,376,56672,6,0,B|122:323|122:323|138:240,1,132.000005035401,14|10,0:1|0:1,0:0:0:0:
134,257,57167,1,0,0:0:0:0:
254,129,57331,2,0,B|293:182|293:182|277:265,1,132.000005035401,8|10,0:0|0:1,0:0:0:0:
160,189,57826,2,0,L|113:183,1,33.0000012588501,8|8,0:0|0:0,0:0:0:0:
109,169,57991,2,0,L|95:94,1,66.0000025177003,8|8,0:1|0:0,0:0:0:0:
165,62,58320,1,10,0:1:0:0:
23,145,58485,5,8,0:3:0:0:
23,145,58568,1,8,0:3:0:0:
23,145,58650,1,10,0:0:0:0:
197,265,58980,1,10,0:0:0:0:
214,55,59309,1,6,0:0:0:0:
226,64,59969,1,2,0:0:0:0:
238,73,60628,1,2,0:0:0:0:
250,82,61947,6,0,L|326:64,1,66.0000025177003,14|10,0:0|0:1,0:0:0:0:
180,13,62277,1,8,0:1:0:0:
289,226,62441,6,0,L|307:136,1,74.8000014266968,14|10,0:0|0:1,0:0:0:0:
153,105,62771,1,10,0:1:0:0:
205,301,62936,6,0,L|227:416,1,83.5999977676392,14|8,0:0|0:1,0:0:0:0:
289,226,63266,1,14,0:0:0:0:
117,305,63430,1,8,0:0:0:0:
219,155,63595,1,10,0:0:0:0:
220,383,63760,1,14,0:0:0:0:
430,287,64584,6,0,P|464:213|425:116,1,176,14|10,0:1|0:0,0:0:0:0:
338,94,65079,2,0,P|329:138|359:189,1,88,8|8,0:1|0:1,0:0:0:0:
449,101,65408,1,10,0:1:0:0:
299,23,65573,1,8,0:0:0:0:
262,204,65738,5,10,0:0:0:0:
262,204,65820,1,8,0:0:0:0:
262,204,65903,2,0,P|317:184|380:169,1,88,8|8,0:1|0:1,0:0:0:0:
187,124,66233,1,10,0:0:0:0:
118,277,66397,2,0,P|199:292|305:336,1,176,2|0,0:0|0:0,0:0:0:0:
212,263,66892,1,8,0:0:0:0:
158,381,67057,1,8,0:0:0:0:
30,282,67222,6,0,L|7:178,1,88,10|0,0:1|0:0,0:0:0:0:
146,100,67551,1,10,0:0:0:0:
98,362,67716,2,0,L|121:258,1,88,10|8,0:1|0:1,0:0:0:0:
132,65,68046,2,0,P|67:66|65:157,1,132,10|0,0:1|0:0,0:0:0:0:
128,158,68375,6,0,P|154:146|242:133,1,88,14|0,0:1|0:0,0:0:0:0:
330,48,68705,2,0,P|327:76|294:159,1,88,10|8,0:1|0:0,0:0:0:0:
324,277,69035,2,0,P|300:260|245:190,1,88,10|0,0:1|0:1,0:0:0:0:
211,133,69364,1,10,0:1:0:0:
352,30,69529,1,8,0:0:0:0:
472,194,69694,5,10,0:0:0:0:
472,194,69777,1,8,0:0:0:0:
472,194,69859,2,0,P|428:186|303:129,2,176,12|8|10,0:1|0:0|0:1,0:0:0:0:
339,257,70683,1,8,0:1:0:0:
453,365,70848,2,0,P|436:305|433:255,1,88,10|0,0:0|0:0,0:0:0:0:
314,353,71178,5,10,0:1:0:0:
433,279,71342,1,8,0:1:0:0:
278,206,71507,1,10,0:0:0:0:
346,337,71672,2,0,P|250:323|151:308,1,176,10|8,0:1|0:1,0:0:0:0:
66,370,72167,2,0,P|29:336|69:244,1,132,10|0,0:0|0:0,0:0:0:0:
69,246,72496,6,0,L|58:348,1,88,10|8,0:0|0:1,0:0:0:0:
199,99,72826,2,0,L|188:201,1,88,10|10,0:0|0:1,0:0:0:0:
44,165,73156,2,0,L|33:267,1,88,8|10,0:0|0:1,0:0:0:0:
35,253,73403,1,8,0:0:0:0:
35,253,73485,1,8,0:0:0:0:
105,87,73650,5,14,0:1:0:0:
189,186,73815,1,0,0:0:0:0:
245,61,73980,5,14,0:1:0:0:
113,201,74145,1,10,0:0:0:0:
280,275,74309,6,0,P|287:218|298:173,1,88,10|12,0:0|0:1,0:0:0:0:
333,95,74639,1,8,0:0:0:0:
333,95,74722,1,8,0:0:0:0:
333,95,74804,1,8,0:0:0:0:
380,230,74969,1,8,0:1:0:0:
207,154,75134,1,2,0:0:0:0:
207,154,75463,6,0,L|407:195,1,176,14|8,0:0|0:1,0:0:0:0:
466,114,75958,1,10,0:1:0:0:
466,114,76040,1,8,0:1:0:0:
466,114,76123,1,8,0:0:0:0:
512,198,76288,1,10,0:0:0:0:
485,289,76452,6,0,P|444:307|388:319,1,88,8|0,0:1|0:0,0:0:0:0:
438,296,76782,2,0,P|393:294|337:282,1,88,10|2,0:0|0:0,0:0:0:0:
276,383,77112,2,0,P|235:363|190:327,1,88,8|0,0:1|0:0,0:0:0:0:
248,262,77441,2,0,P|220:227|193:176,1,88,8|0,0:0|0:0,0:0:0:0:
162,112,77771,6,0,P|120:148|146:257,1,176,10|10,0:1|0:0,0:0:0:0:
246,122,78266,2,0,L|351:103,1,88,10|8,0:0|0:1,0:0:0:0:
88,169,78595,2,0,L|-17:150,1,88,10|8,0:1|0:0,0:0:0:0:
132,29,78925,6,0,L|168:129,1,88,10|0,0:1|0:0,0:0:0:0:
332,105,79255,2,0,L|295:205,1,88,10|8,0:1|0:0,0:0:0:0:
88,169,79584,2,0,L|124:269,1,88,10|8,0:1|0:1,0:0:0:0:
262,327,79914,1,10,0:1:0:0:
303,188,80079,1,8,0:0:0:0:
160,242,80244,2,0,L|94:256,1,44,10|8,0:1|0:1,0:0:0:0:
226,344,80408,6,0,L|311:365,1,88,12|8,0:0|0:1,0:0:0:0:
433,216,80738,1,8,0:0:0:0:
306,278,80903,1,8,0:1:0:0:
455,374,81068,5,8,0:0:0:0:
455,374,81233,1,8,0:1:0:0:
281,270,81397,1,10,0:0:0:0:
281,270,81562,1,8,0:1:0:0:
439,123,81727,5,14,0:0:0:0:
385,282,81892,1,8,0:1:0:0:
226,228,82057,1,10,0:0:0:0:
351,37,82222,6,0,B|321:145|321:145|354:221,1,176,10|8,0:1|0:1,0:0:0:0:
240,122,82716,1,10,0:0:0:0:
146,241,82881,1,8,0:1:0:0:
138,251,82963,1,8,0:1:0:0:
130,259,83046,2,0,P|89:284|45:292,2,70.4,14|0|0,0:0|0:0|0:0,0:0:0:0:
27,136,83540,1,2,0:0:0:0:
27,136,83705,2,0,P|-13:174|19:268,1,140.8,12|0,0:0|0:0,0:0:0:0:
126,150,84200,5,10,0:1:0:0:
250,70,84364,1,10,0:0:0:0:
240,144,84529,1,10,0:0:0:0:
270,217,84694,1,6,0:3:0:0:
260,291,84859,1,6,0:3:0:0:
260,291,85024,1,6,0:3:0:0:
345,187,85353,5,10,0:0:0:0:
174,301,85683,2,0,P|76:316|12:263,1,176,14|10,0:0|0:1,0:0:0:0:
39,113,86178,2,0,P|42:157|47:201,1,88,12|8,0:0|0:1,0:0:0:0:
193,32,86507,1,12,0:0:0:0:
121,140,86672,1,8,0:0:0:0:
317,88,86837,1,12,0:0:0:0:
256,192,86919,12,14,88320,0:1:0:0:
84,168,93595,6,0,L|194:145,1,88,14|0,0:1|0:0,0:0:0:0:
301,165,93925,1,2,0:0:0:0:
301,165,94090,2,0,L|411:142,1,88,8|0,0:3|0:0,0:0:0:0:
230,320,94584,5,6,0:3:0:0:
267,250,94749,1,8,0:0:0:0:
155,173,94914,2,0,P|121:246|145:343,1,176,14|8,0:1|0:1,0:0:0:0:
315,360,95408,1,8,0:0:0:0:
315,360,95491,1,8,0:0:0:0:
315,360,95573,2,0,P|349:287|325:190,1,176,10|8,0:1|0:0,0:0:0:0:
221,80,96068,5,8,0:1:0:0:
221,80,96150,1,8,0:1:0:0:
221,80,96233,2,0,P|232:134|243:196,1,88,14|8,0:0|0:1,0:0:0:0:
310,87,96562,1,10,0:1:0:0:
155,202,96727,1,14,0:0:0:0:
329,196,96892,1,8,0:1:0:0:
215,149,97057,1,8,0:1:0:0:
225,323,97222,1,8,0:0:0:0:
394,258,97386,5,14,0:1:0:0:
145,113,97881,5,2,0:0:0:0:
145,113,97963,1,2,0:0:0:0:
145,113,98046,2,0,L|104:122,2,35.2,2|2|2,0:0|0:0|0:0,0:0:0:0:
44,206,98540,1,2,0:0:0:0:
44,206,98870,6,0,B|92:219|137:228|137:228|177:218|185:164,1,158.399995166016,14|8,0:1|0:0,0:0:0:0:
90,108,99364,1,0,0:0:0:0:
125,262,99529,2,0,P|138:320|140:351,1,79.1999975830079,8|0,0:1|0:0,0:0:0:0:
318,229,99859,2,0,P|284:255|242:258,1,79.1999975830079,10|0,0:0|0:0,0:0:0:0:
217,30,100189,6,0,P|234:107|255:183,1,158.399995166016,10|10,0:1|0:0,0:0:0:0:
342,68,100683,2,0,P|331:106|322:144,1,79.1999975830079,2|8,0:0|0:1,0:0:0:0:
413,213,101013,1,10,0:1:0:0:
345,70,101178,1,8,0:0:0:0:
502,171,101342,1,0,3:2:0:0:
468,267,101507,6,0,B|407:255|407:255|374:271|374:271|306:256,1,158.399995166016,10|10,0:1|0:0,0:0:0:0:
234,158,102002,2,0,L|122:181,1,79.1999975830079,2|8,0:0|0:1,0:0:0:0:
216,332,102331,2,0,L|239:220,1,79.1999975830079,2|8,0:0|0:0,0:0:0:0:
108,107,102661,5,2,0:0:0:0:
108,107,102826,2,0,P|77:152|135:254,1,158.399995166016,8|10,0:1|0:0,0:0:0:0:
172,152,103320,2,0,L|249:136,1,79.1999975830079,2|8,0:0|0:1,0:0:0:0:
318,68,103650,1,2,0:0:0:0:
243,228,103815,1,10,0:0:0:0:
442,177,103980,1,0,3:2:0:0:
354,151,104145,6,0,B|336:199|336:199|360:324,1,158.399995166016,10|10,0:1|0:0,0:0:0:0:
257,252,104639,2,0,B|179:256|201:303|108:307,1,158.399995166016,2|0,0:0|0:0,0:0:0:0:
20,222,105134,2,0,P|-13:182|7:113,1,118.799996374512,10|0,0:0|0:0,0:0:0:0:
85,65,105463,6,0,L|72:153,1,79.1999975830079,10|0,0:1|0:0,0:0:0:0:
225,48,105793,1,10,0:0:0:0:
148,178,105958,1,2,0:0:0:0:
62,49,106123,1,8,0:1:0:0:
62,49,106288,2,0,L|150:36,2,79.1999975830079,2|8|2,0:0|0:0|3:2,0:0:0:0:
226,137,106782,6,0,L|404:164,2,158.399995166016,8|8|8,0:1|0:0|0:1,0:0:0:0:
451,42,107771,1,10,0:0:0:0:
382,160,107936,1,2,0:0:0:0:
503,235,108101,5,10,0:1:0:0:
470,148,108266,1,2,0:0:0:0:
490,237,108430,1,10,0:0:0:0:
482,145,108595,1,2,0:0:0:0:
477,237,108760,1,10,0:0:0:0:
408,298,108925,1,10,0:1:0:0:
408,298,109007,1,8,0:1:0:0:
408,298,109090,1,10,0:0:0:0:
315,291,109255,1,2,0:0:0:0:
239,167,109419,6,0,L|417:194,2,158.399995166016,14|8|8,0:1|0:0|0:1,0:0:0:0:
92,175,110408,2,0,L|13:163,1,79.1999975830079,10|0,0:0|0:0,0:0:0:0:
182,86,110738,2,0,P|148:127|156:228,1,158.399995166016,14|10,0:1|0:0,0:0:0:0:
287,350,111233,2,0,P|321:309|313:208,1,158.399995166016,2|2,0:0|0:0,0:0:0:0:
99,329,111727,2,0,L|178:318,1,79.1999975830079,10|0,0:0|0:0,0:0:0:0:
313,209,112057,6,0,L|142:184,1,158.399995166016,14|10,0:1|0:0,0:0:0:0:
237,37,112551,2,0,P|241:85|262:123,1,79.1999975830079,2|8,0:0|0:1,0:0:0:0:
411,33,112881,1,2,0:0:0:0:
330,190,113046,1,10,0:0:0:0:
312,61,113211,1,10,0:0:0:0:
464,124,113375,6,0,P|500:175|458:267,1,158.399995166016,12|8,0:1|0:1,0:0:0:0:
404,304,113870,1,8,0:3:0:0:
326,287,114035,1,8,0:1:0:0:
267,233,114200,1,0,0:0:0:0:
188,225,114364,1,10,0:0:0:0:
181,242,114446,1,8,0:0:0:0:
175,260,114528,1,10,0:0:0:0:
168,278,114611,1,8,0:0:0:0:
159,297,114694,2,0,B|146:235|146:235|123:214|123:214|106:120,1,158.399995166016,14|8,0:1|0:0,0:0:0:0:
263,13,115353,5,8,0:1:0:0:
204,81,115518,1,0,0:0:0:0:
261,146,115683,2,0,P|299:163|356:162,1,79.1999975830079,8|0,0:0|0:0,0:0:0:0:
412,105,116013,6,0,P|374:142|374:259,1,158.399995166016,8|10,0:1|0:0,0:0:0:0:
315,83,116672,1,10,0:0:0:0:
201,194,116837,1,8,0:1:0:0:
186,204,116919,1,8,0:1:0:0:
173,214,117002,2,0,L|70:228,1,79.1999975830079,8|10,0:0|0:1,0:0:0:0:
22,77,117331,6,0,L|208:110,2,158.399995166016,10|10|10,0:0|0:0|0:0,0:0:0:0:
119,10,118156,1,10,0:1:0:0:
176,107,118320,1,10,0:0:0:0:
296,38,118485,5,10,0:1:0:0:
296,38,118568,1,8,0:1:0:0:
296,38,118650,1,14,0:0:0:0:
201,194,118815,1,0,0:0:0:0:
46,167,118980,1,8,0:0:0:0:
148,303,119145,5,8,0:1:0:0:
148,303,119227,1,8,0:1:0:0:
148,303,119309,2,0,L|233:282,1,79.1999975830079,10|8,0:0|0:0,0:0:0:0:
262,129,119639,2,0,L|338:147,1,79.1999975830079,8|8,0:0|0:0,0:0:0:0:
416,321,119969,5,12,0:1:0:0:
416,321,120298,2,0,P|423:237|431:170,1,132.000005035401,10|10,0:1|0:0,0:0:0:0:
307,265,120958,1,2,0:0:0:0:
224,284,121123,2,0,L|173:272,1,33.0000012588501,10|8,0:0|0:0,0:0:0:0:
106,310,121288,2,0,P|76:274|106:182,1,132.000005035401,8|10,0:1|0:1,0:0:0:0:
90,195,121782,1,0,0:0:0:0:
302,158,121947,2,0,P|266:188|179:156,1,132.000005035401,8|10,0:0|0:1,0:0:0:0:
356,333,122606,6,0,L|506:367,1,132.000005035401,14|10,0:1|0:1,0:0:0:0:
484,362,123101,1,0,0:0:0:0:
469,212,123266,2,0,L|329:243,1,132.000005035401,8|10,0:0|0:1,0:0:0:0:
248,356,123760,2,0,L|236:319,1,33.0000012588501,8|8,0:0|0:0,0:0:0:0:
252,297,123925,2,0,L|259:209,1,66.0000025177003,8|8,0:1|0:0,0:0:0:0:
189,99,124255,1,10,0:1:0:0:
323,169,124419,5,8,0:3:0:0:
323,169,124502,1,8,0:3:0:0:
323,169,124584,1,10,0:0:0:0:
137,237,124914,1,10,0:0:0:0:
69,51,125244,1,6,0:0:0:0:
66,67,125903,1,2,0:0:0:0:
63,83,126562,1,2,0:0:0:0:
60,99,127881,6,0,P|90:122|130:128,1,66.0000025177003,14|8,0:0|0:1,0:0:0:0:
214,103,128211,1,10,0:1:0:0:
65,201,128375,6,0,P|42:231|38:282,1,74.8000014266968,14|8,0:0|0:1,0:0:0:0:
131,372,128705,1,8,0:1:0:0:
258,210,128870,6,0,P|229:193|173:190,1,83.5999977676392,14|8,0:0|0:1,0:0:0:0:
35,266,129200,1,14,0:0:0:0:
214,350,129364,1,8,0:0:0:0:
116,128,129529,1,10,0:0:0:0:
131,372,129694,1,14,0:0:0:0:
291,298,130518,6,0,L|485:272,1,176,14|10,0:1|0:0,0:0:0:0:
340,164,131013,2,0,P|307:187|245:188,1,88,2|8,0:0|0:1,0:0:0:0:
149,82,131342,1,10,0:1:0:0:
278,115,131507,1,8,0:0:0:0:
161,300,131672,5,10,0:0:0:0:
161,300,131755,1,8,0:0:0:0:
161,300,131837,2,0,P|170:256|176:204,1,88,8|8,0:1|0:1,0:0:0:0:
139,64,132167,1,10,0:0:0:0:
53,258,132331,2,0,P|43:180|23:79,1,176,10|0,0:1|0:0,0:0:0:0:
233,39,132826,1,8,0:0:0:0:
118,155,132991,1,0,0:0:0:0:
278,115,133156,6,0,L|372:131,1,88,10|0,0:1|0:0,0:0:0:0:
460,81,133485,1,10,0:0:0:0:
286,214,133650,2,0,L|199:228,1,88,10|8,0:0|0:1,0:0:0:0:
442,164,133980,2,0,P|468:211|450:295,1,132,10|0,0:1|0:0,0:0:0:0:
380,352,134309,6,0,P|355:307|366:250,1,88,10|0,0:1|0:0,0:0:0:0:
441,163,134639,2,0,P|397:163|361:187,1,88,10|8,0:1|0:0,0:0:0:0:
294,123,134969,2,0,P|270:159|270:203,1,88,10|8,0:1|0:1,0:0:0:0:
456,285,135298,1,10,0:1:0:0:
284,375,135463,1,8,0:0:0:0:
201,299,135628,5,10,0:0:0:0:
201,299,135711,1,8,0:0:0:0:
201,299,135793,2,0,B|98:273|98:273|44:293|73:353,2,176,14|8|10,0:1|0:0|0:1,0:0:0:0:
37,125,136617,1,8,0:1:0:0:
97,250,136782,2,0,P|102:202|113:145,1,88,10|0,0:0|0:0,0:0:0:0:
156,38,137112,5,10,0:1:0:0:
37,125,137277,1,8,0:1:0:0:
224,223,137441,1,10,0:0:0:0:
269,104,137606,2,0,B|201:120|201:120|179:145|179:145|96:166,1,176,10|8,0:1|0:1,0:0:0:0:
307,16,138101,2,0,P|350:43|350:143,1,132,10|0,0:0|0:0,0:0:0:0:
319,183,138430,6,0,L|213:208,1,88,10|8,0:0|0:1,0:0:0:0:
423,73,138760,2,0,L|317:98,1,88,10|10,0:0|0:1,0:0:0:0:
352,206,139090,2,0,L|246:231,1,88,8|10,0:0|0:1,0:0:0:0:
266,226,139337,1,0,0:0:0:0:
266,226,139419,1,8,0:0:0:0:
451,303,139584,5,14,0:0:0:0:
335,184,139749,1,10,0:1:0:0:
436,122,139914,5,6,0:0:0:0:
369,324,140079,1,10,0:0:0:0:
266,226,140244,2,0,P|243:161|223:113,1,88,2|12,0:0|0:1,0:0:0:0:
287,44,140573,1,10,0:0:0:0:
287,44,140656,1,10,0:0:0:0:
287,44,140738,1,10,0:0:0:0:
163,166,140903,1,10,0:3:0:0:
27,98,141068,1,6,0:3:0:0:
27,98,141397,6,0,P|-3:154|23:261,1,176,14|8,0:0|0:1,0:0:0:0:
150,384,141892,1,10,0:1:0:0:
150,384,141974,1,8,0:1:0:0:
150,384,142057,1,8,0:0:0:0:
220,349,142222,1,10,0:0:0:0:
232,268,142386,6,0,P|189:251|125:243,1,88,8|8,0:1|0:1,0:0:0:0:
169,264,142716,2,0,P|126:282|75:321,1,88,10|2,0:0|0:0,0:0:0:0:
349,299,143046,2,0,P|366:256|374:192,1,88,8|0,0:1|0:0,0:0:0:0:
288,189,143376,2,0,P|269:146|230:95,1,88,8|0,0:0|0:0,0:0:0:0:
129,60,143705,6,0,P|181:85|304:70,1,176,10|10,0:1|0:0,0:0:0:0:
403,11,144200,2,0,P|394:59|382:121,1,88,8|8,0:0|0:1,0:0:0:0:
311,160,144529,2,0,P|302:116|295:73,1,88,10|8,0:1|0:0,0:0:0:0:
483,213,144859,6,0,P|430:250|385:249,1,88,10|0,0:1|0:0,0:0:0:0:
311,160,145189,2,0,P|364:123|409:124,1,88,10|8,0:1|0:0,0:0:0:0:
295,334,145518,2,0,P|225:359|175:344,1,88,10|0,0:1|0:0,0:0:0:0:
114,291,145848,5,2,0:0:0:0:
270,152,146013,1,8,0:0:0:0:
232,279,146178,2,0,L|216:221,1,44,10|8,0:1|0:1,0:0:0:0:
87,137,146342,6,0,L|64:249,1,88,12|8,0:0|0:1,0:0:0:0:
8,47,146672,1,8,0:0:0:0:
183,11,146837,1,8,0:1:0:0:
66,157,147002,5,10,0:0:0:0:
66,157,147167,1,8,0:1:0:0:
220,236,147331,1,10,0:0:0:0:
220,236,147496,1,8,0:1:0:0:
151,100,147661,5,14,0:0:0:0:
236,309,147826,1,8,0:1:0:0:
89,247,147991,1,10,0:0:0:0:
298,162,148156,2,0,L|481:183,1,176,10|8,0:1|0:1,0:0:0:0:
423,263,148650,1,10,0:0:0:0:
374,128,148815,5,8,0:1:0:0:
374,128,148897,1,8,0:1:0:0:
374,128,148980,2,8,L|364:50,2,70.4,14|0|10,0:0|0:0|0:1,0:0:0:0:
254,239,149474,1,0,0:0:0:0:
254,239,149639,2,8,P|214:198|227:110,1,140.8,12|8,0:0|0:1,0:0:0:0:
75,192,150134,5,10,0:0:0:0:
7,98,150298,1,10,0:0:0:0:
85,114,150463,1,10,0:0:0:0:
163,130,150628,1,10,0:3:0:0:
241,146,150793,1,10,0:3:0:0:
241,146,150958,1,6,0:3:0:0:
95,36,151288,5,10,0:0:0:0:
94,205,151617,2,0,B|109:269|109:269|96:311|96:311|119:381,1,176,14|10,0:1|0:1,0:0:0:0:
202,265,152112,2,0,L|308:245,1,88,14|0,0:0|0:0,0:0:0:0:
350,180,152441,1,12,0:0:0:0:
258,333,152606,1,8,0:0:0:0:
191,138,152771,1,12,0:0:0:0:
256,192,152853,12,2,154255,0:0:0:0:
394,32,159364,5,8,0:1:0:0:
394,32,159447,1,8,0:1:0:0:
394,32,159529,2,0,L|407:144,1,88,10|8,0:0|0:1,0:0:0:0:
243,76,159859,1,8,0:1:0:0:
251,188,160024,6,0,L|261:100,1,88,10|8,0:0|0:1,0:0:0:0:
86,137,160353,1,8,0:1:0:0:
94,25,160518,6,0,L|104:112,1,88,10|8,0:0|0:1,0:0:0:0:
96,260,160848,1,8,0:0:0:0:
243,76,161013,6,0,P|226:113|215:191,1,88,10|8,0:1|0:0,0:0:0:0:
311,328,161342,1,8,0:1:0:0:
246,267,161507,6,0,P|283:250|361:239,1,88,10|8,0:0|0:0,0:0:0:0:
403,175,161837,2,0,P|366:158|288:147,1,88,10|8,0:0|0:0,0:0:0:0:
262,104,162084,5,8,0:0:0:0:
256,95,162167,2,0,P|265:52|398:34,1,176,14|8,0:1|0:0,0:0:0:0:
431,150,162661,2,0,P|408:220|391:354,1,176,10|0,0:1|0:0,0:0:0:0:
329,239,163156,2,0,P|288:273|198:275,1,132,14|0,0:0|0:0,0:0:0:0:
186,267,163485,5,8,0:0:0:0:
261,166,163650,1,8,0:1:0:0:
261,166,163733,1,8,0:1:0:0:
261,166,163815,1,10,0:0:0:0:
219,361,163980,1,0,0:0:0:0:
118,211,164145,2,0,L|85:158,2,44,8|8|8,0:0|0:0|0:1,0:0:0:0:
189,53,164474,2,0,L|169:112,1,44,10|0,0:0|0:0,0:0:0:0:
265,170,164639,2,0,L|324:150,1,44,10|8,0:1|0:1,0:0:0:0:
129,304,164804,6,0,P|71:264|111:164,1,176,14|10,0:0|0:1,0:0:0:0:
252,191,165298,2,0,L|351:161,1,88,2|8,0:0|0:1,0:0:0:0:
377,83,165628,1,2,0:0:0:0:
328,249,165793,2,0,P|317:299|337:339,1,88,10|8,0:1|0:0,0:0:0:0:
483,252,166123,6,0,P|445:217|400:214,1,88,8|0,0:1|0:0,0:0:0:0:
241,83,166452,2,0,P|254:129|272:180,1,88,10|0,0:1|0:0,0:0:0:0:
132,262,166782,2,0,P|119:216|101:165,1,88,10|0,0:1|0:0,0:0:0:0:
237,298,167112,2,0,P|217:337|196:375,1,88,10|0,0:0|0:0,0:0:0:0:
42,261,167441,6,0,P|10:214|37:102,1,176,10|10,0:1|0:1,0:0:0:0:
241,83,167936,2,0,P|194:115|105:91,1,132,2|0,0:0|0:0,0:0:0:0:
105,84,168266,1,10,0:0:0:0:
188,195,168430,2,0,P|255:179|296:177,1,88,10|8,0:1|0:0,0:0:0:0:
310,76,168760,6,0,P|266:70|224:58,1,88,8|0,0:1|0:0,0:0:0:0:
367,156,169090,2,0,B|407:205|407:205|383:344,1,176,10|8,0:1|0:1,0:0:0:0:
297,257,169584,1,8,0:0:0:0:
426,225,169749,2,0,L|519:205,1,88,10|8,0:1|0:0,0:0:0:0:
293,349,170079,6,0,B|229:335|229:335|194:359|194:359|126:345,1,176,10|10,0:1|0:1,0:0:0:0:
146,103,170573,2,0,L|176:291,1,176,2|0,0:0|0:0,0:0:0:0:
61,145,171068,6,0,P|117:189|221:161,1,176,10|8,0:1|0:1,0:0:0:0:
265,109,171562,1,8,0:0:0:0:
334,67,171727,1,10,0:1:0:0:
375,246,171892,1,8,0:0:0:0:
293,187,172057,2,0,L|399:158,1,88,8|0,0:1|0:0,0:0:0:0:
448,82,172386,5,10,0:1:0:0:
375,246,172551,1,10,0:0:0:0:
235,125,172716,2,0,P|210:176|230:234,1,88,10|0,0:1|0:0,0:0:0:0:
353,326,173046,2,0,P|378:275|358:217,1,88,10|0,0:1|0:0,0:0:0:0:
375,246,173375,1,10,0:1:0:0:
221,326,173540,1,8,0:0:0:0:
142,205,173705,6,0,L|243:233,1,88,10|8,0:1|0:0,0:0:0:0:
371,106,174035,1,8,0:1:0:0:
261,96,174200,1,0,0:0:0:0:
321,46,174364,1,8,0:1:0:0:
311,156,174529,2,0,L|299:244,1,88,8|8,0:0|0:1,0:0:0:0:
170,44,174859,1,8,0:0:0:0:
170,44,175024,2,0,L|182:132,1,88,10|10,0:1|0:0,0:0:0:0:
89,292,175353,6,0,P|41:250|60:145,1,176,14|10,0:1|0:0,0:0:0:0:
214,243,175848,2,0,L|202:331,1,88,10|8,0:1|0:1,0:0:0:0:
195,218,176178,1,10,0:1:0:0:
299,310,176342,2,0,P|365:343|444:307,1,132,10|0,0:0|0:0,0:0:0:0:
442,305,176672,6,0,P|434:248|437:195,1,88,8|0,0:1|0:0,0:0:0:0:
444,116,177002,1,10,0:0:0:0:
345,189,177167,1,0,0:0:0:0:
262,79,177331,5,2,0:0:0:0:
434,217,177496,1,10,0:1:0:0:
262,79,177661,2,0,P|238:129|249:184,1,88,10|8,0:0|0:1,0:0:0:0:
348,32,177991,6,0,L|168:63,1,176,14|10,0:1|0:0,0:0:0:0:
201,232,178485,2,0,L|27:202,1,176,10|8,0:1|0:1,0:0:0:0:
104,258,178980,2,0,L|89:344,1,88,10|8,0:0|0:1,0:0:0:0:
231,217,179309,5,8,0:1:0:0:
196,323,179474,1,0,0:0:0:0:
302,358,179639,1,8,0:0:0:0:
337,252,179804,1,0,0:0:0:0:
424,339,179969,2,0,P|449:273|435:239,1,88,2|8,0:0|0:1,0:0:0:0:
325,226,180298,1,8,0:0:0:0:
491,187,180463,5,8,0:0:0:0:
491,187,180546,1,8,0:0:0:0:
491,187,180628,2,0,L|479:83,1,88,14|8,0:1|0:1,0:0:0:0:
351,22,180958,1,8,0:1:0:0:
406,136,181123,2,0,P|312:113|216:117,1,176,8|10,0:0|0:1,0:0:0:0:
168,59,181617,2,0,P|145:114|175:167,1,88,10|10,0:0|0:1,0:0:0:0:
277,227,181947,5,12,0:0:0:0:
233,114,182112,1,8,0:1:0:0:
277,227,182277,1,10,0:1:0:0:
129,123,182441,2,0,L|14:151,1,88,10|0,0:0|0:0,0:0:0:0:
178,215,182771,5,10,0:1:0:0:
282,45,182936,1,8,0:0:0:0:
112,145,183101,1,10,0:1:0:0:
306,154,183266,2,0,L|326:344,2,176,12|8|8,0:1|0:0|0:1,0:0:0:0:
407,129,184090,1,8,0:1:0:0:
407,129,184255,2,0,L|399:224,1,88,10|0,0:0|0:0,0:0:0:0:
230,199,184584,6,0,L|241:304,1,88,10|0,0:1|0:0,0:0:0:0:
339,74,184914,1,8,0:0:0:0:
306,154,185079,1,10,0:1:0:0:
163,98,185244,1,8,0:0:0:0:
214,221,185409,1,8,0:0:0:0:
82,199,185573,1,14,0:0:0:0:
286,137,185738,1,8,0:1:0:0:
134,303,185903,6,0,P|77:338|-1:273,1,176,14|8,0:0|0:1,0:0:0:0:
0,278,186397,1,8,0:1:0:0:
206,363,186727,1,8,0:0:0:0:
282,348,186892,1,8,0:1:0:0:
366,332,187057,5,8,0:3:0:0:
366,332,187139,1,8,0:3:0:0:
366,332,187222,2,0,L|375:234,2,70.4,12|2|2,0:1|0:0|0:0,0:0:0:0:
298,218,187716,2,0,P|340:181|426:189,2,140.8,8|4|6,0:3|0:3|0:3,0:0:0:0:
156,319,188540,6,0,B|58:321|-21:247|-12:156|-3:65|147:28|233:148|178:264|43:244,2,563.2,14|2|2,0:1|0:0|1:2,0:0:0:0:
447,274,200244,5,2,3:2:0:0:
447,274,200326,1,0,3:2:0:0:
447,274,200408,1,0,3:2:0:0:
377,229,200573,1,0,0:0:0:0:
295,246,200738,1,0,0:0:0:0:
249,316,200903,2,0,P|191:358|106:328,1,140.8,0|8,0:0|0:3,0:0:0:0:
225,188,201397,5,8,0:3:0:0:
175,279,201562,5,4,0:3:0:0:
121,190,201727,5,14,0:1:0:0:
121,190,202057,1,10,0:1:0:0:
320,94,202386,5,8,0:1:0:0:
320,94,202716,1,8,0:1:0:0:
253,342,203046,5,8,0:1:0:0:
253,342,203376,1,10,0:1:0:0:
38,248,203705,5,8,0:1:0:0:
38,248,204035,1,8,0:1:0:0:
196,227,204364,6,0,L|363:195,2,140.8,14|10|8,0:1|0:1|0:1,0:0:0:0:
210,49,205353,5,8,0:1:0:0:
270,0,205518,1,10,0:3:0:0:
262,113,205683,2,0,L|257:197,1,70.4,0|10,0:0|0:1,0:0:0:0:
423,19,206178,2,0,L|418:103,1,70.4,10|0,0:3|0:0,0:0:0:0:
362,223,206672,2,0,L|357:307,1,70.4,8|10,0:0|0:1,0:0:0:0:
278,264,207002,2,0,P|218:293|121:293,2,140.8,14|0|10,0:0|0:0|0:0,0:0:0:0:
129,166,207991,5,8,0:1:0:0:
129,166,208156,1,8,0:1:0:0:
68,221,208320,2,0,L|-6:237,1,70.4,10|0,0:1|0:0,0:0:0:0:
0,235,208650,1,10,0:1:0:0:
130,68,208815,2,0,L|115:136,1,70.4,2|8,0:0|0:0,0:0:0:0:
262,246,209309,5,2,0:0:0:0:
262,246,209474,1,0,3:2:0:0:
217,140,209639,2,0,B|299:136|269:173|366:175,1,140.8,10|10,0:1|0:0,0:0:0:0:
351,174,210298,5,8,0:1:0:0:
384,247,210463,1,8,0:1:0:0:
457,214,210628,1,8,0:1:0:0:
342,351,210793,5,10,0:0:0:0:
309,278,210958,1,10,0:0:0:0:
236,311,211123,1,8,0:1:0:0:
269,384,211288,1,10,0:1:0:0:
218,295,211452,6,0,L|233:196,1,70.4,10|0,0:3|0:0,0:0:0:0:
243,219,211700,6,0,L|228:120,1,70.4,8|0,0:1|0:0,0:0:0:0:
248,125,211947,5,8,0:0:0:0:
124,215,212112,1,8,0:0:0:0:
116,68,212277,5,8,0:3:0:0:
116,68,212359,1,0,0:0:0:0:
116,68,212441,1,8,0:3:0:0:
116,68,212524,1,8,0:3:0:0:
116,68,212606,1,4,0:3:0:0:
116,68,212689,1,4,0:3:0:0:
116,68,212771,2,0,L|121:115,1,35.2,8|0,0:0|0:0,0:0:0:0:
206,58,212936,5,8,0:3:0:0:
235,39,213018,1,8,0:3:0:0:
269,28,213100,1,4,0:3:0:0:
304,26,213183,1,4,0:3:0:0:
338,32,213266,2,0,L|386:50,1,35.2,8|0,0:0|0:0,0:0:0:0:
398,154,213430,2,0,L|430:141,1,35.2,4|0,0:3|0:0,0:0:0:0:
477,53,213595,5,2,0:0:0:0:
477,53,213925,6,0,P|480:146|493:265,1,193.600005908203,14|8,0:0|0:1,0:0:0:0:
234,147,214419,2,0,P|310:124|357:95,1,96.8000029541017,2|8,0:0|0:0,0:0:0:0:
310,217,214749,5,10,0:0:0:0:
310,217,214831,1,8,0:0:0:0:
310,217,214914,2,0,P|291:294|293:349,1,96.8000029541017,8|8,0:1|0:1,0:0:0:0:
398,154,215244,1,10,0:0:0:0:
177,80,215408,2,0,P|182:128|217:276,1,193.600005908203,10|0,0:1|0:0,0:0:0:0:
94,149,215903,1,8,0:0:0:0:
294,198,216068,1,8,0:0:0:0:
139,345,216233,6,0,P|96:350|33:365,1,96.8000029541017,10|0,0:1|0:0,0:0:0:0:
234,357,216562,1,10,0:0:0:0:
93,148,216727,2,0,P|141:154|189:165,1,96.8000029541017,10|8,0:1|0:1,0:0:0:0:
348,32,217057,2,0,P|398:84|367:178,1,145.200004431152,10|0,0:1|0:0,0:0:0:0:
344,215,217386,6,0,P|296:221|248:232,1,96.8000029541017,10|0,0:1|0:0,0:0:0:0:
126,341,217716,2,0,P|144:296|159:249,1,96.8000029541017,10|8,0:1|0:0,0:0:0:0:
126,90,218046,2,0,P|155:128|188:164,1,96.8000029541017,10|8,0:0|0:1,0:0:0:0:
206,11,218375,1,10,0:1:0:0:
62,171,218540,1,8,0:0:0:0:
248,94,218705,5,10,0:0:0:0:
248,94,218788,1,8,0:0:0:0:
248,94,218870,2,0,B|317:74|317:74|353:88|353:88|450:55,2,193.600005908203,12|8|10,0:1|0:0|0:1,0:0:0:0:
329,275,219694,1,8,0:1:0:0:
485,186,219859,2,0,L|391:163,1,96.8000029541017,10|0,0:0|0:0,0:0:0:0:
208,273,220189,5,10,0:1:0:0:
300,175,220353,1,0,0:0:0:0:
266,352,220518,1,10,0:0:0:0:
140,230,220683,2,0,L|329:274,1,193.600005908203,10|8,0:1|0:1,0:0:0:0:
81,314,221178,6,0,B|36:267|36:267|49:149,1,145.200004431152,10|0,0:0|0:0,0:0:0:0:
112,138,221507,2,0,L|-9:166,1,96.8000029541017,14|8,0:0|0:1,0:0:0:0:
304,298,221837,2,0,L|183:326,1,96.8000029541017,10|10,0:0|0:1,0:0:0:0:
149,95,222167,2,0,L|28:123,1,96.8000029541017,8|10,0:0|0:1,0:0:0:0:
54,116,222414,1,8,0:1:0:0:
54,116,222496,1,8,0:0:0:0:
254,6,222661,5,10,0:1:0:0:
205,158,222826,1,8,0:0:0:0:
331,88,222991,5,14,0:1:0:0:
324,215,223156,1,10,0:0:0:0:
441,146,223320,5,14,0:0:0:0:
299,197,223485,1,8,0:0:0:0:
415,290,223650,1,8,0:0:0:0:
415,290,223733,1,8,0:0:0:0:
415,290,223815,2,0,L|437:400,1,96.8000029541017,8|8,0:0|0:3,0:0:0:0:
239,266,224145,5,14,0:0:0:0:
239,266,224309,1,8,0:1:0:0:
355,128,224474,1,10,0:0:0:0:
355,128,224638,1,10,0:1:0:0:
308,365,224804,6,0,L|213:346,1,96.8000029541017,8|10,0:0|0:1,0:0:0:0:
209,181,225134,2,0,L|114:199,1,96.8000029541017,8|10,0:0|0:1,0:0:0:0:
41,338,225463,5,12,0:0:0:0:
41,338,225628,1,8,0:1:0:0:
133,173,225793,1,10,0:0:0:0:
133,173,225958,1,10,0:1:0:0:
196,374,226123,5,8,0:0:0:0:
43,245,226288,1,8,0:1:0:0:
218,269,226452,2,0,L|312:287,1,96.8000029541017,8|8,0:0|0:1,0:0:0:0:
312,287,226700,1,8,0:1:0:0:
312,287,226782,1,14,0:0:0:0:
414,242,226947,1,8,0:1:0:0:
306,101,227112,1,10,0:0:0:0:
408,147,227277,6,0,P|372:172|301:190,1,96.8000029541017,10|8,0:1|0:0,0:0:0:0:
332,212,227606,2,0,P|288:204|225:166,1,96.8000029541017,10|8,0:1|0:0,0:0:0:0:
136,263,227936,2,0,P|99:238|57:178,1,96.8000029541017,10|12,0:1|0:0,0:0:0:0:
100,53,228266,5,10,0:1:0:0:
162,182,228430,1,8,0:0:0:0:
243,64,228595,1,10,0:1:0:0:
66,197,228760,1,8,0:0:0:0:
258,278,228925,1,10,0:1:0:0:
258,278,229007,1,8,0:1:0:0:
258,278,229090,2,0,L|276:379,1,96.8000029541017,8|10,0:0|0:1,0:0:0:0:
416,170,229419,5,12,0:0:0:0:
341,282,229584,1,8,0:1:0:0:
265,113,229749,1,8,0:0:0:0:
335,260,229914,1,8,0:1:0:0:
388,63,230079,6,0,P|438:79|494:88,1,96.8000029541017,10|8,0:0|0:1,0:0:0:0:
328,237,230408,2,0,P|378:221|434:212,1,96.8000029541017,10|8,0:0|0:1,0:0:0:0:
246,92,230738,5,14,0:0:0:0:
199,204,230903,1,8,0:1:0:0:
113,117,231068,1,10,0:0:0:0:
171,287,231233,1,10,0:1:0:0:
300,163,231397,1,8,0:0:0:0:
184,191,231562,5,8,0:1:0:0:
184,191,231645,1,8,0:1:0:0:
184,191,231727,1,10,0:0:0:0:
260,296,231892,2,0,L|333:302,1,48.4000014770508,8|8,0:1|0:1,0:0:0:0:
90,338,232057,6,0,P|67:304|71:254,2,79.1999975830079,14|0|2,0:0|0:0|0:0,0:0:0:0:
168,118,232551,1,0,0:0:0:0:
168,118,232716,2,0,P|155:198|149:277,1,158.399995166016,12|0,0:0|0:0,0:0:0:0:
371,196,233211,5,10,0:0:0:0:
273,116,233375,1,10,0:0:0:0:
220,209,233540,1,10,0:0:0:0:
293,189,233705,1,10,0:3:0:0:
200,136,233870,1,10,0:3:0:0:
200,136,234035,2,0,L|110:156,1,79.1999975830079,2|4,0:0|0:3,0:0:0:0:
122,153,234282,1,4,0:3:0:0:
122,153,234364,1,10,0:0:0:0:
192,14,234694,6,0,L|384:57,1,193.600005908203,14|10,0:1|0:1,0:0:0:0:
312,257,235189,2,0,L|292:163,1,96.8000029541017,14|0,0:0|0:0,0:0:0:0:
366,73,235518,1,12,0:0:0:0:
201,179,235683,1,8,0:0:0:0:
418,250,235848,1,14,0:0:0:0:
256,192,235930,12,0,237167,0:0:0:0:
116,50,237331,6,0,P|73:99|102:225,1,176,14|8,0:1|0:0,0:0:0:0:
191,258,237826,2,0,L|295:236,1,88,2|8,0:0|0:1,0:0:0:0:
355,167,238156,1,8,0:1:0:0:
245,327,238320,1,8,0:0:0:0:
209,168,238485,5,8,0:0:0:0:
209,168,238568,1,8,0:0:0:0:
209,168,238650,2,0,L|187:64,1,88,8|8,0:1|0:1,0:0:0:0:
306,13,238980,2,0,L|287:99,1,88,8|8,0:0|0:1,0:0:0:0:
375,190,239309,1,10,0:1:0:0:
486,134,239474,1,0,0:0:0:0:
287,99,239639,1,8,0:0:0:0:
376,295,239804,5,8,0:1:0:0:
376,295,239886,1,8,0:1:0:0:
376,295,239969,2,0,L|405:98,2,176,10|8|8,0:1|0:0|0:1,0:0:0:0:
313,358,240793,1,8,0:1:0:0:
200,268,240958,2,0,P|160:280|101:289,1,88,10|8,0:0|0:1,0:0:0:0:
40,166,241288,5,10,0:1:0:0:
138,204,241452,1,8,0:1:0:0:
232,75,241617,5,10,0:0:0:0:
114,120,241781,1,10,0:0:0:0:
114,120,241864,1,8,0:0:0:0:
114,120,241947,1,8,0:1:0:0:
261,208,242112,1,10,0:1:0:0:
261,208,242277,1,8,0:0:0:0:
361,49,242441,5,10,0:0:0:0:
361,49,242524,1,8,0:0:0:0:
361,49,242606,2,0,B|285:46|278:101|186:96,1,176,12|8,0:1|0:0,0:0:0:0:
348,145,243101,1,10,0:0:0:0:
348,145,243183,1,10,0:0:0:0:
348,145,243266,2,0,P|422:158|466:170,1,88,8|8,0:1|0:1,0:0:0:0:
276,229,243595,2,0,P|202:242|158:254,1,88,10|8,0:0|0:1,0:0:0:0:
386,375,243925,6,0,P|412:333|402:270,1,88,10|8,0:1|0:1,0:0:0:0:
215,165,244255,2,0,P|189:207|199:270,1,88,10|0,0:0|0:0,0:0:0:0:
463,228,244584,2,0,P|468:178|433:126,1,88,10|8,0:1|0:1,0:0:0:0:
234,63,244914,2,0,P|228:112|263:164,1,88,10|0,0:0|0:0,0:0:0:0:
388,18,245244,6,0,L|361:220,1,176,10|8,0:1|0:0,0:0:0:0:
294,252,245738,1,8,0:3:0:0:
294,252,245820,1,8,0:3:0:0:
294,252,245903,1,8,0:3:0:0:
221,283,246068,1,8,0:3:0:0:
129,265,246233,1,6,0:3:0:0:
74,169,246397,1,4,0:3:0:0:
101,48,246562,1,14,0:1:0:0:
101,48,247881,6,0,L|243:78,1,123.199996240234,12|0,0:1|0:0,0:0:0:0:
313,54,248375,2,0,L|304:4,2,30.7999990600586,10|8|8,0:3|0:3|0:3,0:0:0:0:
227,157,249035,2,0,L|221:187,2,30.7999990600586,10|8|8,0:3|0:3|0:3,0:0:0:0:
417,101,249694,5,10,0:3:0:0:
338,157,249859,2,0,L|354:221,1,61.5999981201172,8|8,0:3|0:3,0:0:0:0:
442,244,250189,2,0,L|426:308,1,61.5999981201172,4|4,0:3|0:3,0:0:0:0:
333,336,250518,6,0,P|292:356|213:337,1,123.199996240234,12|0,0:0|0:0,0:0:0:0:
222,257,251013,2,0,L|277:270,2,30.7999990600586,10|8|8,0:3|0:3|0:3,0:0:0:0:
116,291,251507,1,10,0:3:0:0:
116,291,251672,1,6,0:3:0:0:
116,291,251837,2,0,L|105:158,1,123.199996240234,12|0,0:0|0:0,0:0:0:0:
171,91,252331,5,10,0:1:0:0:
178,100,252414,1,8,0:1:0:0:
186,111,252496,2,0,L|229:118,3,30.7999990600586,8|8|8|0,0:0|0:0|0:1|0:0,0:0:0:0:
271,171,252826,2,0,L|314:164,3,30.7999990600586,8|0|8|8,0:0|0:0|0:0|0:0,0:0:0:0:
361,120,253156,5,14,0:1:0:0:
392,194,253320,2,0,L|417:261,1,70.4,0|8,0:0|0:1,0:0:0:0:
419,65,253650,1,2,3:0:0:0:
419,65,253815,2,0,L|394:0,1,70.4,8|2,0:1|3:0,0:0:0:0:
503,99,254145,1,10,0:1:0:0:
410,204,254309,6,0,B|359:227|359:227|351:253|351:253|275:291,1,140.8,10|10,0:0|0:0,0:0:0:0:
299,278,254804,1,8,0:1:0:0:
215,375,254969,2,0,L|199:306,1,70.4,10|8,0:0|0:1,0:0:0:0:
252,202,255298,5,10,0:0:0:0:
252,202,255381,1,10,0:0:0:0:
252,202,255463,2,0,L|211:219,1,35.2,10|10,0:0|0:0,0:0:0:0:
121,306,255628,2,0,L|88:292,1,35.2,10|10,0:0|0:0,0:0:0:0:
38,185,255793,5,14,0:0:0:0:
38,185,255958,2,0,L|108:157,1,70.4,10|10,0:1|0:1,0:0:0:0:
273,67,256288,2,0,P|208:51|133:24,1,140.8,14|10,0:0|0:1,0:0:0:0:
207,233,256782,1,10,0:0:0:0:
381,170,256947,6,0,B|459:103|407:12|315:-10|273:68|273:68|187:28|95:93|119:208|201:261|227:180|308:220|317:275|317:275|319:230|364:198|406:213|406:213|429:178|488:153|565:200|557:306|487:291|456:326|462:368|462:368|435:332|388:324|401:354|345:342|328:304,1,1268.95998935046,14|0,0:1|0:0,0:0:0:0:
