osu file format v14

[General]
AudioFilename: audio.mp3
AudioLeadIn: 0
PreviewTime: 125244
Countdown: 0
SampleSet: Soft
StackLeniency: 0.4
Mode: 0
LetterboxInBreaks: 0
EpilepsyWarning: 1
WidescreenStoryboard: 1

[Editor]
DistanceSpacing: 1.2
BeatDivisor: 4
GridSize: 16
TimelineZoom: 2.3

[Metadata]
Title:Kimi to Yumemishi
TitleUnicode:キミトユメミシ
Artist:yuiko
ArtistUnicode:ゆいこ
Creator:keeVY
Version:Hard
Source:キミトユメミシ
Tags:lasse yogurtt kuse shikibe mayu kazato asa shizuku- japanese pop ゆいこんぬ yuikonnu primary video game eroge visual novel Laplacian Kimiyume kubsnia_zhoyl_
BeatmapID:3082882
BeatmapSetID:1501736

[Difficulty]
HPDrainRate:4
CircleSize:4
OverallDifficulty:6.8
ApproachRate:8
SliderMultiplier:1.46
SliderTickRate:1

[Events]
//Background and Video events
0,0,"3.jpeg",0,0
//Break Periods
2,88520,92186
2,154455,158211
2,191377,199090
//Storyboard Layer 0 (Background)
//Storyboard Layer 1 (Fail)
//Storyboard Layer 2 (Pass)
//Storyboard Layer 3 (Foreground)
Sprite,Foreground,Centre,"sb\other\keeVY.png",0,240 S,0,251330,,0.35 MX,0,251330,253930,434,439 F,0,251430,251730,0,1 F,0,252579,253000,1,0
//Storyboard Layer 4 (Overlay)
//Storyboard Sound Samples

[TimingPoints]
1288,329.67032967033,4,2,1,60,1,0
1288,-125,4,2,1,60,0,0
6562,-100,4,2,1,75,0,0
7222,-100,4,2,1,75,0,0
7469,-100,4,2,1,5,0,0
7552,-100,4,2,1,75,0,0
7798,-100,4,2,1,5,0,0
7881,-100,4,2,1,75,0,0
8540,-100,4,2,1,75,0,0
8788,-100,4,2,1,5,0,0
8870,-100,4,2,1,75,0,0
10353,-142.857142857143,4,2,1,75,0,0
11013,-125,4,2,1,60,0,0
11507,-125,4,2,1,65,0,0
11837,-125,4,2,1,60,0,0
13073,-125,4,2,1,5,0,0
13156,-125,4,2,1,60,0,0
17606,-125,4,2,1,60,0,0
18101,-125,4,2,1,60,0,0
18430,-125,4,2,1,60,0,0
18925,-125,4,2,1,60,0,0
19749,-125,4,2,1,60,0,0
21068,-125,4,2,1,60,0,0
26013,-125,4,2,1,60,0,0
27331,-125,4,2,1,60,0,0
27579,-125,4,2,1,5,0,0
27661,-125,4,2,1,60,0,0
28156,-125,4,2,1,60,0,0
28650,-125,4,2,1,60,0,0
29969,-125,4,2,1,60,0,0
30216,-125,4,2,1,5,0,0
30298,-125,4,2,1,60,0,0
31617,-100,4,2,1,70,0,0
32936,-100,4,2,1,70,0,0
44722,-100,4,2,1,5,0,0
44804,-100,4,2,1,70,0,0
48760,-100,4,2,1,75,0,0
52716,-100,4,2,1,70,0,0
54035,-117.647058823529,4,2,1,70,0,0
55930,-100,4,2,1,5,0,0
56012,-100,4,2,1,70,0,0
56260,-100,4,2,1,5,0,0
56342,-100,4,2,1,70,0,0
56590,-100,4,2,1,5,0,0
56672,-100,4,2,1,70,0,0
59309,-117.647058823529,4,2,1,55,0,0
61947,-100,4,2,1,70,0,0
62441,-100,4,2,1,75,0,0
62936,-100,4,2,1,80,0,0
63266,-100,4,2,1,85,0,0
64255,-100,4,2,1,70,0,0
64584,-86.9565217391304,4,2,1,90,0,1
75134,-100,4,2,1,80,0,0
75628,-86.9565217391304,4,2,1,90,0,1
83046,-111.111111111111,4,2,1,90,0,1
85683,-86.9565217391304,4,2,1,90,0,1
87002,-100,4,2,1,80,0,0
97386,-133.333333333333,4,2,1,80,0,0
97881,-100,4,2,1,70,0,0
98870,-100,4,2,1,75,0,0
99859,-100,4,2,1,75,0,0
100106,-100,4,2,1,5,0,0
100189,-100,4,2,1,75,0,0
105381,-100,4,2,1,5,0,0
105463,-100,4,2,1,75,0,0
109667,-100,4,2,1,5,0,0
109749,-100,4,2,1,75,0,0
110656,-100,4,2,1,5,0,0
110738,-100,4,2,1,75,0,0
112057,-100,4,2,1,75,0,0
114694,-100,4,2,1,75,0,0
119969,-100,4,2,1,70,0,0
121864,-100,4,2,1,5,0,0
121946,-100,4,2,1,70,0,0
122194,-100,4,2,1,5,0,0
122276,-100,4,2,1,70,0,0
122524,-100,4,2,1,5,0,0
122606,-100,4,2,1,70,0,0
125244,-117.647058823529,4,2,1,55,0,0
127881,-100,4,2,1,70,0,0
128375,-100,4,2,1,75,0,0
128870,-100,4,2,1,80,0,0
129200,-100,4,2,1,85,0,0
130189,-100,4,2,1,70,0,0
130518,-86.9565217391304,4,2,1,90,0,1
141068,-100,4,2,1,75,0,0
141397,-86.9565217391304,4,2,1,90,0,1
148980,-86.9565217391304,4,2,1,90,0,1
151617,-86.9565217391304,4,2,1,90,0,1
152936,-100,4,2,1,80,0,0
159529,-100,4,2,1,80,0,0
164062,-100,4,2,1,5,0,0
164145,-100,4,2,1,80,0,0
165051,-100,4,2,1,5,0,0
165134,-100,4,2,1,80,0,0
167359,-100,4,2,1,5,0,0
167442,-100,4,2,1,80,0,0
167689,-100,4,2,1,5,0,0
167772,-100,4,2,1,80,0,0
170326,-100,4,2,1,5,0,0
170409,-100,4,2,1,80,0,0
172963,-100,4,2,1,5,0,0
173046,-100,4,2,1,80,0,0
184502,-100,4,2,1,5,0,0
184585,-100,4,2,1,80,0,0
184831,-100,4,2,1,5,0,0
184914,-100,4,2,1,80,0,0
185903,-117.647058823529,4,2,1,75,0,0
188540,-166.666666666667,4,2,1,65,0,0
191178,-133.333333333333,4,2,1,55,0,0
200408,-133.333333333333,4,2,1,60,0,0
201150,-100,4,2,1,5,0,0
201233,-100,4,2,1,60,0,0
201727,-100,4,2,1,70,0,0
201974,-100,4,2,1,5,0,0
202056,-100,4,2,1,70,0,0
204612,-100,4,2,1,5,0,0
204694,-100,4,2,1,70,0,0
209886,-100,4,2,1,5,0,0
209968,-100,4,2,1,70,0,0
213595,-100,4,2,1,70,0,0
213842,-100,4,2,1,5,0,0
213925,-86.9565217391304,4,2,1,90,0,1
223815,-100,4,2,1,85,0,0
224145,-86.9565217391304,4,2,1,90,0,1
232057,-117.647058823529,4,2,1,90,0,1
234694,-100,4,2,1,90,0,1
236013,-100,4,2,1,85,0,0
237331,-100,4,2,1,85,0,0
237579,-100,4,2,1,5,0,0
237661,-100,4,2,1,85,0,0
238897,-100,4,2,1,5,0,0
238979,-100,4,2,1,85,0,0
240216,-100,4,2,1,5,0,0
240298,-100,4,2,1,85,0,0
241535,-100,4,2,1,5,0,0
241617,-100,4,2,1,85,0,0
244172,-100,4,2,1,5,0,0
244254,-100,4,2,1,85,0,0
245161,-100,4,2,1,5,0,0
245244,-100,4,2,1,85,0,0
246562,-166.666666666667,4,2,1,85,0,0
247716,-100,4,2,1,5,0,0
247881,-117.647058823529,4,2,1,70,0,0
252496,-133.333333333333,4,2,1,75,0,0
253156,-100,4,2,1,75,0,0
253650,-100,4,2,1,60,0,0
254309,-100,4,2,1,65,0,0
254969,-100,4,2,1,75,0,0
255298,-100,4,2,1,80,0,0
256947,-400,4,2,1,70,0,0
257606,-400,4,2,1,65,0,0
258266,-400,4,2,1,55,0,0
258925,-400,4,2,1,45,0,0
259584,-400,4,2,1,35,0,0
260244,-400,4,2,1,25,0,0
260903,-400,4,2,1,15,0,0
261562,-400,4,1,1,15,0,0

[Colours]
Combo1 : 250,180,240
Combo2 : 120,200,230
Combo3 : 255,230,130
Combo4 : 160,230,150

[HitObjects]
348,176,1288,5,2,0:0:0:0:
348,176,1452,1,0,0:0:0:0:
251,58,1782,2,0,B|251:102|251:102|258:124|258:124|253:192,1,116.8,2|0,0:0|0:0,0:0:0:0:
215,239,2277,2,0,P|168:238|145:245,1,58.4,0|0,0:0|0:0,0:0:0:0:
91,280,2606,2,0,L|88:348,2,58.4,2|0|0,0:0|0:0|0:0,0:0:0:0:
39,223,3101,1,2,0:0:0:0:
94,81,3430,1,2,0:0:0:0:
284,205,3925,6,0,B|362:212|332:246|402:258,1,116.8,2|0,0:0|0:0,0:0:0:0:
461,240,4419,2,0,L|513:62,1,175.2,2|0,0:0|0:0,0:0:0:0:
370,11,5244,2,0,P|294:7|253:32,1,116.8,2|0,0:0|0:0,0:0:0:0:
234,97,5738,2,0,L|234:233,1,116.8,2|0,0:0|0:0,0:0:0:0:
336,339,6397,5,8,0:1:0:0:
336,339,6480,1,8,0:1:0:0:
336,339,6562,2,0,P|363:283|342:228,1,109.5,12|0,0:0|0:0,0:0:0:0:
307,230,6892,2,0,L|219:234,1,73,8|8,0:1|0:3,0:0:0:0:
158,279,7222,2,0,L|57:266,1,73,8|4,0:3|0:3,0:0:0:0:
19,218,7551,1,4,0:3:0:0:
56,145,7716,1,8,0:0:0:0:
141,153,7881,6,0,P|199:124|187:35,1,146,12|0,0:1|0:0,0:0:0:0:
44,159,8540,2,0,P|40:223|123:257,1,146,8|8,0:1|0:0,0:0:0:0:
211,103,9200,6,0,P|204:134|211:182,1,73,12|8,0:0|0:1,0:0:0:0:
248,256,9529,1,8,0:1:0:0:
248,256,9694,2,0,P|272:277|317:295,1,73,12|8,0:0|0:1,0:0:0:0:
387,337,10023,5,8,0:1:0:0:
432,271,10189,1,8,0:3:0:0:
396,199,10353,2,0,B|327:168|316:107|319:23|440:-3|464:75|424:121,1,306.599990643311,12|2,0:1|0:0,0:0:0:0:
428,117,11507,2,0,P|382:102|354:106,1,58.4,2|0,0:0|0:0,0:0:0:0:
303,133,11837,6,0,P|306:186|235:223,2,116.8,14|0|0,0:1|0:0|0:0,0:0:0:0:
189,31,12826,1,2,0:0:0:0:
53,99,13156,2,0,P|30:152|30:231,1,116.8,2|2,3:2|0:0,0:0:0:0:
77,266,13650,2,0,P|94:319|100:380,1,116.8,2|2,0:0|0:0,0:0:0:0:
228,299,14309,6,0,B|335:266|298:336|418:305,1,175.2,2|2,0:0|0:0,0:0:0:0:
471,288,14969,2,0,B|453:265|453:265|450:223|474:166,1,116.8,2|2,0:0|0:0,0:0:0:0:
400,49,15628,1,2,0:0:0:0:
400,49,15793,2,0,P|338:37|313:85,1,116.8,0|0,3:2|0:0,0:0:0:0:
332,149,16288,1,2,0:0:0:0:
182,124,16617,6,0,L|121:120,2,58.4,2|2|2,0:0|0:0|0:0,0:0:0:0:
221,189,17112,2,0,P|240:242|237:313,1,116.8,10|2,0:1|0:0,0:0:0:0:
182,351,17606,2,0,B|147:335|95:326|59:351|59:351|90:369|118:341,1,175.2,2|2,0:0|0:0,0:0:0:0:
207,241,18430,2,0,P|235:184|208:131,1,116.8,2|2,3:2|0:0,0:0:0:0:
142,117,18925,2,0,B|111:134|111:134|67:115|12:139,1,116.8,2|2,0:0|0:0,0:0:0:0:
145,31,19584,5,2,0:0:0:0:
145,31,19749,2,0,B|211:28|193:64|280:52,1,116.8,8|0,0:1|0:0,0:0:0:0:
317,6,20244,2,0,P|380:22|379:80,1,116.8,2|0,0:0|0:0,0:0:0:0:
347,131,20738,2,0,P|339:165|340:201,1,58.4,2|2,0:0|0:0,0:0:0:0:
380,258,21068,5,2,3:2:0:0:
380,258,21233,1,2,0:0:0:0:
454,268,21397,1,2,0:0:0:0:
502,209,21562,1,2,0:0:0:0:
502,209,21892,5,0,0:0:0:0:
454,268,22057,2,0,P|442:313|441:346,1,58.4,2|0,0:0|0:0,0:0:0:0:
367,345,22386,6,0,B|326:352|326:352|310:365|310:365|252:376,1,116.8,10|0,0:1|0:0,0:0:0:0:
189,337,22881,1,0,0:0:0:0:
44,373,23211,1,0,0:0:0:0:
44,373,23375,2,0,B|19:348|26:308|26:308|41:286,1,87.6,2|0,0:0|0:0,0:0:0:0:
67,271,23705,2,0,P|103:221|90:167,1,116.8,2|2,3:2|0:0,0:0:0:0:
46,109,24200,1,2,0:0:0:0:
177,184,24529,1,2,0:0:0:0:
177,184,24694,2,0,P|221:185|258:172,1,58.4,2|0,0:0|0:0,0:0:0:0:
281,121,25024,6,0,P|255:84|289:16,1,116.8,10|2,0:1|0:0,0:0:0:0:
354,28,25518,2,0,P|372:72|453:66,1,116.8,2|2,0:0|0:0,0:0:0:0:
501,41,26013,1,2,0:0:0:0:
501,41,26178,1,2,0:0:0:0:
510,121,26342,6,0,P|506:171|496:197,1,58.4,2|2,3:2|0:0,0:0:0:0:
456,238,26672,2,0,P|456:281|464:303,1,58.4,2|2,0:0|0:0,0:0:0:0:
406,349,27002,2,0,P|364:333|330:331,1,58.4,0|2,0:0|0:0,0:0:0:0:
281,299,27331,2,0,P|238:311|218:327,1,58.4,2|0,0:0|0:0,0:0:0:0:
154,343,27661,6,0,P|97:329|128:273,1,116.8,10|0,0:1|0:0,0:0:0:0:
163,233,28156,2,0,P|178:189|173:108,1,116.8,2|0,0:0|0:0,0:0:0:0:
132,56,28650,2,0,P|97:53|62:80,1,58.4,0|0,0:0|0:0,0:0:0:0:
47,131,28980,1,2,3:2:0:0:
163,233,29309,6,0,P|204:231|245:218,1,58.4,2|0,0:0|0:0,0:0:0:0:
281,180,29639,2,0,P|321:178|348:190,1,58.4,2|0,0:0|0:0,0:0:0:0:
406,216,29969,2,0,B|448:222|477:197|477:197|483:165,1,87.6,2|0,0:0|0:0,0:0:0:0:
472,149,30298,2,0,P|455:102|472:34,1,116.8,10|2,0:1|0:0,0:0:0:0:
398,9,30793,2,0,B|363:6|363:6|330:31|280:27,1,116.8,2|2,0:0|0:0,0:0:0:0:
213,3,31288,1,2,0:0:0:0:
270,183,31617,5,8,0:3:0:0:
270,183,31782,2,0,P|311:181|346:165,1,73,2|2,0:0|0:0,0:0:0:0:
282,92,32112,2,0,P|215:101|173:180,1,146,8|4,0:3|0:3,0:0:0:0:
206,245,32606,1,6,0:3:0:0:
381,181,32936,6,0,B|453:175|487:212|487:212|498:259,1,146,14|10,0:1|0:1,0:0:0:0:
489,326,33430,2,0,P|442:313|403:316,1,73,2|8,0:0|0:1,0:0:0:0:
341,354,33760,1,2,0:0:0:0:
341,354,33925,1,10,0:1:0:0:
267,304,34090,2,0,B|256:243|285:197|285:197|270:145,1,146,2|0,3:2|0:0,0:0:0:0:
203,118,34584,1,10,0:1:0:0:
133,163,34749,2,0,B|124:195|124:195|138:246,1,73,2|8,0:0|0:1,0:0:0:0:
163,309,35079,2,0,B|170:335|170:335|158:383,1,73,10|8,0:0|0:1,0:0:0:0:
56,373,35408,5,2,0:0:0:0:
56,373,35573,2,0,P|5:346|19:244,1,146,10|10,0:1|0:1,0:0:0:0:
68,217,36068,2,0,P|84:178|81:136,1,73,2|8,0:0|0:1,0:0:0:0:
7,108,36397,2,0,P|-5:68|-3:33,1,73,2|8,0:0|0:1,0:0:0:0:
76,0,36727,1,2,3:2:0:0:
76,0,36809,1,0,3:2:0:0:
76,0,36892,2,0,B|128:11|128:11|144:31|144:31|226:55,1,146,8|8,0:1|0:1,0:0:0:0:
267,107,37386,2,0,B|264:169|228:202|228:202|250:245,1,146,0|10,0:0|0:1,0:0:0:0:
275,317,37881,1,10,0:0:0:0:
275,317,38046,1,10,0:1:0:0:
350,362,38211,6,0,B|428:333|382:303|467:267,1,146,10|10,0:1|0:1,0:0:0:0:
506,202,38705,2,0,P|473:194|462:74,1,146,2|0,0:0|0:0,0:0:0:0:
443,9,39200,2,0,B|415:41|373:41|373:41|334:18,1,109.5,10|0,0:1|3:2,0:0:0:0:
305,14,39529,2,0,P|242:13|200:86,1,146,10|10,0:1|0:1,0:0:0:0:
244,146,40024,2,0,P|257:189|250:233,1,73,2|8,0:0|0:1,0:0:0:0:
285,290,40353,2,0,P|274:333|246:368,1,73,10|8,0:0|0:1,0:0:0:0:
177,369,40683,5,2,3:2:0:0:
177,369,40766,1,0,3:2:0:0:
177,369,40848,2,0,P|114:348|111:263,1,146,10|8,0:1|0:1,0:0:0:0:
161,223,41342,1,0,0:0:0:0:
244,230,41507,2,0,P|289:235|339:215,1,73,8|0,0:1|0:0,0:0:0:0:
390,238,41837,2,0,P|416:201|424:148,1,73,10|2,0:1|0:0,0:0:0:0:
407,95,42167,6,0,L|345:46,1,73,10|0,0:1|0:0,0:0:0:0:
276,18,42496,1,8,0:1:0:0:
243,87,42661,2,0,B|248:138|248:138|226:161|226:161|235:244,1,146,10|8,0:0|0:1,0:0:0:0:
239,303,43156,1,10,0:3:0:0:
156,279,43320,5,2,3:2:0:0:
156,279,43403,1,0,3:2:0:0:
156,279,43485,2,0,B|90:263|49:311|49:311|71:328|104:311,1,146,10|8,0:1|0:1,0:0:0:0:
137,197,44145,1,8,0:1:0:0:
137,197,44309,1,8,0:0:0:0:
63,148,44474,2,0,P|56:94|92:39,1,109.5,10|0,0:1|0:0,0:0:0:0:
125,50,44804,6,0,B|174:92|236:77|236:77|280:41,1,146,10|10,0:1|0:1,0:0:0:0:
337,24,45298,2,0,B|361:5|388:11|388:11|342:39|338:85,1,146,2|2,0:0|0:0,0:0:0:0:
386,147,45793,2,0,P|412:182|417:229,1,73,10|8,0:1|0:3,0:0:0:0:
386,286,46123,2,0,B|306:293|336:326|247:346,1,146,10|10,0:1|0:1,0:0:0:0:
194,281,46617,2,0,P|218:201|209:113,1,146,2|2,0:0|0:0,0:0:0:0:
152,89,47112,2,0,P|107:84|60:103,1,73,10|10,0:1|0:0,0:0:0:0:
23,152,47441,5,12,0:1:0:0:
59,223,47606,1,8,0:1:0:0:
58,302,47771,1,8,0:0:0:0:
13,363,47936,1,12,0:1:0:0:
13,363,48266,5,0,0:0:0:0:
58,302,48430,2,0,P|121:288|163:295,1,73,10|0,0:1|0:0,0:0:0:0:
145,298,48678,1,8,0:1:0:0:
164,309,48760,2,0,L|175:212,1,73,14|0,0:1|0:0,0:0:0:0:
240,185,49090,5,8,0:0:0:0:
240,185,49255,1,0,0:0:0:0:
274,257,49419,2,0,P|308:282|356:293,1,73,0|8,0:0|0:1,0:0:0:0:
391,352,49749,2,0,P|444:354|489:337,1,73,8|0,0:0|0:0,0:0:0:0:
509,277,50079,1,8,0:1:0:0:
509,277,50244,1,0,0:0:0:0:
460,204,50408,2,0,P|445:164|446:119,1,73,10|0,0:0|0:0,0:0:0:0:
387,66,50738,2,0,P|358:122|263:111,1,146,10|8,0:1|0:0,0:0:0:0:
215,77,51233,5,2,0:0:0:0:
215,77,51315,1,2,0:0:0:0:
215,77,51397,2,0,P|164:72|116:85,1,73,10|0,0:1|0:0,0:0:0:0:
102,150,51727,2,0,P|101:202|106:230,1,73,8|0,0:0|0:0,0:0:0:0:
186,259,52057,5,0,0:0:0:0:
266,244,52222,1,8,0:1:0:0:
327,296,52386,2,0,P|331:345|317:377,1,73,8|8,0:0|0:1,0:0:0:0:
312,376,52634,1,8,0:1:0:0:
298,379,52716,2,0,P|243:368|213:373,1,73,14|0,0:1|0:0,0:0:0:0:
139,383,53046,5,8,0:0:0:0:
80,328,53211,1,8,0:0:0:0:
80,328,53293,1,8,0:0:0:0:
80,328,53375,2,0,P|74:287|84:242,1,73,10|8,0:3|0:0,0:0:0:0:
115,184,53705,1,8,0:0:0:0:
115,184,53870,1,8,0:0:0:0:
204,215,54035,6,0,P|260:214|284:136,1,124.10000236702,12|10,0:1|0:1,0:0:0:0:
199,40,54694,2,0,P|129:27|63:69,1,124.10000236702,10|2,0:0|0:0,0:0:0:0:
44,121,55189,1,10,0:0:0:0:
44,121,55271,1,8,0:0:0:0:
44,121,55353,2,0,L|40:186,2,62.0500011835098,8|8|10,0:1|0:0|0:1,0:0:0:0:
199,40,56013,6,0,B|250:48|250:48|268:65|268:65|339:81,1,146,8|2,0:0|0:0,0:0:0:0:
462,202,56672,2,0,P|400:193|348:265,1,146,14|10,0:1|0:1,0:0:0:0:
291,312,57167,2,0,P|239:339|138:307,1,146,2|2,0:0|0:0,0:0:0:0:
103,256,57661,1,10,0:1:0:0:
151,189,57826,1,8,0:0:0:0:
151,189,57908,1,8,0:0:0:0:
151,189,57991,2,0,P|201:176|233:182,1,73,8|8,0:1|0:0,0:0:0:0:
298,194,58320,1,10,0:1:0:0:
358,140,58485,2,0,L|356:94,2,36.5,8|8|10,0:3|0:3|0:0,0:0:0:0:
425,189,58815,5,0,0:0:0:0:
468,252,58980,2,0,P|473:293|468:327,1,73,10|4,0:0|0:3,0:0:0:0:
420,384,59309,1,6,0:0:0:0:
299,275,59639,5,2,0:0:0:0:
257,337,59804,1,2,0:0:0:0:
180,337,59969,2,0,B|138:344|138:344|119:359|119:359|60:370,1,124.10000236702,2|2,0:0|0:0,0:0:0:0:
11,316,60463,2,0,B|-6:267|14:218|14:218|44:188,1,124.10000236702,2|0,0:0|0:0,0:0:0:0:
108,201,60958,2,0,P|145:226|227:203,2,124.10000236702,2|2|2,0:0|0:0|0:0,0:0:0:0:
108,201,61947,6,0,P|96:141|151:78,1,146,14|8,0:0|0:1,0:0:0:0:
225,125,62441,2,0,L|313:143,2,73,14|10|10,0:0|0:1|0:1,0:0:0:0:
146,70,62936,2,0,L|58:52,1,73,14|8,0:0|0:1,0:0:0:0:
19,119,63266,5,14,0:0:0:0:
19,119,63430,1,8,0:0:0:0:
72,191,63595,1,10,0:0:0:0:
24,261,63760,1,14,0:0:0:0:
290,156,64255,6,0,P|281:132|276:96,2,48.6666666666667,2|2|2,0:0|0:0|0:0,0:0:0:0:
333,174,64584,2,0,B|375:170|402:139|402:139|454:174|429:242,1,167.900003202438,14|10,0:1|0:0,0:0:0:0:
416,296,65079,1,8,0:1:0:0:
416,296,65161,1,8,0:1:0:0:
416,296,65244,1,8,0:1:0:0:
334,310,65408,2,0,P|280:290|234:297,1,83.9500016012192,10|8,0:1|0:0,0:0:0:0:
184,344,65738,1,10,0:1:0:0:
93,315,65903,6,0,P|50:270|89:165,1,167.900003202438,8|10,0:1|0:0,0:0:0:0:
169,178,66397,1,10,0:0:0:0:
169,178,66480,1,8,0:0:0:0:
169,178,66562,2,0,L|288:184,1,83.9500016012192,8|0,0:1|0:0,0:0:0:0:
340,150,66892,2,0,L|409:179,2,55.9666677341461,10|2|2,0:0|0:0|0:0,0:0:0:0:
326,102,67222,6,0,B|295:65|294:9|294:9|280:51|239:67,1,167.900003202438,10|10,0:1|0:0,0:0:0:0:
170,32,67716,1,10,0:1:0:0:
170,32,67798,1,8,0:1:0:0:
170,32,67881,1,8,0:1:0:0:
96,70,68046,2,0,P|42:68|7:54,1,83.9500016012192,10|8,0:1|0:0,0:0:0:0:
65,161,68375,6,0,B|78:241|40:207|58:286,1,125.925002401829,10|0,0:1|0:0,0:0:0:0:
77,309,68705,1,10,0:1:0:0:
154,267,68870,1,8,0:0:0:0:
227,330,69035,1,10,0:1:0:0:
227,330,69117,1,8,0:1:0:0:
227,330,69200,2,0,P|273:343|334:329,1,83.9500016012192,8|10,0:1|0:1,0:0:0:0:
379,296,69529,1,8,0:0:0:0:
332,224,69694,5,10,0:0:0:0:
332,224,69777,1,8,0:0:0:0:
332,224,69859,2,0,B|305:182|305:182|299:111|347:56,1,167.900003202438,12|8,0:1|0:0,0:0:0:0:
407,30,70353,1,0,0:0:0:0:
484,67,70518,2,0,P|502:123|498:165,1,83.9500016012192,10|8,0:1|0:1,0:0:0:0:
466,219,70848,2,0,P|451:275|464:353,1,125.925002401829,10|0,0:0|0:0,0:0:0:0:
491,373,71178,6,0,B|388:347|409:392|303:368,1,167.900003202438,10|10,0:1|0:0,0:0:0:0:
264,325,71672,2,0,P|250:281|263:221,1,83.9500016012192,10|0,0:1|0:0,0:0:0:0:
321,192,72002,1,8,0:1:0:0:
321,192,72084,1,8,0:1:0:0:
321,192,72167,2,0,P|334:141|326:92,1,83.9500016012192,10|8,0:0|0:1,0:0:0:0:
259,47,72496,5,10,0:0:0:0:
259,47,72661,1,8,0:1:0:0:
185,99,72826,1,10,0:0:0:0:
185,99,72991,1,10,0:1:0:0:
117,34,73156,2,0,P|66:29|26:44,1,83.9500016012192,8|10,0:0|0:1,0:0:0:0:
0,113,73485,1,8,0:0:0:0:
51,185,73650,6,0,B|103:194|103:194|130:220|130:220|211:238,1,167.900003202438,14|14,0:1|0:1,0:0:0:0:
264,171,74145,1,10,0:0:0:0:
337,228,74309,2,0,B|369:264|369:264|379:336|304:374,1,167.900003202438,10|8,0:0|0:0,0:0:0:0:
302,367,74722,1,8,0:0:0:0:
282,362,74804,2,0,P|231:348|198:358,1,83.9500016012192,8|8,0:0|0:1,0:0:0:0:
126,384,75134,5,2,0:0:0:0:
250,261,75463,1,14,0:0:0:0:
250,261,75628,2,0,L|262:172,1,83.9500016012192,2|8,0:0|0:1,0:0:0:0:
198,125,75958,2,0,L|180:43,1,83.9500016012192,10|8,0:1|0:0,0:0:0:0:
265,0,76288,5,10,0:1:0:0:
319,66,76452,2,0,B|417:77|362:116|482:126,1,167.900003202438,8|10,0:1|0:0,0:0:0:0:
496,212,76947,1,10,0:0:0:0:
496,212,77029,1,8,0:0:0:0:
496,212,77112,2,0,P|450:237|417:268,1,83.9500016012192,8|0,0:1|0:0,0:0:0:0:
368,319,77441,2,0,L|372:407,2,55.9666677341461,10|2|2,0:0|0:0|0:0,0:0:0:0:
325,292,77771,6,0,B|265:280|265:280|235:253|235:253|147:238,1,167.900003202438,10|10,0:1|0:0,0:0:0:0:
88,278,78266,1,10,0:0:0:0:
88,278,78348,1,8,0:0:0:0:
88,278,78430,1,8,0:1:0:0:
16,213,78595,2,0,B|4:188|4:188|0:133|36:77,1,125.925002401829,10|0,0:1|0:0,0:0:0:0:
51,69,78925,6,0,B|112:57|169:91|169:91|224:64,1,167.900003202438,10|10,0:1|0:1,0:0:0:0:
281,23,79419,1,8,0:0:0:0:
353,89,79584,1,10,0:0:0:0:
353,89,79667,1,8,0:0:0:0:
353,89,79749,2,0,P|363:141|351:182,1,83.9500016012192,8|10,0:1|0:1,0:0:0:0:
289,225,80079,1,8,0:0:0:0:
335,302,80244,5,10,0:1:0:0:
335,302,80326,1,8,0:1:0:0:
335,302,80408,2,0,P|381:287|437:298,1,83.9500016012192,12|8,0:0|0:1,0:0:0:0:
498,249,80738,2,0,P|462:216|443:162,1,83.9500016012192,8|8,0:0|0:1,0:0:0:0:
356,170,81068,1,8,0:0:0:0:
356,170,81233,1,8,0:1:0:0:
416,104,81397,1,10,0:0:0:0:
416,104,81562,1,8,0:1:0:0:
364,26,81727,6,0,P|316:10|276:23,1,83.9500016012192,14|8,0:0|0:1,0:0:0:0:
220,76,82057,2,0,P|167:82|133:66,1,83.9500016012192,10|10,0:0|0:1,0:0:0:0:
55,74,82386,1,8,0:0:0:0:
18,151,82551,1,8,0:1:0:0:
66,221,82716,1,10,0:0:0:0:
159,209,82881,5,8,0:1:0:0:
159,209,82963,1,8,0:1:0:0:
159,209,83046,2,0,B|244:198|208:250|305:238,1,131.39999598999,14|0,0:0|0:0,0:0:0:0:
468,331,83705,6,0,B|428:357|428:357|368:337|390:263,1,131.39999598999,12|0,0:0|0:0,0:0:0:0:
436,230,84200,1,10,0:1:0:0:
436,230,84364,2,0,P|448:196|438:146,1,65.6999979949952,10|10,0:0|0:0,0:0:0:0:
380,120,84694,2,0,P|356:92|308:76,1,65.6999979949952,6|6,0:3|0:3,0:0:0:0:
247,109,85024,6,0,L|241:177,2,43.7999986633301,2|2|2,0:0|0:0|0:0,0:0:0:0:
220,64,85353,2,0,P|175:49|104:60,1,98.5499969924928,10|8,0:0|0:0,0:0:0:0:
100,77,85683,6,0,B|127:187|59:132|105:261,1,167.900003202438,14|10,0:0|0:1,0:0:0:0:
188,287,86178,2,0,P|186:220|200:176,1,83.9500016012192,12|8,0:0|0:1,0:0:0:0:
267,163,86507,1,12,0:0:0:0:
341,209,86672,1,8,0:0:0:0:
341,209,86837,1,8,0:0:0:0:
397,135,87002,5,2,0:0:0:0:
256,192,88320,5,14,0:1:0:0:
317,82,92936,6,0,P|370:56|408:61,1,73,8|8,0:0|0:1,0:0:0:0:
457,87,93266,1,8,0:0:0:0:
425,166,93430,1,8,0:0:0:0:
425,166,93513,1,8,0:0:0:0:
425,166,93595,2,0,L|416:252,1,73,14|0,0:1|0:0,0:0:0:0:
341,280,93925,2,0,L|332:194,1,73,2|8,0:0|0:3,0:0:0:0:
260,159,94255,2,0,L|251:245,1,73,0|8,0:0|0:3,0:0:0:0:
176,273,94585,2,0,L|167:187,1,73,6|8,0:3|0:0,0:0:0:0:
114,135,94914,6,0,B|171:110|171:110|186:85|186:85|261:56,1,146,14|8,0:1|0:1,0:0:0:0:
343,110,95573,2,0,P|285:170|242:141,1,146,10|8,0:1|0:0,0:0:0:0:
114,135,96233,6,0,P|102:164|101:213,1,73,14|8,0:0|0:1,0:0:0:0:
112,289,96562,1,10,0:1:0:0:
112,289,96727,2,0,P|132:313|174:338,1,73,14|8,0:0|0:1,0:0:0:0:
239,376,97056,5,8,0:1:0:0:
302,329,97222,1,8,0:0:0:0:
378,361,97386,2,0,B|450:407|515:349|515:349|483:296|441:300,1,219.000008354187,14|2,0:1|0:0,0:0:0:0:
465,302,98211,2,0,P|454:268|456:225,1,73,2|2,0:0|0:0,0:0:0:0:
496,164,98540,1,2,0:0:0:0:
427,104,98705,5,2,0:0:0:0:
427,104,98788,1,2,0:0:0:0:
427,104,98870,2,0,B|343:115|390:159|281:167,1,146,14|8,0:1|0:0,0:0:0:0:
221,183,99364,1,0,0:0:0:0:
160,137,99529,2,0,P|146:98|142:50,1,73,8|0,0:1|0:0,0:0:0:0:
70,26,99859,2,0,B|31:50|23:95|23:95|33:130,1,109.5,10|0,0:0|0:0,0:0:0:0:
50,143,100189,2,0,P|67:187|48:303,1,146,10|10,0:1|0:0,0:0:0:0:
120,353,100683,2,0,P|135:312|173:285,1,73,2|8,0:0|0:1,0:0:0:0:
237,295,101013,2,0,P|280:287|322:306,1,73,10|8,0:1|0:0,0:0:0:0:
376,359,101342,5,0,3:2:0:0:
376,359,101425,1,0,3:2:0:0:
376,359,101507,2,0,P|454:370|469:295,1,146,10|10,0:1|0:0,0:0:0:0:
422,261,102002,2,0,B|410:225|412:203|412:203|422:176,1,73,2|8,0:0|0:1,0:0:0:0:
474,137,102331,2,0,B|481:99|494:81|494:81|516:63,1,73,2|8,0:0|0:0,0:0:0:0:
443,10,102661,5,2,0:0:0:0:
377,59,102826,1,8,0:1:0:0:
377,59,102991,2,0,P|331:73|282:61,1,73,2|10,0:0|0:0,0:0:0:0:
241,26,103320,2,0,P|183:8|126:74,1,146,2|2,0:0|0:0,0:0:0:0:
151,137,103815,2,0,P|179:184|180:226,1,73,10|0,0:0|3:2,0:0:0:0:
221,276,104145,6,0,B|169:285|169:285|147:305|147:305|72:321,1,146,10|10,0:1|0:0,0:0:0:0:
19,271,104639,2,0,B|2:201|2:201|41:133,1,146,2|0,0:0|0:0,0:0:0:0:
121,121,105134,2,0,B|152:137|152:137|189:113|249:120,1,109.5,10|0,0:0|0:0,0:0:0:0:
256,140,105463,2,0,P|280:187|279:291,1,146,10|10,0:1|0:0,0:0:0:0:
340,345,105958,2,0,P|366:304|398:281,1,73,2|8,0:0|0:1,0:0:0:0:
443,211,106288,2,0,P|394:208|358:192,1,73,2|8,0:0|0:0,0:0:0:0:
345,126,106617,5,2,3:2:0:0:
345,126,106700,1,0,3:2:0:0:
345,126,106782,2,0,B|330:88|330:88|338:40|390:-2,1,146,8|8,0:1|0:0,0:0:0:0:
465,11,107277,1,0,0:0:0:0:
505,81,107441,2,0,L|501:167,1,73,8|0,0:1|0:0,0:0:0:0:
464,226,107771,2,0,L|478:309,1,73,10|2,0:0|0:0,0:0:0:0:
462,377,108101,5,10,0:1:0:0:
388,347,108266,1,2,0:0:0:0:
313,370,108430,2,0,P|260:379|229:369,1,73,10|2,0:0|0:0,0:0:0:0:
195,313,108760,1,10,0:0:0:0:
242,248,108925,1,10,0:1:0:0:
242,248,109007,1,8,0:1:0:0:
242,248,109090,1,10,0:0:0:0:
178,183,109255,1,2,0:0:0:0:
105,215,109419,6,0,P|42:206|32:122,1,146,14|8,0:1|0:0,0:0:0:0:
64,63,109914,1,0,0:0:0:0:
151,87,110079,1,8,0:1:0:0:
151,87,110244,1,0,0:0:0:0:
226,49,110408,2,0,B|270:33|306:42|306:42|329:64,1,109.5,10|0,0:0|0:0,0:0:0:0:
343,87,110738,2,0,P|301:141|276:232,1,146,14|10,0:1|0:0,0:0:0:0:
236,288,111233,2,0,B|329:299|291:335|383:349,1,146,2|2,0:0|0:0,0:0:0:0:
445,327,111727,2,0,P|468:310|468:254,1,73,10|0,0:0|0:0,0:0:0:0:
446,189,112057,6,0,B|396:199|396:199|372:218|372:218|289:229,1,146,14|10,0:1|0:0,0:0:0:0:
228,249,112551,2,0,B|202:220|202:220|189:158|222:107,1,146,2|2,0:0|0:0,0:0:0:0:
247,40,113046,1,10,0:0:0:0:
177,0,113211,1,10,0:0:0:0:
100,32,113375,2,0,P|60:39|5:37,2,73,12|8|8,0:1|0:3|0:1,0:0:0:0:
177,0,113870,1,8,0:3:0:0:
177,0,114200,5,0,0:0:0:0:
247,40,114364,2,0,P|266:78|259:137,1,73,10|10,0:0|0:0,0:0:0:0:
262,125,114612,1,8,0:0:0:0:
255,139,114694,2,0,B|205:147|205:147|181:165|181:165|95:179,1,146,14|8,0:1|0:0,0:0:0:0:
47,140,115189,1,0,0:0:0:0:
4,209,115353,2,0,B|1:242|1:242|18:287,1,73,8|0,0:1|0:0,0:0:0:0:
48,351,115683,2,0,B|75:370|75:370|122:377,1,73,8|0,0:0|0:0,0:0:0:0:
199,361,116013,5,8,0:1:0:0:
199,361,116178,1,0,0:0:0:0:
245,291,116342,2,0,P|241:247|247:202,1,73,10|8,0:0|0:1,0:0:0:0:
200,143,116672,1,10,0:0:0:0:
291,149,116837,2,0,L|331:135,2,36.5,8|8|8,0:1|0:1|0:0,0:0:0:0:
208,150,117167,5,10,0:1:0:0:
208,150,117249,1,8,0:1:0:0:
208,150,117331,2,0,P|198:104|210:67,1,73,10|0,0:0|0:0,0:0:0:0:
277,33,117661,1,10,0:0:0:0:
277,33,117826,1,10,0:1:0:0:
354,74,117991,2,0,P|412:87|438:79,1,73,10|10,0:0|0:1,0:0:0:0:
498,148,118320,2,0,P|446:161|415:188,1,73,10|10,0:0|0:1,0:0:0:0:
423,187,118568,1,8,0:1:0:0:
417,202,118650,6,0,L|420:286,1,73,14|0,0:0|0:0,0:0:0:0:
422,354,118980,1,8,0:0:0:0:
344,380,119145,1,8,0:1:0:0:
344,380,119227,1,8,0:1:0:0:
344,380,119309,1,10,0:0:0:0:
272,319,119474,1,8,0:0:0:0:
207,366,119639,2,0,P|166:368|119:356,1,73,8|8,0:0|0:0,0:0:0:0:
80,300,119969,6,0,B|51:242|105:204|105:204|161:235,1,146,12|10,0:1|0:1,0:0:0:0:
272,319,120628,2,0,B|325:343|375:308|375:308|361:293|344:279,1,146,10|2,0:0|0:0,0:0:0:0:
290,226,121123,1,10,0:0:0:0:
290,226,121205,1,8,0:0:0:0:
290,226,121288,2,0,P|280:177|291:140,1,73,8|8,0:1|0:0,0:0:0:0:
305,79,121617,1,10,0:1:0:0:
429,191,121947,2,0,B|341:184|371:230|265:225,1,146,8|10,0:0|0:1,0:0:0:0:
150,160,122606,6,0,B|190:203|173:263|173:263|140:301,1,146,14|10,0:1|0:1,0:0:0:0:
64,290,123101,2,0,B|35:261|35:261|48:208|8:137,1,146,2|2,0:0|0:0,0:0:0:0:
27,74,123595,1,10,0:1:0:0:
107,40,123760,1,8,0:0:0:0:
107,40,123842,1,8,0:0:0:0:
107,40,123925,2,0,P|157:55|196:54,1,73,8|8,0:1|0:0,0:0:0:0:
244,8,124255,1,10,0:1:0:0:
305,66,124419,2,0,L|350:65,2,36.5,8|8|10,0:3|0:3|0:0,0:0:0:0:
241,121,124749,5,0,0:0:0:0:
219,196,124914,2,0,P|219:236|234:275,1,73,10|4,0:0|0:3,0:0:0:0:
299,311,125244,1,6,0:0:0:0:
299,311,125573,5,2,0:0:0:0:
363,266,125738,1,2,0:0:0:0:
359,192,125903,2,0,B|364:121|390:159|397:73,1,124.10000236702,2|2,0:0|0:0,0:0:0:0:
333,15,126397,2,0,P|279:0|205:48,1,124.10000236702,2|2,0:0|0:0,0:0:0:0:
190,109,126892,2,0,P|226:154|202:232,2,124.10000236702,2|2|2,0:0|0:0|0:0,0:0:0:0:
190,109,127881,6,0,P|120:114|86:175,1,146,14|10,0:0|0:1,0:0:0:0:
119,248,128375,2,0,B|140:286|113:337|113:337,2,73,14|8|8,0:0|0:1|0:1,0:0:0:0:
75,173,128870,2,0,P|33:161|-21:167,1,73,14|8,0:0|0:1,0:0:0:0:
80,87,129200,5,14,0:0:0:0:
80,87,129364,1,8,0:0:0:0:
153,128,129529,1,10,0:0:0:0:
216,63,129694,1,14,0:0:0:0:
234,324,130189,6,0,L|168:323,2,48.6666666666667,2|2|2,0:0|0:0|0:0,0:0:0:0:
276,313,130518,2,0,B|334:324|334:324|354:345|354:345|452:368,1,167.900003202438,14|10,0:1|0:0,0:0:0:0:
507,337,131013,1,2,0:0:0:0:
507,337,131095,1,0,0:0:0:0:
507,337,131178,1,8,0:1:0:0:
455,261,131342,2,0,B|445:223|445:223|456:172,1,83.9500016012192,10|8,0:1|0:0,0:0:0:0:
512,111,131672,6,0,B|450:93|450:93|424:65|424:65|357:46,1,167.900003202438,10|0,0:1|0:0,0:0:0:0:
284,79,132167,1,10,0:0:0:0:
212,37,132331,1,10,0:1:0:0:
212,37,132414,1,8,0:0:0:0:
212,37,132496,2,0,P|144:32|108:57,1,83.9500016012192,8|0,0:1|0:0,0:0:0:0:
69,103,132826,2,0,L|4:97,2,55.9666677341461,10|2|2,0:0|0:0|0:0,0:0:0:0:
107,142,133156,6,0,B|125:241|68:185|97:333,1,167.900003202438,10|10,0:1|0:0,0:0:0:0:
164,371,133650,1,10,0:0:0:0:
164,371,133733,1,8,0:0:0:0:
164,371,133815,1,8,0:1:0:0:
243,336,133980,2,0,P|277:321|335:324,1,83.9500016012192,10|8,0:1|0:0,0:0:0:0:
366,237,134309,6,0,P|315:244|270:147,1,167.900003202438,10|10,0:1|0:1,0:0:0:0:
288,77,134804,1,8,0:0:0:0:
370,125,134969,1,10,0:0:0:0:
370,125,135051,1,8,0:0:0:0:
370,125,135134,2,0,P|415:134|464:127,1,83.9500016012192,8|10,0:1|0:1,0:0:0:0:
506,64,135463,1,8,0:0:0:0:
439,9,135628,5,10,0:0:0:0:
439,9,135711,1,8,0:0:0:0:
439,9,135793,2,0,B|347:9|376:60|276:53,1,167.900003202438,14|8,0:1|0:0,0:0:0:0:
209,20,136288,1,0,0:0:0:0:
151,77,136452,2,0,P|142:132|151:174,1,83.9500016012192,10|8,0:1|0:1,0:0:0:0:
212,210,136782,2,0,P|225:275|216:353,1,125.925002401829,10|0,0:0|0:0,0:0:0:0:
194,353,137112,6,0,B|135:335|92:365|92:365|48:343|47:301,1,167.900003202438,10|10,0:1|0:0,0:0:0:0:
17,248,137606,1,10,0:0:0:0:
17,248,137689,1,8,0:0:0:0:
17,248,137771,2,0,P|20:200|14:157,1,83.9500016012192,8|8,0:1|0:1,0:0:0:0:
0,81,138101,1,10,0:0:0:0:
0,81,138266,1,8,0:1:0:0:
90,90,138430,6,0,P|135:104|179:100,1,83.9500016012192,10|8,0:0|0:1,0:0:0:0:
239,53,138760,1,10,0:0:0:0:
322,63,138925,1,10,0:1:0:0:
358,135,139090,2,0,P|344:191|360:234,1,83.9500016012192,8|10,0:0|0:1,0:0:0:0:
425,273,139419,1,8,0:0:0:0:
425,273,139584,1,14,0:0:0:0:
392,356,139749,6,0,P|343:331|302:331,1,83.9500016012192,10|6,0:1|0:0,0:0:0:0:
246,380,140079,1,10,0:0:0:0:
178,334,140244,1,2,0:0:0:0:
208,257,140408,1,12,0:1:0:0:
154,192,140573,2,0,L|93:194,2,41.9750008006096,10|10|10,0:0|0:0|0:0,0:0:0:0:
241,150,140903,5,10,0:3:0:0:
241,150,140985,1,10,0:3:0:0:
241,150,141068,2,0,P|264:106|203:30,1,146,6|14,0:3|0:0,0:0:0:0:
132,37,141562,2,0,P|99:69|92:109,1,83.9500016012192,2|8,0:0|0:1,0:0:0:0:
48,173,141892,2,0,P|59:217|90:243,1,83.9500016012192,2|8,0:0|0:0,0:0:0:0:
104,323,142222,5,2,0:0:0:0:
179,364,142386,2,0,B|244:356|244:356|267:338|267:338|342:326,1,167.900003202438,8|10,0:1|0:0,0:0:0:0:
427,354,142881,1,10,0:0:0:0:
427,354,142963,1,8,0:0:0:0:
427,354,143046,2,0,B|452:312|452:312|445:263,1,83.9500016012192,8|0,0:1|0:0,0:0:0:0:
388,213,143375,2,0,L|322:216,2,55.9666677341461,10|2|2,0:0|0:0|0:0,0:0:0:0:
432,188,143705,6,0,B|463:136|454:77|454:77|421:29,1,167.900003202438,10|10,0:1|0:0,0:0:0:0:
346,68,144200,1,8,0:0:0:0:
346,68,144282,1,8,0:0:0:0:
346,68,144364,1,8,0:1:0:0:
272,19,144529,2,0,B|222:6|176:32|176:32|121:17,1,125.925002401829,10|0,0:1|0:0,0:0:0:0:
119,7,144859,6,0,B|142:65|142:65|120:175,1,167.900003202438,10|10,0:1|0:1,0:0:0:0:
99,242,145353,1,8,0:0:0:0:
18,256,145518,1,10,0:1:0:0:
18,256,145601,1,8,0:0:0:0:
18,256,145683,1,0,0:0:0:0:
0,338,145848,1,2,0:0:0:0:
82,377,146013,1,8,0:0:0:0:
147,327,146178,5,10,0:1:0:0:
147,327,146260,1,8,0:1:0:0:
147,327,146342,2,0,P|196:322|245:336,1,83.9500016012192,12|8,0:0|0:1,0:0:0:0:
302,370,146672,1,8,0:0:0:0:
370,323,146837,1,8,0:1:0:0:
331,249,147002,2,0,P|276:236|236:238,1,83.9500016012192,10|8,0:0|0:1,0:0:0:0:
177,195,147331,1,10,0:0:0:0:
177,195,147496,1,8,0:1:0:0:
108,136,147661,6,0,P|101:87|116:50,1,83.9500016012192,14|8,0:0|0:1,0:0:0:0:
180,16,147991,2,0,P|225:4|271:15,1,83.9500016012192,10|10,0:0|0:1,0:0:0:0:
323,63,148320,1,8,0:0:0:0:
282,134,148485,1,8,0:1:0:0:
334,199,148650,1,10,0:0:0:0:
416,184,148815,5,8,0:1:0:0:
416,184,148897,1,8,0:1:0:0:
416,184,148980,2,0,B|383:147|405:77|513:100|516:175|506:230|448:261,1,251.850004803658,14|2,0:0|0:0,0:0:0:0:
403,284,149639,6,0,B|339:248|266:283|266:283|302:327,1,167.900003202438,12|8,0:0|0:1,0:0:0:0:
294,380,150134,1,10,0:0:0:0:
215,382,150298,2,0,P|162:373|132:345,1,83.9500016012192,10|10,0:0|0:0,0:0:0:0:
126,280,150628,2,0,L|128:196,1,83.9500016012192,10|10,0:3|0:3,0:0:0:0:
190,134,150958,2,0,L|261:135,2,55.9666677341461,2|2|2,0:0|0:0|0:0,0:0:0:0:
153,96,151288,2,0,P|107:69|52:71,1,83.9500016012192,10|8,0:0|0:0,0:0:0:0:
59,74,151535,1,8,0:0:0:0:
43,85,151617,6,0,L|30:181,1,83.9500016012192,14|0,0:1|0:0,0:0:0:0:
17,247,151947,1,10,0:1:0:0:
93,231,152112,2,0,P|144:237|181:256,1,83.9500016012192,14|0,0:0|0:0,0:0:0:0:
235,300,152441,2,0,P|293:311|341:292,1,83.9500016012192,12|8,0:0|0:0,0:0:0:0:
374,251,152771,1,8,0:0:0:0:
356,170,152936,5,2,0:0:0:0:
256,192,154255,5,2,0:0:0:0:
77,159,159364,5,8,0:1:0:0:
77,159,159447,1,8,0:1:0:0:
77,159,159529,2,0,L|87:248,1,73,10|8,0:0|0:1,0:0:0:0:
79,251,159777,2,0,L|77:304,1,36.5,8|8,0:1|0:1,0:0:0:0:
134,348,160024,1,10,0:0:0:0:
205,318,160189,2,0,P|256:312|286:325,1,73,8|8,0:1|0:1,0:0:0:0:
339,360,160518,2,0,P|383:365|421:355,1,73,10|8,0:0|0:1,0:0:0:0:
425,348,160766,1,8,0:1:0:0:
434,338,160848,1,8,0:0:0:0:
482,267,161013,5,10,0:1:0:0:
421,216,161178,2,0,B|365:202|365:202|341:177|341:177|267:161,2,146,8|10|10,0:0|0:0|0:0,0:0:0:0:
483,162,162002,5,8,0:0:0:0:
483,162,162084,1,8,0:0:0:0:
483,162,162167,2,0,P|496:102|443:14,1,146,14|8,0:1|0:0,0:0:0:0:
381,44,162661,2,0,B|344:64|344:64|281:67|240:36,1,146,10|0,0:1|0:0,0:0:0:0:
165,17,163156,6,0,B|188:106|124:79|157:180,1,146,14|8,0:0|0:0,0:0:0:0:
194,237,163650,2,0,P|106:242|50:293,1,146,8|0,0:1|0:0,0:0:0:0:
54,361,164145,1,8,0:0:0:0:
54,361,164227,1,8,0:0:0:0:
54,361,164309,1,8,0:1:0:0:
136,384,164474,1,10,0:0:0:0:
202,331,164639,5,10,0:1:0:0:
202,331,164722,1,8,0:1:0:0:
202,331,164804,2,0,B|259:317|308:345|308:345|369:329,1,146,14|10,0:0|0:1,0:0:0:0:
397,280,165298,2,0,B|356:237|356:181|356:181|311:136,1,146,2|2,0:0|0:0,0:0:0:0:
255,136,165793,2,0,B|238:192|189:220|189:220|173:281,1,146,10|8,0:1|0:1,0:0:0:0:
12,310,166452,6,0,P|-2:261|8:216,1,73,10|0,0:1|0:0,0:0:0:0:
0,161,166782,2,0,P|35:124|79:110,1,73,10|0,0:1|0:0,0:0:0:0:
116,62,167112,2,0,P|183:60|251:81,1,109.5,10|0,0:0|0:0,0:0:0:0:
244,90,167441,6,0,B|328:89|287:36|392:28,1,146,10|10,0:1|0:1,0:0:0:0:
450,51,167936,2,0,B|418:100|446:160|446:160|489:189,1,146,2|10,0:0|0:0,0:0:0:0:
511,247,168430,1,10,0:1:0:0:
471,319,168595,5,8,0:0:0:0:
471,319,168678,1,8,0:0:0:0:
471,319,168760,1,8,0:1:0:0:
348,186,169090,2,0,P|292:179|252:191,1,73,10|8,0:1|0:0,0:0:0:0:
222,240,169419,1,8,0:1:0:0:
148,209,169584,1,8,0:0:0:0:
157,131,169749,2,0,P|167:78|116:16,1,109.5,10|8,0:1|0:0,0:0:0:0:
105,21,170079,6,0,P|48:26|1:109,1,146,10|10,0:1|0:1,0:0:0:0:
29,167,170573,2,0,P|65:221|41:304,1,146,2|0,0:0|0:0,0:0:0:0:
6,364,171068,1,10,0:1:0:0:
94,384,171233,1,8,0:0:0:0:
94,384,171315,1,8,0:0:0:0:
94,384,171397,2,0,P|155:368|187:368,1,73,8|8,0:1|0:0,0:0:0:0:
245,376,171727,1,10,0:1:0:0:
245,376,171892,1,8,0:0:0:0:
215,296,172057,1,8,0:1:0:0:
260,121,172386,5,10,0:1:0:0:
260,121,172551,1,10,0:0:0:0:
194,73,172716,2,0,B|139:84|139:84|116:103|116:103|37:125,2,146,10|10|10,0:1|0:1|0:1,0:0:0:0:
260,121,173540,1,8,0:0:0:0:
320,69,173705,2,0,P|367:57|412:70,1,73,10|8,0:1|0:0,0:0:0:0:
456,97,174035,5,8,0:1:0:0:
491,234,174364,1,8,0:1:0:0:
491,234,174529,1,8,0:0:0:0:
440,298,174694,2,0,P|423:340|421:375,1,73,8|8,0:1|0:0,0:0:0:0:
343,384,175024,1,10,0:1:0:0:
272,347,175189,1,10,0:0:0:0:
283,265,175353,6,0,P|300:204|264:113,1,146,14|10,0:1|0:0,0:0:0:0:
204,92,175848,2,0,P|159:46|62:32,1,146,10|10,0:1|0:1,0:0:0:0:
17,78,176342,2,0,P|1:112|0:151,1,73,10|0,0:0|0:0,0:0:0:0:
23,222,176672,1,8,0:1:0:0:
174,301,177002,6,0,P|211:278|246:279,1,73,10|0,0:0|0:0,0:0:0:0:
312,309,177331,2,0,P|360:317|400:305,1,73,2|8,0:0|0:1,0:0:0:0:
451,270,177661,2,0,P|461:216|432:146,1,109.5,10|8,0:0|0:0,0:0:0:0:
410,149,177991,2,0,B|368:177|368:177|317:192|255:165,1,146,14|10,0:1|0:0,0:0:0:0:
224,110,178485,2,0,P|225:42|299:19,1,146,10|8,0:1|0:1,0:0:0:0:
363,46,178980,6,0,L|446:40,2,73,10|8|8,0:0|0:1|0:1,0:0:0:0:
224,110,179639,1,8,0:0:0:0:
71,15,179969,2,0,P|31:63|33:144,1,146,2|8,0:0|0:0,0:0:0:0:
75,223,180463,5,8,0:0:0:0:
75,223,180546,1,8,0:0:0:0:
75,223,180628,2,0,P|55:279|52:318,1,73,14|8,0:1|0:1,0:0:0:0:
90,360,180958,1,8,0:1:0:0:
161,324,181123,2,0,P|204:316|237:325,1,73,8|0,0:0|0:0,0:0:0:0:
299,365,181452,1,10,0:1:0:0:
381,358,181617,2,0,L|391:274,1,73,10|10,0:0|0:1,0:0:0:0:
334,229,181947,6,0,P|279:222|236:117,1,146,12|10,0:0|0:1,0:0:0:0:
276,76,182441,2,0,P|323:71|374:90,1,73,10|0,0:0|0:0,0:0:0:0:
420,114,182771,1,10,0:1:0:0:
500,100,182936,2,0,L|488:183,1,73,8|10,0:0|0:1,0:0:0:0:
495,262,183266,6,0,P|453:255|422:267,1,73,12|0,0:1|0:0,0:0:0:0:
379,328,183595,1,8,0:0:0:0:
379,328,183760,1,8,0:1:0:0:
301,292,183925,2,0,L|295:205,1,73,8|8,0:1|0:1,0:0:0:0:
286,143,184255,1,10,0:0:0:0:
211,122,184419,1,0,0:0:0:0:
147,166,184584,2,0,P|130:225|119:330,1,146,10|8,0:1|0:0,0:0:0:0:
43,358,185079,2,0,P|37:272|11:191,1,146,10|8,0:1|0:0,0:0:0:0:
0,138,185573,1,14,0:0:0:0:
37,65,185738,1,8,0:1:0:0:
121,56,185903,6,0,B|226:48|177:115|314:115,1,186.15000355053,14|8,0:0|0:1,0:0:0:0:
404,62,186727,2,0,P|416:31|438:3,2,62.0500011835098,8|8|8,0:0|0:1|0:3,0:0:0:0:
430,138,187222,6,0,P|456:187|467:327,1,186.15000355053,12|8,0:1|0:3,0:0:0:0:
412,365,188046,1,4,0:3:0:0:
275,285,188375,5,6,0:3:0:0:
275,285,188540,2,0,B|319:244|365:293|370:320|353:391|248:404|244:359|219:311|153:323|108:365,2,350.399989306641,14|2|2,0:1|0:0|1:2,0:0:0:0:
50,211,200244,5,2,3:2:0:0:
50,211,200326,1,0,3:2:0:0:
50,211,200408,2,0,B|85:228|141:223|134:206|176:186|220:212|220:212|182:212|149:241,1,246.375009398461,0|0,3:2|0:0,0:0:0:0:
161,247,201233,1,8,0:3:0:0:
124,316,201397,2,0,P|76:322|41:309,1,73,8|4,0:3|0:3,0:0:0:0:
198,349,201727,6,0,B|282:318|260:381|368:339,1,146,14|10,0:1|0:1,0:0:0:0:
413,320,202222,2,0,P|428:278|425:244,1,73,2|8,0:0|0:1,0:0:0:0:
471,187,202551,2,0,P|472:139|454:106,1,73,2|8,0:0|0:1,0:0:0:0:
464,41,202881,1,10,0:0:0:0:
464,41,202963,1,8,0:0:0:0:
464,41,203046,1,8,0:1:0:0:
260,0,203375,5,10,0:1:0:0:
260,0,203540,1,2,0:0:0:0:
218,68,203705,2,0,P|214:123|222:163,1,73,8|0,0:1|0:0,0:0:0:0:
272,205,204035,1,8,0:1:0:0:
198,365,204364,6,0,B|148:352|148:352|126:332|126:332|58:316,1,146,14|10,0:1|0:1,0:0:0:0:
11,255,204859,2,0,B|6:214|6:214|18:169,1,73,2|8,0:0|0:1,0:0:0:0:
0,102,205189,2,0,B|33:77|33:77|77:65,1,73,2|8,0:0|0:1,0:0:0:0:
121,11,205518,1,10,0:3:0:0:
263,103,205848,5,10,0:1:0:0:
263,103,206013,1,8,0:1:0:0:
321,50,206178,1,10,0:3:0:0:
434,242,206507,5,10,0:1:0:0:
364,214,206672,2,0,P|317:222|289:238,1,73,8|10,0:0|0:1,0:0:0:0:
220,293,207002,6,0,B|228:202|167:262|183:142,1,146,14|0,0:0|0:0,0:0:0:0:
142,90,207496,1,8,0:1:0:0:
73,126,207661,2,0,L|-3:118,1,73,10|8,0:0|0:1,0:0:0:0:
135,2,208156,5,8,0:1:0:0:
135,2,208320,2,0,B|264:9|192:79|339:92,1,219,10|2,0:1|0:0,0:0:0:0:
394,58,208980,2,0,P|412:23|452:-2,1,73,8|8,0:0|0:1,0:0:0:0:
512,46,209309,1,2,0:0:0:0:
512,46,209474,1,0,3:2:0:0:
481,122,209639,6,0,P|463:182|455:274,1,146,10|10,0:1|0:0,0:0:0:0:
472,341,210134,1,10,0:1:0:0:
404,380,210298,2,0,L|329:368,1,73,8|8,0:1|0:1,0:0:0:0:
255,352,210628,5,8,0:1:0:0:
273,277,210793,1,10,0:0:0:0:
231,211,210958,2,0,P|178:205|150:219,1,73,10|8,0:0|0:1,0:0:0:0:
153,132,211288,5,10,0:1:0:0:
74,135,211453,2,0,P|42:177|44:243,1,109.5,10|8,0:3|0:1,0:0:0:0:
129,322,211947,5,8,0:0:0:0:
129,322,212112,1,8,0:0:0:0:
184,262,212277,1,8,0:3:0:0:
268,294,212441,1,8,0:3:0:0:
268,294,212524,1,8,0:3:0:0:
268,294,212606,2,0,L|314:308,2,36.5,4|4|8,0:3|0:3|0:0,0:0:0:0:
251,205,212936,2,0,L|265:159,4,36.5,8|8|4|4|8,0:3|0:3|0:3|0:3|0:0,0:0:0:0:
184,262,213430,1,4,0:3:0:0:
23,10,213925,5,14,0:0:0:0:
0,94,214090,1,10,0:1:0:0:
0,94,214173,1,8,0:1:0:0:
0,94,214255,1,8,0:1:0:0:
51,154,214419,2,0,P|97:164|147:154,1,83.9500016012192,2|8,0:0|0:0,0:0:0:0:
195,108,214749,1,10,0:1:0:0:
277,132,214914,6,0,B|265:200|265:200|284:228|284:228|270:306,1,167.900003202438,8|10,0:1|0:0,0:0:0:0:
338,361,215408,1,10,0:1:0:0:
338,361,215491,1,8,0:0:0:0:
338,361,215573,2,0,L|432:347,1,83.9500016012192,8|0,0:1|0:0,0:0:0:0:
458,254,215903,2,0,L|533:239,2,55.9666677341461,10|2|2,0:0|0:0|0:0,0:0:0:0:
418,226,216233,6,0,B|397:160|417:98|417:98|398:59,1,167.900003202438,10|10,0:1|0:0,0:0:0:0:
327,27,216727,1,10,0:1:0:0:
327,27,216809,1,8,0:1:0:0:
327,27,216892,1,8,0:1:0:0:
265,81,217057,2,0,P|221:98|170:88,1,83.9500016012192,10|8,0:1|0:0,0:0:0:0:
121,43,217386,6,0,P|57:23|7:107,1,167.900003202438,10|10,0:1|0:1,0:0:0:0:
53,166,217881,1,8,0:0:0:0:
14,239,218046,1,10,0:0:0:0:
14,239,218128,1,8,0:0:0:0:
14,239,218211,2,0,P|1:288|4:328,1,83.9500016012192,8|10,0:1|0:1,0:0:0:0:
69,372,218540,1,8,0:0:0:0:
151,329,218705,5,10,0:0:0:0:
151,329,218788,1,8,0:0:0:0:
151,329,218870,2,0,B|212:320|212:320|233:292|233:292|327:274,1,167.900003202438,12|8,0:1|0:0,0:0:0:0:
372,236,219364,1,0,0:0:0:0:
334,166,219529,2,0,B|293:148|293:148|247:153,1,83.9500016012192,10|8,0:1|0:1,0:0:0:0:
179,184,219859,2,0,B|138:177|138:177|92:138|133:84,1,125.925002401829,10|0,0:0|0:0,0:0:0:0:
153,73,220189,6,0,B|248:68|187:13|319:7,1,167.900003202438,10|10,0:1|0:0,0:0:0:0:
380,44,220683,1,10,0:1:0:0:
380,44,220766,1,8,0:1:0:0:
380,44,220848,2,0,P|366:90|366:134,1,83.9500016012192,0|8,0:0|0:1,0:0:0:0:
423,185,221178,2,0,P|471:237|469:310,1,125.925002401829,10|0,0:0|0:0,0:0:0:0:
457,322,221507,6,0,P|409:309|368:314,1,83.9500016012192,14|8,0:0|0:1,0:0:0:0:
306,353,221837,1,10,0:0:0:0:
244,301,222002,2,0,P|231:244|240:200,1,83.9500016012192,10|8,0:1|0:0,0:0:0:0:
282,159,222331,1,10,0:1:0:0:
282,159,222414,1,8,0:1:0:0:
282,159,222496,1,8,0:0:0:0:
239,87,222661,2,0,P|198:75|146:76,1,83.9500016012192,10|8,0:1|0:0,0:0:0:0:
80,102,222991,1,14,0:1:0:0:
33,170,223156,2,0,L|35:260,1,83.9500016012192,10|14,0:0|0:0,0:0:0:0:
43,337,223485,5,8,0:0:0:0:
116,297,223650,1,8,0:0:0:0:
116,297,223733,1,8,0:0:0:0:
116,297,223815,1,8,0:0:0:0:
168,356,223980,1,8,0:3:0:0:
242,318,224145,6,0,P|255:272|246:227,1,83.9500016012192,14|8,0:0|0:1,0:0:0:0:
217,169,224474,1,10,0:0:0:0:
168,105,224639,2,0,P|157:52|178:2,1,83.9500016012192,10|8,0:1|0:0,0:0:0:0:
240,2,224969,2,0,P|290:26|323:23,1,83.9500016012192,10|8,0:1|0:0,0:0:0:0:
399,3,225298,1,10,0:1:0:0:
470,47,225463,6,0,L|463:138,1,83.9500016012192,12|8,0:0|0:1,0:0:0:0:
432,205,225793,1,10,0:0:0:0:
432,205,225958,1,10,0:1:0:0:
481,276,226123,1,8,0:0:0:0:
481,276,226288,1,8,0:1:0:0:
415,329,226452,2,0,L|414:396,2,55.9666677341461,10|2|2,0:0|0:0|0:0,0:0:0:0:
375,299,226782,6,0,P|332:286|278:298,1,83.9500016012192,14|8,0:0|0:1,0:0:0:0:
222,322,227112,1,10,0:0:0:0:
162,268,227277,2,0,L|147:172,1,83.9500016012192,10|8,0:1|0:0,0:0:0:0:
211,133,227606,1,10,0:1:0:0:
227,55,227771,1,8,0:0:0:0:
160,8,227936,6,0,P|100:2|26:55,1,125.925002401829,10|0,0:1|0:0,0:0:0:0:
31,59,228266,2,0,P|47:133|42:179,1,83.9500016012192,10|8,0:1|0:0,0:0:0:0:
27,218,228595,2,0,P|17:271|23:309,1,83.9500016012192,10|8,0:1|0:0,0:0:0:0:
89,353,228925,1,10,0:1:0:0:
155,309,229090,1,8,0:0:0:0:
236,352,229255,5,10,0:1:0:0:
236,352,229337,1,8,0:1:0:0:
236,352,229419,2,0,L|254:266,1,83.9500016012192,12|8,0:0|0:1,0:0:0:0:
208,205,229749,1,8,0:0:0:0:
208,205,229914,1,8,0:1:0:0:
239,132,230079,2,0,P|299:121|337:137,1,83.9500016012192,10|8,0:0|0:1,0:0:0:0:
375,188,230408,2,0,P|384:241|380:293,1,83.9500016012192,10|8,0:0|0:1,0:0:0:0:
470,313,230738,6,0,P|481:253|506:206,1,83.9500016012192,14|8,0:0|0:1,0:0:0:0:
504,152,231068,1,10,0:0:0:0:
485,75,231233,2,0,P|433:55|396:55,1,83.9500016012192,10|8,0:1|0:0,0:0:0:0:
332,84,231562,1,8,0:1:0:0:
270,31,231727,1,10,0:0:0:0:
204,79,231892,5,8,0:1:0:0:
204,79,231974,1,8,0:1:0:0:
204,79,232057,2,0,B|137:91|137:91|110:116|110:116|8:135,1,186.15000355053,14|0,0:0|0:0,0:0:0:0:
1,214,232716,6,0,P|90:219|124:308,1,186.15000355053,12|10,0:0|0:0,0:0:0:0:
188,356,233375,5,10,0:0:0:0:
250,312,233540,1,10,0:0:0:0:
322,342,233705,2,0,P|360:355|396:346,1,62.0500011835098,10|10,0:3|0:3,0:0:0:0:
450,314,234035,2,0,L|500:321,2,41.3666674556732,2|2|2,0:0|0:0|0:0,0:0:0:0:
422,270,234364,2,0,P|409:218|422:152,1,93.0750017752648,10|8,0:0|0:0,0:0:0:0:
432,159,234694,6,0,P|445:113|441:76,1,73,14|0,0:1|0:0,0:0:0:0:
388,29,235024,1,10,0:1:0:0:
323,75,235189,2,0,P|280:89|228:80,1,73,14|0,0:0|0:0,0:0:0:0:
173,57,235518,1,12,0:0:0:0:
182,137,235683,2,0,L|193:243,1,73,8|8,0:0|0:0,0:0:0:0:
199,290,236013,5,2,0:0:0:0:
199,290,237331,6,0,B|295:282|228:238|348:225,1,146,14|8,0:1|0:0,0:0:0:0:
406,249,237826,1,2,0:0:0:0:
477,210,237991,2,0,P|488:162|487:117,1,73,8|8,0:1|0:1,0:0:0:0:
446,69,238320,1,8,0:0:0:0:
446,69,238485,1,8,0:0:0:0:
368,97,238650,6,0,P|315:108|250:89,1,109.5,8|0,0:1|0:0,0:0:0:0:
238,73,238980,2,0,P|196:55|159:56,1,73,8|8,0:0|0:1,0:0:0:0:
154,63,239227,1,8,0:0:0:0:
140,72,239309,2,0,L|147:150,1,73,10|0,0:1|0:0,0:0:0:0:
196,214,239639,1,8,0:0:0:0:
196,214,239804,1,0,0:0:0:0:
133,280,239969,6,0,P|58:289|20:249,1,109.5,10|0,0:1|0:0,0:0:0:0:
21,244,240298,2,0,L|12:159,1,73,8|8,0:0|0:1,0:0:0:0:
46,103,240628,2,0,L|61:23,1,73,8|8,0:1|0:1,0:0:0:0:
167,59,240958,6,0,B|220:64|220:64|242:80|242:80|318:92,2,146,10|10|10,0:0|0:1|0:0,0:0:0:0:
119,127,241782,2,0,P|112:177|124:216,1,73,10|8,0:0|0:1,0:0:0:0:
103,278,242112,2,0,P|130:319|167:340,1,73,10|8,0:1|0:0,0:0:0:0:
233,307,242441,5,10,0:0:0:0:
233,307,242524,1,8,0:0:0:0:
233,307,242606,2,0,B|316:303|280:353|389:352,1,146,12|8,0:1|0:0,0:0:0:0:
441,317,243101,1,10,0:0:0:0:
495,257,243266,2,0,L|503:171,1,73,8|8,0:1|0:1,0:0:0:0:
455,119,243595,2,0,P|407:105|366:116,1,73,10|8,0:0|0:1,0:0:0:0:
312,148,243925,6,0,L|302:275,1,109.5,10|0,0:1|0:0,0:0:0:0:
284,282,244255,2,0,P|244:296|204:281,1,73,10|0,0:0|0:0,0:0:0:0:
154,240,244584,1,10,0:1:0:0:
154,240,244749,1,8,0:1:0:0:
177,162,244914,2,0,P|187:102|175:49,1,109.5,10|0,0:0|0:0,0:0:0:0:
145,40,245244,6,0,B|67:61|107:88|-5:108,1,146,10|8,0:1|0:0,0:0:0:0:
0,189,245738,1,8,0:3:0:0:
0,189,245820,1,8,0:3:0:0:
0,189,245903,2,0,P|46:195|84:216,1,73,8|8,0:3|0:3,0:0:0:0:
139,260,246233,5,6,0:3:0:0:
215,223,246397,1,4,0:3:0:0:
281,281,246562,2,0,B|314:313|368:320|385:320|416:301|454:252|386:191|334:249,1,262.799991979981,14|0,0:1|0:0,0:0:0:0:
205,299,247881,6,0,P|202:230|180:166,1,124.10000236702,12|0,0:1|0:0,0:0:0:0:
116,145,248375,1,10,0:3:0:0:
116,145,248458,1,8,0:3:0:0:
116,145,248540,2,0,B|78:139|53:158|53:158|11:147|10:104,1,124.10000236702,8|0,0:3|0:0,0:0:0:0:
44,47,249035,1,10,0:3:0:0:
44,47,249117,1,8,0:3:0:0:
44,47,249200,2,0,B|94:28|136:47|136:47|190:27,1,124.10000236702,8|0,0:3|0:0,0:0:0:0:
245,15,249694,5,10,0:3:0:0:
245,15,249777,1,8,0:3:0:0:
245,15,249859,2,0,L|236:100,1,62.0500011835098,8|8,0:3|0:3,0:0:0:0:
291,141,250189,1,4,0:3:0:0:
291,141,250353,1,4,0:3:0:0:
359,100,250518,6,0,P|405:82|475:136,1,124.10000236702,12|0,0:0|0:0,0:0:0:0:
489,201,251013,1,10,0:3:0:0:
489,201,251095,1,8,0:3:0:0:
489,201,251178,2,0,P|467:266|460:340,1,124.10000236702,8|10,0:3|0:3,0:0:0:0:
394,364,251672,1,6,0:3:0:0:
318,328,251837,6,0,B|274:336|274:336|252:350|252:350|185:361,1,124.10000236702,12|0,0:0|0:0,0:0:0:0:
125,336,252331,1,10,0:1:0:0:
135,257,252496,1,8,0:0:0:0:
135,257,252579,1,8,0:0:0:0:
135,257,252661,1,8,0:1:0:0:
214,267,252826,1,8,0:0:0:0:
276,213,252991,5,8,0:0:0:0:
276,213,253073,1,8,0:0:0:0:
276,213,253156,2,0,L|283:57,1,146,14|8,0:1|0:1,0:0:0:0:
221,15,253650,6,0,L|168:5,2,36.5,2|0|8,3:0|3:0|0:1,0:0:0:0:
283,67,253980,2,0,L|335:76,2,36.5,2|0|10,3:0|3:0|0:1,0:0:0:0:
217,116,254309,2,0,L|164:106,2,36.5,10|8|8,0:0|0:0|0:1,0:0:0:0:
278,169,254639,2,0,L|330:178,2,36.5,10|8|8,0:0|0:0|0:1,0:0:0:0:
216,221,254969,2,0,L|163:211,2,36.5,10|8|8,0:0|0:0|0:1,0:0:0:0:
270,294,255298,5,10,0:0:0:0:
270,294,255381,1,10,0:0:0:0:
270,294,255463,2,0,L|260:356,2,36.5,10|10|10,0:0|0:0|0:0,0:0:0:0:
333,240,255793,6,0,P|374:232|425:242,1,73,14|10,0:0|0:1,0:0:0:0:
480,263,256123,1,10,0:1:0:0:
507,186,256288,2,0,L|489:99,1,73,14|8,0:0|0:1,0:0:0:0:
458,44,256617,1,10,0:1:0:0:
385,65,256782,1,10,0:0:0:0:
306,48,256947,6,0,B|256:63|247:106|246:127|257:149|273:169|289:183|322:190|353:174|375:159|375:159|398:144|425:132|461:139|482:162|496:190|508:223|487:260|454:281|415:279,1,511,14|0,0:1|0:0,0:0:0:0:
