osu file format v14

[General]
AudioFilename: audio.mp3
AudioLeadIn: 0
PreviewTime: 125244
Countdown: 0
SampleSet: Soft
StackLeniency: 0.7
Mode: 0
LetterboxInBreaks: 0
EpilepsyWarning: 1
WidescreenStoryboard: 1

[Editor]
DistanceSpacing: 0.8
BeatDivisor: 4
GridSize: 16
TimelineZoom: 1.5

[Metadata]
Title:Kimi to Yumemishi
TitleUnicode:キミトユメミシ
Artist:yuiko
ArtistUnicode:ゆいこ
Creator:keeVY
Version:Easy
Source:キミトユメミシ
Tags:lasse yogurtt kuse shikibe mayu kazato asa shizuku- japanese pop ゆいこんぬ yuikonnu primary video game eroge visual novel Laplacian Kimiyume kubsnia_zhoyl_
BeatmapID:3078003
BeatmapSetID:1501736

[Difficulty]
HPDrainRate:3
CircleSize:3
OverallDifficulty:4
ApproachRate:5
SliderMultiplier:1.06
SliderTickRate:1

[Events]
//Background and Video events
0,0,"1.jpg",0,0
//Break Periods
2,191186,200416
//Storyboard Layer 0 (Background)
//Storyboard Layer 1 (Fail)
//Storyboard Layer 2 (Pass)
//Storyboard Layer 3 (Foreground)
Sprite,Foreground,Centre,"sb\other\keeVY.png",0,240 S,0,251330,,0.35 MX,0,251330,253930,434,439 F,0,251430,251730,0,1 F,0,252579,253000,1,0
//Storyboard Layer 4 (Overlay)
//Storyboard Sound Samples

[TimingPoints]
1288,329.67032967033,4,2,1,60,1,0
1288,-100,4,2,1,60,0,0
6562,-100,4,2,1,75,0,0
7222,-100,4,2,1,75,0,0
7469,-100,4,2,1,5,0,0
7552,-100,4,2,1,75,0,0
7798,-100,4,2,1,5,0,0
7881,-100,4,2,1,75,0,0
8540,-100,4,2,1,75,0,0
8788,-100,4,2,1,5,0,0
8870,-100,4,2,1,75,0,0
10353,-100,4,2,1,75,0,0
11013,-100,4,2,1,60,0,0
11507,-100,4,2,1,65,0,0
11837,-100,4,2,1,60,0,0
13073,-100,4,2,1,5,0,0
13156,-100,4,2,1,60,0,0
17606,-100,4,2,1,60,0,0
18101,-100,4,2,1,60,0,0
18430,-100,4,2,1,60,0,0
18925,-100,4,2,1,60,0,0
19749,-100,4,2,1,60,0,0
21068,-100,4,2,1,60,0,0
26013,-100,4,2,1,60,0,0
27331,-100,4,2,1,60,0,0
27579,-100,4,2,1,5,0,0
27661,-100,4,2,1,60,0,0
28156,-100,4,2,1,60,0,0
28650,-100,4,2,1,60,0,0
29969,-100,4,2,1,60,0,0
30216,-100,4,2,1,5,0,0
30298,-100,4,2,1,60,0,0
31617,-100,4,2,1,70,0,0
32936,-100,4,2,1,70,0,0
44722,-100,4,2,1,5,0,0
44804,-100,4,2,1,70,0,0
48760,-100,4,2,1,75,0,0
52716,-100,4,2,1,70,0,0
55930,-100,4,2,1,5,0,0
56012,-100,4,2,1,70,0,0
56260,-100,4,2,1,5,0,0
56342,-100,4,2,1,70,0,0
56590,-100,4,2,1,5,0,0
56672,-100,4,2,1,70,0,0
59309,-100,4,2,1,55,0,0
61947,-100,4,2,1,70,0,0
62441,-100,4,2,1,75,0,0
62936,-100,4,2,1,80,0,0
63266,-100,4,2,1,85,0,0
64255,-100,4,2,1,70,0,0
64584,-100,4,2,1,90,0,1
75134,-100,4,2,1,80,0,0
75628,-100,4,2,1,90,0,1
83046,-100,4,2,1,90,0,1
85683,-100,4,2,1,90,0,1
87002,-100,4,2,1,80,0,0
97386,-100,4,2,1,80,0,0
97881,-100,4,2,1,70,0,0
98870,-100,4,2,1,75,0,0
99859,-100,4,2,1,75,0,0
100106,-100,4,2,1,5,0,0
100189,-100,4,2,1,75,0,0
105381,-100,4,2,1,5,0,0
105463,-100,4,2,1,75,0,0
109667,-100,4,2,1,5,0,0
109749,-100,4,2,1,75,0,0
110656,-100,4,2,1,5,0,0
110738,-100,4,2,1,75,0,0
112057,-100,4,2,1,75,0,0
114694,-100,4,2,1,75,0,0
119969,-100,4,2,1,70,0,0
121864,-100,4,2,1,5,0,0
121946,-100,4,2,1,70,0,0
122194,-100,4,2,1,5,0,0
122276,-100,4,2,1,70,0,0
122524,-100,4,2,1,5,0,0
122606,-100,4,2,1,70,0,0
125244,-100,4,2,1,55,0,0
127881,-100,4,2,1,70,0,0
128375,-100,4,2,1,75,0,0
128870,-100,4,2,1,80,0,0
129200,-100,4,2,1,85,0,0
130189,-100,4,2,1,70,0,0
130518,-100,4,2,1,90,0,1
141068,-100,4,2,1,75,0,0
141397,-100,4,2,1,90,0,1
148980,-100,4,2,1,90,0,1
151617,-100,4,2,1,90,0,1
152936,-100,4,2,1,80,0,0
159529,-100,4,2,1,80,0,0
164062,-100,4,2,1,5,0,0
164145,-100,4,2,1,80,0,0
165051,-100,4,2,1,5,0,0
165134,-100,4,2,1,80,0,0
167359,-100,4,2,1,5,0,0
167442,-100,4,2,1,80,0,0
167689,-100,4,2,1,5,0,0
167772,-100,4,2,1,80,0,0
170326,-100,4,2,1,5,0,0
170409,-100,4,2,1,80,0,0
172963,-100,4,2,1,5,0,0
173046,-100,4,2,1,80,0,0
184502,-100,4,2,1,5,0,0
184585,-100,4,2,1,80,0,0
184831,-100,4,2,1,5,0,0
184914,-100,4,2,1,80,0,0
185903,-100,4,2,1,75,0,0
188540,-100,4,2,1,65,0,0
191178,-100,4,2,1,55,0,0
200408,-100,4,2,1,60,0,0
201150,-100,4,2,1,5,0,0
201233,-100,4,2,1,60,0,0
201727,-100,4,2,1,70,0,0
201974,-100,4,2,1,5,0,0
202056,-100,4,2,1,70,0,0
204612,-100,4,2,1,5,0,0
204694,-100,4,2,1,70,0,0
209886,-100,4,2,1,5,0,0
209968,-100,4,2,1,70,0,0
213595,-100,4,2,1,70,0,0
213842,-100,4,2,1,5,0,0
213925,-100,4,2,1,90,0,1
223815,-100,4,2,1,85,0,0
224145,-100,4,2,1,90,0,1
232057,-100,4,2,1,90,0,1
234694,-100,4,2,1,90,0,1
236013,-100,4,2,1,85,0,0
237331,-100,4,2,1,85,0,0
237579,-100,4,2,1,5,0,0
237661,-100,4,2,1,85,0,0
238897,-100,4,2,1,5,0,0
238979,-100,4,2,1,85,0,0
240216,-100,4,2,1,5,0,0
240298,-100,4,2,1,85,0,0
241535,-100,4,2,1,5,0,0
241617,-100,4,2,1,85,0,0
244172,-100,4,2,1,5,0,0
244254,-100,4,2,1,85,0,0
247716,-100,4,2,1,5,0,0
247881,-100,4,2,1,70,0,0
252496,-100,4,2,1,75,0,0
253156,-100,4,2,1,75,0,0
253650,-100,4,2,1,60,0,0
254309,-100,4,2,1,65,0,0
254969,-100,4,2,1,75,0,0
255298,-100,4,2,1,80,0,0
256947,-100,4,2,1,70,0,0
257606,-100,4,2,1,65,0,0
258266,-100,4,2,1,55,0,0
258925,-100,4,2,1,45,0,0
259584,-100,4,2,1,35,0,0
260244,-100,4,2,1,25,0,0
260903,-100,4,2,1,15,0,0

[Colours]
Combo1 : 250,180,240
Combo2 : 120,200,230
Combo3 : 255,230,130
Combo4 : 160,230,150

[HitObjects]
281,229,1288,6,0,P|335:208|445:221,2,159,2|2|0,0:0|0:0|0:0,0:0:0:0:
216,283,2606,2,0,B|169:302|169:302|104:299|66:235,1,159,2|2,0:0|0:0,0:0:0:0:
25,184,3430,1,2,0:0:0:0:
105,85,3925,2,0,B|218:80|162:131|276:124,1,159,2|2,0:0|0:0,0:0:0:0:
463,88,5244,2,0,P|480:156|483:255,2,159,2|2|0,0:0|0:0|0:0,0:0:0:0:
393,39,6562,6,0,P|321:25|261:38,1,106,12|8,0:0|0:1,0:0:0:0:
220,79,7222,2,0,P|142:95|107:83,1,106,0|4,0:0|0:3,0:0:0:0:
37,61,7881,1,12,0:1:0:0:
16,229,8540,1,8,0:1:0:0:
179,182,9200,2,0,P|242:170|334:219,1,159,12|12,0:0|0:0,0:0:0:0:
436,337,10353,1,12,0:1:0:0:
54,352,11837,6,0,B|24:280|49:226|49:226|94:187,1,159,14|0,0:1|0:0,0:0:0:0:
179,141,12826,1,2,0:0:0:0:
252,183,13156,2,0,P|299:206|411:186,1,159,2|2,3:2|0:0,0:0:0:0:
440,44,14309,2,0,P|377:22|192:45,1,212,2|2,0:0|0:0,0:0:0:0:
158,67,15298,1,2,0:0:0:0:
74,50,15628,1,2,0:0:0:0:
320,113,16617,5,2,0:0:0:0:
420,190,17112,2,0,P|450:259|424:354,1,159,10|2,0:1|0:0,0:0:0:0:
225,378,18430,2,0,P|199:306|265:172,1,212,2|0,3:2|0:0,0:0:0:0:
410,137,19749,2,0,B|450:136|478:96|467:66|431:-3|283:65,1,265,8|0,0:1|0:0,0:0:0:0:
217,99,20903,1,2,0:0:0:0:
125,304,22057,5,2,0:0:0:0:
81,231,22386,2,0,P|60:191|134:111,1,159,10|0,0:1|0:0,0:0:0:0:
213,199,23375,1,2,0:0:0:0:
267,134,23705,2,0,B|295:124|318:125|318:125|362:172|326:243,1,159,2|2,3:2|0:0,0:0:0:0:
315,349,24694,1,2,0:0:0:0:
398,364,25024,2,0,P|468:354|484:238,1,159,10|2,0:1|0:0,0:0:0:0:
484,153,26013,1,2,0:0:0:0:
402,169,26342,1,2,3:2:0:0:
183,38,27331,5,2,0:0:0:0:
133,106,27661,2,0,P|90:152|93:243,2,159,10|2|0,0:1|0:0|0:0,0:0:0:0:
217,117,28980,1,2,3:2:0:0:
298,92,29309,2,0,B|345:86|385:121|385:121|405:169,2,106,2|2|2,0:0|0:0|0:0,0:0:0:0:
217,117,30298,1,10,0:1:0:0:
64,321,31288,1,2,0:0:0:0:
22,247,31617,2,0,P|20:161|67:73,1,159,8|8,0:3|0:3,0:0:0:0:
165,44,32606,5,6,0:3:0:0:
238,86,32936,2,0,P|294:105|413:89,1,159,14|2,0:1|0:0,0:0:0:0:
465,54,33760,1,2,0:0:0:0:
506,127,34090,2,0,L|489:343,1,212,2|2,3:2|0:0,0:0:0:0:
407,359,35079,1,10,0:0:0:0:
332,318,35408,2,0,P|254:297|125:335,1,212,2|2,0:0|0:0,0:0:0:0:
51,362,36397,1,2,0:0:0:0:
7,288,36727,1,2,3:2:0:0:
76,38,37881,5,10,0:0:0:0:
149,80,38211,2,0,B|251:88|207:26|350:43,2,159,10|2|10,0:1|0:0|0:1,0:0:0:0:
76,38,39529,2,0,P|16:46|13:132,1,159,10|2,0:1|0:0,0:0:0:0:
61,199,40353,1,10,0:0:0:0:
145,192,40683,2,0,P|228:157|401:371,1,371,2|10,3:2|0:1,0:0:0:0:
341,374,42167,1,10,0:1:0:0:
86,361,43156,5,10,0:3:0:0:
50,284,43485,2,0,B|41:230|41:230|57:140|167:103,1,212,10|8,0:1|0:1,0:0:0:0:
222,111,44474,1,10,0:1:0:0:
294,154,44804,2,0,P|364:172|466:157,1,159,10|2,0:1|0:0,0:0:0:0:
495,44,45793,1,10,0:1:0:0:
412,24,46123,2,0,B|336:15|285:47|285:47|242:26,1,159,10|2,0:1|0:0,0:0:0:0:
137,2,47112,1,10,0:1:0:0:
107,81,47441,2,0,P|114:162|176:251,1,159,12|12,0:1|0:1,0:0:0:0:
275,198,48430,5,10,0:1:0:0:
348,156,48760,2,0,P|426:184|331:358,1,318,14|8,0:1|0:0,0:0:0:0:
282,347,50079,1,8,0:1:0:0:
111,351,50738,1,10,0:1:0:0:
76,185,51397,2,0,B|258:107|177:260|393:195,1,318,10|8,0:1|0:0,0:0:0:0:
437,138,52716,1,14,0:1:0:0:
317,18,53375,1,10,0:3:0:0:
157,76,54035,5,12,0:1:0:0:
99,138,54364,2,0,P|28:147|-28:129,2,106,10|10|2,0:1|0:0|0:0,0:0:0:0:
157,76,55353,2,0,P|219:48|272:134,1,159,8|0,0:1|0:0,0:0:0:0:
202,210,56342,1,2,0:0:0:0:
265,266,56672,2,0,P|276:303|167:361,1,159,14|0,0:1|0:0,0:0:0:0:
93,298,57661,1,10,0:1:0:0:
18,145,58320,2,0,B|19:111|34:79|34:79|24:42,2,106,10|10|10,0:1|0:0|0:0,0:0:0:0:
181,191,59639,5,2,0:0:0:0:
205,109,59969,2,0,P|266:66|362:90,2,159,2|2|2,0:0|0:0|0:0,0:0:0:0:
181,191,61288,1,2,0:0:0:0:
274,332,61947,6,0,B|329:324|329:324|362:292|362:292|447:281,1,159,14|14,0:0|0:0,0:0:0:0:
507,193,62936,1,14,0:0:0:0:
491,109,63266,2,0,B|454:39|454:39|385:98,1,159,14|14,0:0|0:0,0:0:0:0:
181,87,64584,5,14,0:1:0:0:
111,135,64914,2,0,P|82:196|115:305,1,159,10|10,0:0|0:1,0:0:0:0:
172,324,65738,1,10,0:1:0:0:
298,313,66233,1,10,0:0:0:0:
367,361,66562,2,0,P|430:371|468:354,1,106,8|8,0:1|0:0,0:0:0:0:
508,280,67222,5,10,0:1:0:0:
467,205,67551,2,0,P|453:156|439:40,1,159,10|10,0:0|0:1,0:0:0:0:
360,17,68375,1,10,0:1:0:0:
285,57,68705,1,10,0:1:0:0:
206,24,69035,2,0,P|148:24|85:60,1,106,10|10,0:1|0:1,0:0:0:0:
59,114,69694,1,2,0:0:0:0:
270,132,70518,6,0,P|295:191|298:254,1,106,10|10,0:1|0:0,0:0:0:0:
266,310,71178,2,0,P|197:350|98:343,1,159,10|10,0:1|0:1,0:0:0:0:
30,258,72167,1,10,0:0:0:0:
33,173,72496,2,0,P|44:91|134:49,1,159,10|10,0:0|0:1,0:0:0:0:
175,94,73320,1,10,0:1:0:0:
250,55,73650,2,0,B|309:56|298:87|382:93,1,106,14|14,0:1|0:1,0:0:0:0:
429,61,74309,1,10,0:0:0:0:
489,264,75134,5,2,0:0:0:0:
399,354,75628,1,2,0:0:0:0:
316,332,75958,1,10,0:1:0:0:
235,357,76288,2,0,B|161:343|85:361|85:361|34:303,1,212,10|2,0:1|0:0,0:0:0:0:
54,188,77441,1,8,0:0:0:0:
133,218,77771,2,0,P|233:243|324:209,1,159,10|10,0:1|0:0,0:0:0:0:
340,165,78595,1,10,0:1:0:0:
348,80,78925,2,0,P|331:34|249:14,1,106,10|10,0:1|0:1,0:0:0:0:
211,55,79584,2,0,P|133:70|48:33,1,159,2|8,0:0|0:0,0:0:0:0:
6,108,80408,6,0,P|3:169|34:212,1,106,12|8,0:0|0:0,0:0:0:0:
110,214,81068,1,8,0:0:0:0:
190,188,81397,1,10,0:0:0:0:
267,223,81727,2,0,P|282:283|301:343,1,106,14|10,0:0|0:0,0:0:0:0:
369,366,82386,2,0,P|432:358|468:335,1,106,8|10,0:0|0:0,0:0:0:0:
489,253,83046,2,0,P|469:197|472:66,1,159,14|10,0:0|0:1,0:0:0:0:
263,32,84364,6,0,L|149:23,2,106,10|6|2,0:0|0:3|0:0,0:0:0:0:
345,12,85353,1,10,0:0:0:0:
414,61,85683,2,0,B|444:96|444:96|461:170|391:238,1,159,14|12,0:0|0:0,0:0:0:0:
361,263,86507,1,12,0:0:0:0:
234,250,87002,5,2,0:0:0:0:
234,250,88320,1,14,0:1:0:0:
256,192,88650,12,0,90958,0:0:0:0:
121,40,93595,6,0,B|193:26|193:26|253:39,1,106,14|2,0:1|0:0,0:0:0:0:
292,79,94255,2,0,B|370:95|370:95|405:83,1,106,8|6,0:3|0:3,0:0:0:0:
475,61,94914,1,14,0:1:0:0:
496,229,95573,1,10,0:1:0:0:
333,182,96233,2,0,B|270:170|270:170|178:219,1,159,14|14,0:0|0:0,0:0:0:0:
76,337,97386,1,14,0:1:0:0:
457,351,98870,6,0,P|465:242|376:215,1,212,14|8,0:1|0:1,0:0:0:0:
308,254,99859,1,10,0:0:0:0:
234,212,100189,2,0,B|219:168|219:168|230:54,1,159,10|2,0:1|0:0,0:0:0:0:
63,26,101342,2,0,P|41:89|64:274,1,212,0|2,3:2|0:0,0:0:0:0:
111,288,102331,1,2,0:0:0:0:
195,287,102661,1,2,0:0:0:0:
326,69,103815,5,10,0:0:0:0:
389,125,104145,2,0,B|414:169|414:169|417:222|389:286,1,159,10|2,0:1|0:0,0:0:0:0:
282,337,105134,1,10,0:0:0:0:
200,358,105463,2,0,P|120:371|39:313,1,159,10|2,0:1|0:0,0:0:0:0:
21,255,106288,1,2,0:0:0:0:
83,198,106617,2,0,B|261:282|165:123|419:238,1,318,2|0,3:2|0:0,0:0:0:0:
439,290,107936,1,2,0:0:0:0:
511,2,109090,5,10,0:0:0:0:
441,50,109419,2,0,P|359:78|283:65,1,159,14|0,0:1|0:0,0:0:0:0:
167,29,110408,1,10,0:0:0:0:
107,89,110738,2,0,L|134:263,1,159,14|2,0:1|0:0,0:0:0:0:
159,370,111727,1,10,0:0:0:0:
230,325,112057,2,0,B|297:318|346:344|346:344|411:327,1,159,14|2,0:1|0:0,0:0:0:0:
482,253,113046,1,10,0:0:0:0:
472,168,113376,1,12,0:1:0:0:
267,16,114364,5,10,0:0:0:0:
196,62,114694,2,0,B|143:84|143:84|124:111|124:111|47:129,2,159,14|8|8,0:1|0:1|0:0,0:0:0:0:
267,16,116013,2,0,B|320:17|320:17|393:49,1,106,8|10,0:1|0:0,0:0:0:0:
439,84,116672,1,10,0:0:0:0:
402,249,117331,2,0,B|281:226|281:226|231:173|231:173|101:138,1,318,10|10,0:0|0:0,0:0:0:0:
29,155,118650,1,14,0:0:0:0:
27,324,119309,1,10,0:0:0:0:
157,308,119969,5,12,0:1:0:0:
106,239,120298,2,0,B|99:198|99:198|115:112,2,106,10|10|2,0:1|0:0|0:0,0:0:0:0:
157,308,121287,2,0,B|229:342|229:342|272:250,1,159,8|0,0:1|0:0,0:0:0:0:
208,154,122276,1,10,0:1:0:0:
280,109,122606,2,0,B|291:71|291:71|182:14,1,159,14|0,0:1|0:0,0:0:0:0:
81,89,123595,1,10,0:1:0:0:
22,248,124254,2,0,B|23:282|23:282|38:314|38:314|28:351,2,106,10|10|10,0:1|0:0|0:0,0:0:0:0:
181,193,125573,5,2,0:0:0:0:
209,273,125903,2,0,P|270:316|366:292,2,159,2|2|2,0:0|0:0|0:0,0:0:0:0:
181,193,127222,1,2,0:0:0:0:
274,52,127881,6,0,B|373:55|318:98|447:103,1,159,14|14,0:0|0:0,0:0:0:0:
512,188,128870,1,14,0:0:0:0:
491,270,129200,2,0,B|503:368|375:379|385:281,1,159,14|14,0:0|0:0,0:0:0:0:
239,182,130518,6,0,P|174:156|88:190,1,159,14|2,0:1|0:0,0:0:0:0:
13,215,131342,1,10,0:1:0:0:
2,130,131672,2,0,P|29:66|141:33,1,159,10|10,0:1|0:0,0:0:0:0:
184,63,132496,1,8,0:1:0:0:
353,62,133156,5,10,0:1:0:0:
415,118,133485,2,0,B|449:168|449:168|443:283,1,159,10|10,0:0|0:1,0:0:0:0:
413,345,134309,2,0,P|351:327|302:356,1,106,10|10,0:1|0:1,0:0:0:0:
233,364,134969,2,0,P|159:373|108:358,1,106,10|10,0:0|0:1,0:0:0:0:
70,304,135628,1,10,0:0:0:0:
276,255,136452,6,0,B|294:203|294:203|290:137,1,106,10|10,0:1|0:0,0:0:0:0:
264,71,137112,2,0,P|195:31|96:38,1,159,10|10,0:1|0:1,0:0:0:0:
30,123,138101,1,10,0:0:0:0:
16,206,138430,2,0,P|27:288|117:330,1,159,10|10,0:0|0:1,0:0:0:0:
164,295,139254,1,10,0:1:0:0:
243,325,139584,2,0,B|285:316|285:316|313:296|313:296|375:287,1,106,14|6,0:0|0:0,0:0:0:0:
424,311,140243,1,2,0:0:0:0:
495,111,141068,5,6,0:3:0:0:
391,38,141562,2,0,P|337:38|275:57,1,106,2|2,0:0|0:0,0:0:0:0:
202,39,142222,2,0,B|136:60|77:35|77:35|50:55|35:83,1,159,10|10,0:1|0:0,0:0:0:0:
4,125,143046,1,8,0:1:0:0:
172,144,143705,2,0,B|272:119|272:119|363:153,1,159,10|8,0:1|0:0,0:0:0:0:
377,204,144529,1,10,0:1:0:0:
377,288,144859,2,0,B|357:340|357:340|278:354,1,106,10|10,0:1|0:1,0:0:0:0:
226,323,145518,2,0,B|153:322|153:322|63:345,1,159,10|8,0:1|0:0,0:0:0:0:
8,284,146342,6,0,P|5:223|36:180,1,106,12|8,0:0|0:0,0:0:0:0:
112,172,147002,1,10,0:0:0:0:
191,200,147331,1,10,0:0:0:0:
268,164,147661,2,0,L|305:-7,1,159,14|10,0:0|0:1,0:0:0:0:
428,4,148650,5,10,0:0:0:0:
472,76,148980,2,0,P|476:150|455:263,1,159,14|8,0:0|0:1,0:0:0:0:
417,352,149969,1,8,0:1:0:0:
337,321,150298,2,0,P|270:312|201:324,1,106,10|10,0:0|0:3,0:0:0:0:
158,358,150958,1,2,0:0:0:0:
45,231,151617,2,0,B|31:165|59:111|59:111|107:78,1,159,14|14,0:1|0:0,0:0:0:0:
172,81,152441,1,12,0:0:0:0:
288,133,152936,5,2,0:0:0:0:
288,133,154254,1,2,0:0:0:0:
256,192,154584,12,0,156892,0:0:0:0:
449,320,159529,6,0,P|424:230|368:174,1,159,10|10,0:0|0:0,0:0:0:0:
322,68,160518,2,0,P|231:44|156:64,1,159,10|10,0:0|0:1,0:0:0:0:
64,130,161507,1,10,0:0:0:0:
43,212,161837,1,10,0:0:0:0:
73,291,162167,2,0,B|144:295|195:272|195:272|227:305,1,159,14|10,0:1|0:1,0:0:0:0:
328,360,163156,2,0,B|369:323|369:323|345:216,1,159,14|8,0:0|0:1,0:0:0:0:
225,182,164145,1,8,0:0:0:0:
232,12,164804,6,0,B|334:5|290:61|411:62,1,159,14|2,0:0|0:0,0:0:0:0:
503,33,165793,1,10,0:1:0:0:
463,197,166452,2,0,L|483:321,2,106,10|10|10,0:1|0:1|0:0,0:0:0:0:
389,154,167441,2,0,B|331:127|263:140|263:140|231:167,1,159,10|2,0:1|0:0,0:0:0:0:
138,236,168430,2,0,B|114:287|55:275|14:243|50:109,1,212,10|10,0:1|0:1,0:0:0:0:
146,8,169749,5,10,0:1:0:0:
227,31,170079,2,0,P|289:43|321:142,1,159,10|2,0:1|0:0,0:0:0:0:
282,244,171068,2,0,P|259:324|384:343,1,212,10|10,0:1|0:1,0:0:0:0:
506,277,172386,1,10,0:1:0:0:
459,205,172716,1,10,0:1:0:0:
451,120,173046,2,0,B|456:78|456:78|484:54|496:13,2,106,10|10|10,0:1|0:1|0:1,0:0:0:0:
371,359,175024,5,10,0:1:0:0:
296,318,175353,2,0,P|213:309|131:343,1,159,14|10,0:1|0:1,0:0:0:0:
25,383,176342,1,10,0:0:0:0:
0,215,177002,1,10,0:0:0:0:
77,180,177331,2,0,P|144:168|190:189,1,106,2|10,0:0|0:0,0:0:0:0:
250,226,177991,2,0,P|357:218|393:139,1,159,14|10,0:1|0:1,0:0:0:0:
388,55,178980,1,10,0:0:0:0:
135,25,179969,5,2,0:0:0:0:
33,164,180628,2,0,B|62:261|-6:244|41:358,1,159,14|8,0:1|0:0,0:0:0:0:
101,362,181452,2,0,P|178:340|238:354,1,106,10|10,0:1|0:1,0:0:0:0:
308,270,182277,2,0,B|364:259|413:266|413:266|471:305,2,159,10|10|12,0:1|0:1|0:1,0:0:0:0:
118,100,184255,5,10,0:0:0:0:
75,172,184584,2,0,P|66:264|88:357,2,159,10|10|14,0:1|0:1|0:0,0:0:0:0:
118,100,185903,2,0,B|404:14|248:239|539:141,1,424,14|12,0:0|0:1,0:0:0:0:
368,306,188046,5,4,0:3:0:0:
263,234,188540,2,0,B|170:193|150:274|100:283|41:255|-22:244|-20:154|54:102|87:114|130:166,1,424,14|2,0:1|0:0,0:0:0:0:
404,233,201727,6,0,P|420:131|405:51,2,159,14|2|8,0:1|0:0|0:1,0:0:0:0:
344,293,203046,2,0,B|253:277|281:325|169:306,1,159,8|2,0:1|0:0,0:0:0:0:
13,188,204364,6,0,B|-23:134|-11:83|-11:83|31:31,1,159,14|2,0:1|0:0,0:0:0:0:
104,41,205189,1,2,0:0:0:0:
172,90,205518,2,0,B|191:145|172:227|172:227|230:299,1,212,10|10,0:0|0:3,0:0:0:0:
302,272,206507,2,0,P|346:251|366:178,1,106,10|10,0:1|0:1,0:0:0:0:
210,59,207661,6,0,P|287:43|343:57,1,106,10|0,0:0|0:0,0:0:0:0:
386,87,208320,2,0,B|471:111|545:55|471:-16,2,159,10|2|2,0:1|0:0|0:0,0:0:0:0:
313,131,209639,2,0,P|282:203|315:304,1,159,10|10,0:1|0:1,0:0:0:0:
506,319,210958,2,0,B|479:215|521:260|511:146,1,159,10|10,0:0|0:3,0:0:0:0:
415,81,211947,1,8,0:0:0:0:
330,97,212277,2,0,B|271:86|271:86|267:87|267:87|257:81|149:75,2,159,8|8|8,0:3|0:0|0:0,0:0:0:0:
415,81,213595,6,0,P|489:107|503:189,1,159,2|10,0:0|0:1,0:0:0:0:
501,263,214419,1,2,0:0:0:0:
427,305,214749,2,0,P|324:277|257:290,1,159,10|10,0:1|0:0,0:0:0:0:
206,335,215573,1,8,0:1:0:0:
39,311,216233,6,0,B|-5:258|5:193|5:193|26:139,1,159,10|10,0:1|0:1,0:0:0:0:
66,94,217057,1,10,0:1:0:0:
129,149,217386,2,0,P|178:175|229:137,1,106,10|10,0:1|0:1,0:0:0:0:
292,110,218046,2,0,P|338:165|316:211,1,106,10|10,0:0|0:1,0:0:0:0:
281,260,218705,1,10,0:0:0:0:
459,374,219529,6,0,B|477:322|477:322|468:243,1,106,10|10,0:1|0:0,0:0:0:0:
399,226,220189,2,0,B|344:207|344:207|314:180|314:180|223:153,1,159,10|10,0:1|0:1,0:0:0:0:
128,175,221178,1,10,0:0:0:0:
80,105,221507,2,0,P|77:23|163:16,1,159,14|10,0:0|0:1,0:0:0:0:
201,61,222331,1,10,0:1:0:0:
285,61,222661,2,0,L|398:48,2,106,10|14|14,0:1|0:1|0:0,0:0:0:0:
94,154,224145,6,0,P|64:220|79:329,1,159,14|10,0:0|0:1,0:0:0:0:
140,350,224969,1,10,0:1:0:0:
213,308,225298,2,0,P|276:297|369:339,1,159,10|10,0:1|0:0,0:0:0:0:
446,340,226123,1,8,0:0:0:0:
374,186,226782,2,0,B|280:157|293:205|190:165,1,159,14|10,0:0|0:1,0:0:0:0:
161,109,227606,1,10,0:1:0:0:
215,43,227936,2,0,P|268:15|330:17,1,106,10|10,0:1|0:1,0:0:0:0:
395,38,228595,1,10,0:1:0:0:
462,88,228925,1,10,0:1:0:0:
481,170,229255,1,10,0:1:0:0:
342,330,230079,6,0,B|295:332|265:323|265:323|222:334,1,106,10|10,0:0|0:0,0:0:0:0:
155,351,230738,2,0,B|96:359|96:359|29:324|17:240,1,159,14|10,0:1|0:1,0:0:0:0:
51,162,231727,1,10,0:0:0:0:
107,98,232057,2,0,P|162:81|281:124,2,159,14|8|0,0:0|0:1|0:0,0:0:0:0:
51,162,233375,2,0,P|76:217|134:248,1,106,10|10,0:0|0:3,0:0:0:0:
195,224,234035,1,2,0:0:0:0:
304,94,234694,6,0,B|339:64|339:64|420:98|385:197,1,159,14|14,0:1|0:0,0:0:0:0:
375,234,235518,1,12,0:0:0:0:
256,192,236013,5,2,0:0:0:0:
139,57,237331,5,14,0:1:0:0:
72,165,237826,2,0,P|43:219|66:344,1,159,2|8,0:0|0:0,0:0:0:0:
131,335,238650,2,0,P|198:317|252:333,1,106,8|8,0:1|0:0,0:0:0:0:
312,353,239309,2,0,P|370:363|434:340,1,106,10|8,0:1|0:0,0:0:0:0:
463,281,239969,2,0,B|441:160|513:223|498:48,1,212,10|8,0:1|0:1,0:0:0:0:
438,18,240958,1,10,0:0:0:0:
361,55,241288,2,0,P|298:78|226:77,1,106,10|10,0:1|0:0,0:0:0:0:
180,51,241947,1,8,0:1:0:0:
79,187,242606,6,0,B|149:199|149:199|187:231|187:231|291:252,1,212,12|8,0:1|0:1,0:0:0:0:
352,287,243595,1,10,0:0:0:0:
321,366,243925,1,10,0:1:0:0:
236,364,244255,2,0,P|176:346|111:353,1,106,10|10,0:0|0:1,0:0:0:0:
48,369,244914,1,10,0:0:0:0:
18,289,245244,2,0,P|18:189|107:109,1,212,10|8,0:1|0:3,0:0:0:0:
177,122,246233,1,6,0:3:0:0:
239,64,246562,6,0,B|315:27|364:85|364:85|351:134|315:147,1,212,14|0,0:1|0:0,0:0:0:0:
240,290,247881,6,0,B|356:299|310:350|464:367,2,212,12|8|8,0:1|0:3|0:3,0:0:0:0:
155,142,249859,1,8,0:3:0:0:
192,66,250189,1,4,0:3:0:0:
276,65,250518,2,0,P|331:85|496:79,2,212,12|8|12,0:0|0:3|0:0,0:0:0:0:
118,0,252496,5,8,0:0:0:0:
37,27,252826,1,8,0:0:0:0:
0,103,253156,2,0,B|13:168|13:168|5:199|5:199|19:283,1,159,14|2,0:1|3:0,0:0:0:0:
35,341,253980,1,2,3:0:0:0:
153,294,254474,2,0,P|243:282|364:341,1,212,8|8,0:1|0:1,0:0:0:0:
485,224,255793,2,0,P|485:149|412:114,1,159,14|14,0:0|0:0,0:0:0:0:
342,154,256617,1,10,0:1:0:0:
258,140,256947,5,14,0:1:0:0:
256,192,257112,12,0,261562,1:0:0:0:
