osu file format v14

[General]
AudioFilename: audio.mp3
AudioLeadIn: 0
PreviewTime: 124062
Countdown: 0
SampleSet: Soft
StackLeniency: 0.3
Mode: 0
LetterboxInBreaks: 0
WidescreenStoryboard: 1

[Editor]
Bookmarks: 12004,34592,34636,34680,34724,34768,34812,34857,45886,51533,56474,60004,62827,74121,79768,92474,94592,96709,99533
DistanceSpacing: 1
BeatDivisor: 1
GridSize: 4
TimelineZoom: 1

[Metadata]
Title:Higashi no Sora kara Hajimaru Sekai (Short Ver.)
TitleUnicode:東の空から始まる世界 (Short Ver.)
Artist:yuiko
ArtistUnicode:yuiko
Creator:[ TNTlealu ]
Version:Normal
Source:恋×シンアイ彼女
Tags:primary meis clauson Japanese Flask Silent Rock GfMRT Garden Kuse KuBsNia_ZhoYL_ Tuffiii ゆいこんぬ yuikonnu VN Visual Novel Vocals 美少女ゲーム Eroge Video Game Us:track Koi x Shin Ai Kanojo ED Ending pop j-pop jpop School Girls Stories Kakeru Koikake
BeatmapID:2698682
BeatmapSetID:1301082

[Difficulty]
HPDrainRate:5
CircleSize:3
OverallDifficulty:4
ApproachRate:5
SliderMultiplier:1.8
SliderTickRate:1

[Events]
//Background and Video events
0,0,"3.jpg",0,0
//Break Periods
2,105380,115274
//Storyboard Layer 0 (Background)
//Storyboard Layer 1 (Fail)
//Storyboard Layer 2 (Pass)
//Storyboard Layer 3 (Foreground)
//Storyboard Layer 4 (Overlay)
//Storyboard Sound Samples

[TimingPoints]
710,705.882352941176,4,2,1,55,1,0
10239,-100,4,2,1,65,0,0
10592,-100,4,2,1,60,0,0
11010,-100,4,2,1,65,0,0
11298,-100,4,2,1,70,0,0
12709,-100,4,2,2,70,0,0
13592,-100,4,2,1,70,0,0
14121,-100,4,2,2,70,0,0
14651,-100,4,2,1,70,0,0
14827,-100,4,2,2,70,0,0
16415,-100,4,2,1,70,0,0
16945,-100,4,2,2,70,0,0
17298,-100,4,2,1,70,0,0
17651,-100,4,2,2,70,0,0
19239,-100,4,2,1,70,0,0
19768,-100,4,2,2,70,0,0
21601,-100,4,2,1,68,0,0
21886,-100,4,2,1,66,0,0
22239,-100,4,2,1,64,0,0
22592,-100,4,2,1,62,0,0
22945,-100,4,2,1,60,0,0
23651,-100,4,2,2,60,0,0
24533,-100,4,2,1,60,0,0
24709,-100,4,2,2,60,0,0
24886,-100,4,2,1,60,0,0
25768,-100,4,2,2,60,0,0
25945,-100,4,2,1,60,0,0
26121,-100,4,2,2,60,0,0
27357,-100,4,2,1,60,0,0
27533,-100,4,2,2,60,0,0
28062,-100,4,2,1,60,0,0
28945,-100,4,2,2,60,0,0
30709,-100,4,2,1,60,0,0
31062,-100,4,2,2,60,0,0
31504,-100,4,2,1,60,0,0
31768,-100,4,2,2,60,0,0
32827,-100,4,2,1,60,0,0
33180,-100,4,2,2,60,0,0
33357,-100,4,2,1,60,0,0
33445,-100,4,2,2,60,0,0
34239,-100,4,2,1,60,0,0
34592,-100,4,2,2,60,0,0
35827,-100,4,2,1,60,0,0
36004,-100,4,2,2,60,0,0
36180,-100,4,2,1,60,0,0
36357,-100,4,2,2,60,0,0
37239,-100,4,2,1,60,0,0
37415,-100,4,2,2,60,0,0
38651,-100,4,2,1,60,0,0
38827,-100,4,2,2,60,0,0
39004,-100,4,2,1,60,0,0
39180,-100,4,2,2,60,0,0
40062,-100,4,2,1,60,0,0
40239,-100,4,2,2,60,0,0
42004,-100,4,2,1,60,0,0
42709,-100,4,2,2,60,0,0
42886,-100,4,2,1,60,0,0
43062,-100,4,2,2,60,0,0
44121,-100,4,2,1,60,0,0
44474,-100,4,2,2,60,0,0
45533,-100,4,2,1,60,0,0
45886,-100,4,2,2,65,0,0
46239,-100,4,2,3,65,0,0
46327,-100,4,2,2,65,0,0
46415,-100,4,2,1,65,0,0
46504,-100,4,2,2,65,0,0
47298,-100,4,2,3,65,0,0
47386,-100,4,2,2,65,0,0
47474,-100,4,2,1,65,0,0
47651,-100,4,2,3,65,0,0
47739,-100,4,2,2,65,0,0
48357,-100,4,2,3,65,0,0
48445,-100,4,2,2,65,0,0
48533,-100,4,2,1,65,0,0
48709,-100,4,2,3,65,0,0
48797,-100,4,2,2,65,0,0
49239,-100,4,2,1,65,0,0
49327,-100,4,2,2,65,0,0
50121,-100,4,2,3,65,0,0
50209,-100,4,2,2,65,0,0
50298,-100,4,2,1,65,0,0
50474,-100,4,2,3,65,0,0
50562,-100,4,2,2,65,0,0
51357,-100,4,2,1,65,0,0
51533,-100,4,2,3,65,0,0
51621,-100,4,2,2,65,0,0
51886,-100,4,2,3,65,0,0
51974,-100,4,2,1,65,0,0
52151,-100,4,2,2,65,0,0
52945,-100,4,2,3,65,0,0
53033,-100,4,2,2,65,0,0
53121,-100,4,2,1,65,0,0
53298,-100,4,2,3,65,0,0
53386,-100,4,2,2,65,0,0
54180,-100,4,2,1,65,0,0
54357,-100,4,2,3,65,0,0
54445,-100,4,2,2,65,0,0
54709,-100,4,2,3,65,0,0
54797,-100,4,2,2,65,0,0
54886,-100,4,2,1,65,0,0
54974,-100,4,2,2,65,0,0
55768,-100,4,2,3,65,0,0
55856,-100,4,2,2,65,0,0
55945,-100,4,2,1,65,0,0
56121,-100,4,2,3,65,0,0
56209,-100,4,2,2,65,0,0
56827,-100,4,2,1,65,0,0
57180,-100,4,2,2,65,0,0
57533,-100,4,2,3,65,0,0
57621,-100,4,2,1,65,0,0
57886,-100,4,2,3,65,0,0
57974,-100,4,2,2,65,0,0
58592,-100,4,2,3,65,0,0
58680,-100,4,2,2,65,0,0
58768,-100,4,2,1,65,0,0
58945,-100,4,2,3,65,0,0
59033,-100,4,2,2,65,0,0
59651,-100,4,2,1,65,0,0
59739,-100,4,2,2,65,0,0
60004,-100,4,2,1,66,0,0
60357,-100,4,2,1,67,0,0
60709,-100,4,2,1,68,0,0
61062,-100,4,2,1,69,0,0
61415,-100,4,2,1,70,0,0
62827,-100,4,2,2,70,0,1
64415,-100,4,2,1,70,0,1
64504,-100,4,2,2,70,0,1
67239,-100,4,2,1,70,0,1
67327,-100,4,2,2,70,0,1
69709,-100,4,2,1,70,0,1
69886,-100,4,2,2,70,0,1
70062,-100,4,2,1,70,0,1
70150,-100,4,2,2,70,0,1
72533,-100,4,2,1,70,0,1
72709,-100,4,2,2,70,0,1
72886,-100,4,2,1,70,0,1
72974,-100,4,2,2,70,0,1
73239,-100,4,2,1,70,0,1
73415,-100,4,2,2,70,0,1
75709,-100,4,2,1,70,0,1
75797,-100,4,2,2,70,0,1
78533,-100,4,2,1,70,0,1
78621,-100,4,2,2,70,0,1
81004,-100,4,2,1,70,0,1
81180,-100,4,2,2,70,0,1
81357,-100,4,2,1,70,0,1
81445,-100,4,2,2,70,0,1
81709,-100,4,2,1,70,0,1
81886,-100,4,2,2,70,0,1
82592,-100,4,2,1,70,0,0
82680,-100,4,2,2,70,0,0
83827,-100,4,2,1,70,0,0
84004,-100,4,2,2,70,0,0
84180,-100,4,2,1,70,0,0
84268,-100,4,2,2,70,0,0
87004,-100,4,2,1,70,0,0
87092,-100,4,2,2,70,0,0
88062,-100,4,2,1,70,0,0
88239,-100,4,2,2,70,0,0
89474,-100,4,2,1,70,0,0
89651,-100,4,2,2,70,0,0
89827,-100,4,2,1,70,0,0
89916,-100,4,2,2,70,0,0
92298,-100,4,2,1,70,0,0
92474,-100,4,2,2,70,0,0
92651,-100,4,2,1,70,0,0
92740,-100,4,2,2,70,0,0
93004,-100,4,2,1,70,0,0
93093,-100,4,2,2,70,0,0
95121,-100,4,2,1,70,0,0
95210,-100,4,2,2,70,0,0
95474,-100,4,2,1,70,0,0
95563,-100,4,2,2,70,0,0
95651,-100,4,2,1,70,0,0
95827,-100,4,2,2,70,0,0
96004,-100,4,2,1,70,0,0
96709,-100,4,2,2,70,0,0
98298,-100,4,2,1,70,0,0
98386,-100,4,2,2,70,0,0
99357,-100,4,2,1,70,0,0
99533,-100,4,2,2,70,0,0
101121,-100,4,2,1,70,0,0
101209,-100,4,2,2,70,0,0
102357,-100,4,2,1,67,0,0
102709,-100,4,2,1,64,0,0
103062,-100,4,2,1,61,0,0
103415,-100,4,2,1,58,0,0
103768,-100,4,2,1,55,0,0
116121,-100,4,2,1,57,0,0
116298,-100,4,2,1,58,0,0
116474,-100,4,2,1,60,0,0
123709,-100,4,2,1,63,0,0
123886,-100,4,2,1,66,0,0
124062,-100,4,2,1,70,0,0
124945,-100,4,2,2,70,0,1
126533,-100,4,2,1,70,0,1
126622,-100,4,2,2,70,0,1
129357,-100,4,2,1,70,0,1
129445,-100,4,2,2,70,0,1
131827,-100,4,2,1,70,0,1
132004,-100,4,2,2,70,0,1
132180,-100,4,2,1,70,0,1
132268,-100,4,2,2,70,0,1
134651,-100,4,2,1,70,0,1
134827,-100,4,2,2,70,0,1
135004,-100,4,2,1,70,0,1
135092,-100,4,2,2,70,0,1
135357,-100,4,2,1,70,0,1
135533,-100,4,2,2,70,0,1
137827,-100,4,2,1,70,0,1
137915,-100,4,2,2,70,0,1
140651,-100,4,2,1,70,0,1
140739,-100,4,2,2,70,0,1
143122,-100,4,2,1,70,0,1
143298,-100,4,2,2,70,0,1
143475,-100,4,2,1,70,0,1
143563,-100,4,2,2,70,0,1
143827,-100,4,2,1,70,0,1
144004,-100,4,2,2,70,0,1
144709,-100,4,2,1,70,0,0
145062,-100,4,2,2,70,0,0
146297,-100,4,2,1,70,0,0
146826,-100,4,2,2,70,0,0
147356,-100,4,2,1,70,0,0
147532,-100,4,2,2,70,0,0
149120,-100,4,2,1,70,0,0
149650,-100,4,2,2,70,0,0
150003,-100,4,2,1,70,0,0
150356,-100,4,2,2,70,0,0
151944,-100,4,2,1,70,0,0
152473,-100,4,2,2,70,0,0
154592,-100,4,2,1,68,0,0
155298,-100,4,2,1,66,0,0
156004,-100,4,2,30,64,0,0

[Colours]
Combo1 : 255,128,255
Combo2 : 128,64,64
Combo3 : 0,128,255
Combo4 : 255,128,64

[HitObjects]
120,243,12004,6,0,P|161:258|206:254,1,90,14|2,0:0|3:2,0:0:0:0:
279,201,12709,2,0,L|297:112,1,90,10|2,3:2|3:2,0:0:0:0:
318,25,13415,1,10,3:2:0:0:
229,11,13768,1,10,0:0:0:0:
142,33,14121,2,0,L|160:121,1,90,10|2,3:2|3:2,0:0:0:0:
184,208,14827,5,10,3:2:0:0:
96,228,15180,1,2,3:2:0:0:
18,191,15533,2,0,P|8:239|32:285,1,90,10|2,3:2|3:2,0:0:0:0:
97,327,16239,2,0,L|200:336,1,90,10|2,3:2|3:2,0:0:0:0:
231,341,16768,1,2,0:0:0:0:
314,374,17121,2,0,B|285:328|285:328|306:210,1,135,2|10,0:0|3:2,0:0:0:0:
318,160,18004,5,2,3:2:0:0:
375,91,18357,2,0,P|334:72|290:77,1,90,10|2,3:2|3:2,0:0:0:0:
203,103,19062,1,10,3:2:0:0:
223,190,19415,1,10,0:0:0:0:
274,264,19768,2,0,P|232:279|188:272,1,90,10|2,3:2|3:2,0:0:0:0:
116,216,20474,5,14,0:0:0:0:
98,303,20827,2,0,L|86:367,2,45,10|8|10,0:0|0:0|0:3,0:0:0:0:
28,246,21533,1,14,0:0:0:0:
33,58,23298,6,0,P|83:78|145:59,1,90,4|2,3:2|3:2,0:0:0:0:
198,33,24004,1,10,3:2:0:0:
290,51,24357,1,2,3:2:0:0:
290,51,24533,2,0,L|296:145,1,90,2|8,3:2|3:2,0:0:0:0:
311,183,25062,2,0,L|305:293,1,90,10|8,0:2|0:0,0:0:0:0:
255,347,25768,1,2,3:2:0:0:
166,361,26121,5,10,3:2:0:0:
92,320,26474,1,2,3:2:0:0:
92,320,26651,2,0,L|87:227,1,90,0|2,0:0|0:0,0:0:0:0:
85,184,27180,1,2,3:2:0:0:
119,100,27533,2,0,L|116:54,2,45,0|8|8,3:2|3:2|3:2,0:0:0:0:
179,163,28239,2,0,P|223:156|258:130,1,90,8|0,3:2|3:2,0:0:0:0:
339,90,28945,6,0,L|344:181,1,90,8|2,3:2|3:2,0:0:0:0:
349,269,29651,1,10,3:2:0:0:
421,215,30004,1,2,3:2:0:0:
430,304,30357,2,0,B|414:348|414:348|364:367,1,90,10|2,3:2|3:2,0:0:0:0:
328,358,30886,2,0,L|227:342,1,90,2|0,0:0|0:0,0:0:0:0:
194,335,31415,1,2,3:2:0:0:
111,371,31768,6,0,P|100:326|124:279,1,90,8|0,3:2|3:2,0:0:0:0:
185,229,32474,1,8,3:2:0:0:
102,205,32827,2,0,B|72:162|72:162|71:83|148:51,1,180,10|8,3:2|3:2,0:0:0:0:
218,23,33886,1,8,3:2:0:0:
300,59,34239,2,0,L|302:146,1,45,8|4,0:3|0:3,0:0:0:0:
302,149,34592,5,12,3:2:0:0:
212,151,34945,2,0,L|146:149,1,45,2|2,3:2|0:0,0:0:0:0:
121,147,35298,1,10,3:2:0:0:
40,119,35651,1,2,3:2:0:0:
40,119,35827,2,0,P|19:171|28:222,1,90,2|8,3:2|3:2,0:0:0:0:
34,246,36356,2,0,L|27:289,1,45,10|0,3:2|3:2,0:0:0:0:
19,334,36709,1,8,3:2:0:0:
107,350,37062,2,0,P|154:342|218:360,1,90,2|10,3:2|3:2,0:0:0:0:
286,375,37768,5,2,3:2:0:0:
286,375,37945,2,0,L|315:284,1,90,2|2,0:0|0:0,0:0:0:0:
327,246,38474,1,2,3:2:0:0:
406,204,38827,2,0,L|456:222,2,45,0|8|8,3:2|3:2|3:2,0:0:0:0:
323,167,39533,2,0,P|321:122|343:83,1,90,8|0,3:2|3:2,0:0:0:0:
264,37,40239,6,0,P|226:61|181:61,1,90,8|2,3:2|3:2,0:0:0:0:
94,41,40945,1,8,3:2:0:0:
72,128,41298,1,2,3:2:0:0:
159,150,41651,2,0,P|198:170|221:209,1,90,10|0,3:2|3:2,0:0:0:0:
222,253,42180,2,0,L|126:263,1,90,2|0,0:0|0:0,0:0:0:0:
87,266,42709,1,2,3:2:0:0:
90,355,43062,6,0,L|179:345,1,90,8|0,3:2|3:2,0:0:0:0:
269,337,43768,1,8,3:2:0:0:
358,328,44121,2,0,B|392:299|392:299|406:164,1,180,0|0,3:2|3:2,0:0:0:0:
460,92,45180,2,0,L|466:43,2,45,8|8|6,3:2|0:0|0:3,0:0:0:0:
370,85,45886,6,0,P|341:57|291:35,1,90,14|2,0:0|3:2,0:0:0:0:
252,44,46415,2,0,P|189:60|146:46,1,90,2|2,3:2|0:0,0:0:0:0:
122,40,46945,1,10,0:0:0:0:
32,45,47298,2,0,L|38:136,1,90,0|8,3:3|3:2,0:0:0:0:
39,225,48004,1,10,3:2:0:0:
116,179,48357,1,10,3:2:0:0:
123,268,48709,6,0,P|152:296|202:318,1,90,10|2,3:2|3:2,0:0:0:0:
241,315,49239,2,0,P|291:306|345:319,1,90,2|2,3:2|0:0,0:0:0:0:
372,325,49768,1,10,0:0:0:0:
452,366,50121,2,0,L|464:267,1,90,0|8,3:2|3:2,0:0:0:0:
450,187,50827,1,10,3:2:0:0:
377,240,51180,1,10,0:0:0:0:
303,291,51533,6,0,L|209:263,1,90,10|2,3:2|3:2,0:0:0:0:
171,263,52062,2,0,P|148:211|160:164,1,90,2|2,3:2|0:0,0:0:0:0:
172,139,52592,1,10,0:0:0:0:
116,67,52945,2,0,P|156:48|200:53,1,90,0|8,3:2|3:2,0:0:0:0:
263,118,53651,1,10,3:2:0:0:
317,46,54004,1,10,0:0:0:0:
365,121,54357,6,0,P|370:165|356:207,1,90,10|2,3:2|3:2,0:0:0:0:
325,240,54886,2,0,P|280:245|238:231,1,90,2|2,3:2|0:0,0:0:0:0:
202,203,55415,1,10,0:0:0:0:
130,148,55768,2,0,P|112:201|132:254,1,90,0|8,3:2|3:2,0:0:0:0:
77,313,56474,2,0,B|121:327|121:327|180:307,1,90,10|10,3:2|0:3,0:0:0:0:
252,312,57180,6,0,L|353:349,1,90,14|2,0:0|3:2,0:0:0:0:
380,353,57709,2,0,L|413:244,1,90,2|2,3:2|0:0,0:0:0:0:
423,227,58239,1,10,0:0:0:0:
488,165,58592,2,0,B|451:139|451:139|406:140,1,90,0|8,3:2|0:0,0:0:0:0:
333,195,59298,2,0,B|288:198|288:198|250:175,1,90,8|2,3:2|3:2,0:0:0:0:
217,93,60004,5,10,3:2:0:0:
126,97,60357,1,8,3:2:0:0:
104,184,60710,1,8,3:2:0:0:
178,234,61062,1,8,3:2:0:0:
250,175,61415,1,12,3:2:0:0:
294,0,62121,6,0,B|330:20|330:20|377:12,1,90,10|10,0:0|0:3,0:0:0:0:
423,7,62651,1,6,0:3:0:0:
448,43,62827,6,0,L|465:117,1,45,12|2,0:0|0:0,0:0:0:0:
466,131,63180,2,0,L|454:243,1,90,2|8,3:2|3:2,0:0:0:0:
442,312,63886,1,2,3:2:0:0:
355,288,64239,2,0,P|323:284|294:291,1,45,10|8,3:2|3:2,0:0:0:0:
273,311,64592,2,0,P|249:321|218:318,1,45,10|2,3:2|0:0,0:0:0:0:
186,308,64945,1,8,3:2:0:0:
107,352,65298,1,2,3:2:0:0:
39,292,65651,6,0,P|34:242|57:188,1,90,10|2,3:2|0:0,0:0:0:0:
86,183,66180,2,0,P|94:139|79:97,1,90,2|0,3:2|0:0,0:0:0:0:
88,52,66709,1,2,3:2:0:0:
175,29,67062,2,0,P|219:24|263:34,1,90,8|10,3:2|0:0,0:0:0:0:
315,107,67768,2,0,L|301:169,2,45,10|2|10,3:2|0:0|0:0,0:0:0:0:
354,84,68298,1,2,0:0:0:0:
404,95,68474,6,0,L|426:200,1,90,8|2,3:2|3:2,0:0:0:0:
444,270,69180,1,8,3:2:0:0:
460,358,69533,2,0,P|433:363|407:356,1,45,2|2,0:0|3:2,0:0:0:0:
380,333,69886,2,0,P|334:322|285:334,1,90,10|10,0:0|0:0,0:0:0:0:
253,352,70415,2,0,L|231:255,1,90,2|0,0:0|0:0,0:0:0:0:
224,219,70945,1,2,3:2:0:0:
248,132,71298,6,0,P|199:129|155:161,1,90,8|0,3:2|3:2,0:0:0:0:
116,225,72004,1,10,3:2:0:0:
154,306,72357,1,2,0:0:0:0:
233,264,72709,2,0,B|279:257|279:257|323:265,1,90,8|10,3:2|0:0,0:0:0:0:
399,312,73415,2,0,L|416:371,2,45,8|8|6,0:0|0:3|0:3,0:0:0:0:
426,275,73945,1,2,0:0:0:0:
476,264,74121,6,0,P|488:204|380:220,1,180,12|8,0:0|3:2,0:0:0:0:
332,256,75180,1,2,3:2:0:0:
280,184,75533,2,0,P|254:169|227:168,1,45,10|8,3:2|3:2,0:0:0:0:
199,146,75886,2,0,P|175:148|150:165,1,45,10|2,0:0|0:0,0:0:0:0:
125,190,76239,1,8,3:2:0:0:
126,279,76592,1,2,3:2:0:0:
204,339,76945,6,0,P|226:304|222:256,1,90,10|2,3:2|3:2,0:0:0:0:
231,214,77474,2,0,P|275:210|316:228,1,90,2|0,3:2|0:0,0:0:0:0:
352,255,78003,1,2,3:2:0:0:
440,271,78356,2,0,L|459:156,1,90,8|10,3:2|0:0,0:0:0:0:
463,92,79062,2,0,L|455:47,2,45,10|2|10,3:2|0:0|0:0,0:0:0:0:
380,127,79768,6,0,P|321:146|266:127,1,90,8|2,3:2|3:2,0:0:0:0:
208,115,80474,1,8,3:2:0:0:
122,86,80827,2,0,P|97:89|75:111,1,45,2|0,3:2|3:2,0:0:0:0:
55,137,81180,2,0,L|75:231,1,90,10|14,3:2|0:0,0:0:0:0:
135,291,81886,2,0,L|125:340,2,45,8|10|10,3:2|0:0|0:3,0:0:0:0:
181,213,82592,6,0,P|235:163|286:232,1,180,4|10,3:2|3:2,0:0:0:0:
219,293,83651,1,2,3:2:0:0:
132,316,84004,2,0,P|95:281|79:236,1,90,10|10,0:0|0:0,0:0:0:0:
55,208,84533,2,0,L|71:114,1,90,2|2,0:0|0:0,0:0:0:0:
82,75,85062,1,2,3:2:0:0:
166,42,85415,6,0,P|206:36|267:48,1,90,8|0,3:2|3:2,0:0:0:0:
318,106,86121,1,10,3:2:0:0:
383,44,86474,1,2,3:2:0:0:
432,119,86827,2,0,P|437:163|427:207,1,90,10|10,3:2|0:0,0:0:0:0:
395,239,87357,2,0,L|281:275,1,90,2|2,0:0|3:2,0:0:0:0:
267,283,87886,1,10,0:0:0:0:
204,347,88239,6,0,P|174:278|248:191,1,180,8|10,3:2|3:2,0:0:0:0:
314,173,89298,1,2,3:2:0:0:
401,194,89651,2,0,P|416:147|394:88,1,90,10|10,3:2|0:0,0:0:0:0:
368,84,90180,2,0,L|266:56,1,90,2|2,3:2|0:0,0:0:0:0:
237,48,90709,1,2,0:0:0:0:
157,6,91062,6,0,P|146:47|167:108,1,90,8|0,3:2|3:2,0:0:0:0:
199,172,91768,1,10,3:2:0:0:
154,250,92121,1,2,3:2:0:0:
111,171,92474,2,0,P|64:233|77:301,2,135,10|2|10,3:2|3:2|0:3,0:0:0:0:
201,172,93886,6,0,L|300:152,1,90,12|0,0:0|3:2,0:0:0:0:
367,109,94592,1,10,3:2:0:0:
444,154,94945,1,2,0:0:0:0:
454,243,95298,2,0,P|445:287|406:324,1,90,10|10,3:2|3:2,0:0:0:0:
375,340,95827,2,0,L|278:328,1,90,2|2,3:2|0:0,0:0:0:0:
240,321,96357,1,2,3:2:0:0:
171,379,96709,6,0,P|149:345|157:286,1,90,8|0,3:2|3:2,0:0:0:0:
212,230,97415,1,10,3:2:0:0:
122,219,97768,1,2,3:2:0:0:
32,208,98121,2,0,P|61:150|118:127,1,90,10|10,3:2|0:0,0:0:0:0:
125,135,98651,2,0,B|173:148|173:148|223:136,1,90,2|2,0:0|3:2,0:0:0:0:
256,130,99180,1,10,0:0:0:0:
324,71,99533,6,0,L|296:253,1,180,10|8,3:2|3:2,0:0:0:0:
281,337,100592,1,2,0:0:0:0:
369,350,100945,2,0,L|383:255,1,90,10|10,0:0|0:0,0:0:0:0:
358,222,101474,2,0,P|313:220|266:188,1,90,10|10,0:0|0:3,0:0:0:0:
243,165,102004,1,4,0:3:0:0:
167,213,102357,5,14,0:0:0:0:
256,192,102533,12,2,105180,0:0:0:0:
50,64,116474,6,0,P|92:58|150:70,1,90,2|2,0:0|0:0,0:0:0:0:
224,94,117180,2,0,P|266:100|324:88,1,90,2|2,0:0|0:0,0:0:0:0:
393,52,117886,2,0,P|406:99|383:146,1,90,2|2,0:0|0:0,0:0:0:0:
312,180,118592,2,0,P|267:187|223:181,1,90,2|2,0:0|0:0,0:0:0:0:
138,150,119298,6,0,L|105:250,1,90,2|2,0:0|0:0,0:0:0:0:
87,322,120004,1,2,0:0:0:0:
173,296,120357,1,2,0:0:0:0:
258,323,120709,2,0,B|302:338|302:338|365:320,2,90,2|2|2,0:0|0:0|0:0,0:0:0:0:
87,264,122121,6,0,L|125:158,1,90,2|2,0:0|0:0,0:0:0:0:
207,171,122827,2,0,L|170:273,1,90,2|0,0:0|0:0,0:0:0:0:
143,339,123533,1,2,0:0:0:0:
280,222,124239,6,0,P|328:229|366:262,1,90,10|10,0:0|0:3,0:0:0:0:
387,289,124769,1,6,0:3:0:0:
415,323,124945,6,0,P|439:302|452:250,1,45,12|2,0:0|0:0,0:0:0:0:
461,248,125298,2,0,L|449:134,1,90,2|8,3:2|3:2,0:0:0:0:
412,80,126004,1,2,3:2:0:0:
361,154,126357,2,0,P|339:139|314:109,1,45,10|8,3:2|3:2,0:0:0:0:
310,84,126709,2,0,P|296:60|273:46,1,45,10|2,3:2|0:0,0:0:0:0:
238,38,127062,1,8,3:2:0:0:
148,25,127416,1,2,3:2:0:0:
90,93,127769,6,0,P|75:140|97:199,1,90,10|2,3:2|0:0,0:0:0:0:
114,211,128298,2,0,P|122:255|107:297,1,90,2|0,3:2|0:0,0:0:0:0:
85,336,128827,1,2,3:2:0:0:
169,369,129180,2,0,P|213:374|257:364,1,90,8|10,3:2|0:0,0:0:0:0:
284,280,129886,2,0,L|270:218,2,45,10|2|10,3:2|0:0|0:0,0:0:0:0:
320,308,130415,1,2,0:0:0:0:
360,332,130592,6,0,P|399:285|395:247,1,90,8|2,3:2|3:2,0:0:0:0:
422,171,131298,1,8,3:2:0:0:
343,126,131651,2,0,P|321:132|304:153,1,45,2|2,0:0|3:2,0:0:0:0:
296,192,132004,2,0,P|250:203|201:191,1,90,10|10,0:0|0:0,0:0:0:0:
172,168,132533,2,0,L|150:71,1,90,2|0,0:0|0:0,0:0:0:0:
148,36,133063,1,2,3:2:0:0:
232,68,133416,6,0,P|281:71|325:39,1,90,8|0,3:2|3:2,0:0:0:0:
392,5,134122,1,10,3:2:0:0:
456,62,134475,1,2,0:0:0:0:
379,109,134827,2,0,B|386:155|386:155|378:199,1,90,8|10,3:2|0:0,0:0:0:0:
388,287,135533,2,0,L|427:328,2,45,8|8|6,0:0|0:3|0:3,0:0:0:0:
344,284,136062,1,2,0:0:0:0:
312,316,136239,6,0,P|220:253|265:192,1,180,12|8,0:0|3:2,0:0:0:0:
309,154,137298,1,2,3:2:0:0:
229,112,137651,2,0,P|208:101|170:98,1,45,10|8,3:2|3:2,0:0:0:0:
143,86,138004,2,0,P|122:91|98:108,1,45,10|2,0:0|0:0,0:0:0:0:
82,143,138357,1,8,3:2:0:0:
47,226,138710,1,2,3:2:0:0:
11,308,139063,6,0,P|51:326|99:322,1,90,10|2,3:2|3:2,0:0:0:0:
134,298,139592,2,0,P|178:294|219:312,1,90,2|0,3:2|0:0,0:0:0:0:
255,339,140121,1,2,3:2:0:0:
344,340,140474,2,0,L|363:225,1,90,8|10,3:2|0:0,0:0:0:0:
417,182,141180,2,0,L|449:149,2,45,10|2|10,3:2|0:0|3:2,0:0:0:0:
327,172,141886,6,0,P|250:191|150:159,1,180,8|8,3:2|3:2,0:0:0:0:
88,222,142945,1,2,3:2:0:0:
99,266,143121,1,0,3:2:0:0:
136,291,143298,2,0,P|180:291|224:309,1,90,10|14,3:2|0:0,0:0:0:0:
283,241,144004,2,0,L|274:196,2,45,8|10|10,3:2|0:0|0:3,0:0:0:0:
332,317,144709,6,0,P|375:309|411:283,1,90,4|0,3:2|3:2,0:0:0:0:
454,203,145415,2,0,L|472:114,1,90,10|2,3:2|3:2,0:0:0:0:
421,40,146120,1,10,3:2:0:0:
332,26,146473,1,10,0:0:0:0:
259,80,146827,2,0,L|277:169,1,90,10|2,3:2|3:2,0:0:0:0:
295,256,147532,5,10,3:2:0:0:
212,292,147885,1,2,3:2:0:0:
130,329,148239,2,0,P|120:281|144:235,1,90,10|2,3:2|3:2,0:0:0:0:
207,190,148945,2,0,L|309:209,1,90,10|2,3:2|3:2,0:0:0:0:
339,216,149473,1,2,0:0:0:0:
405,276,149827,2,0,B|434:230|434:230|413:112,1,135,2|10,0:0|3:2,0:0:0:0:
403,61,150709,5,2,3:2:0:0:
329,113,151062,2,0,P|284:119|243:103,1,90,10|2,3:2|3:2,0:0:0:0:
180,38,151767,1,10,3:2:0:0:
153,124,152120,1,10,0:0:0:0:
134,212,152474,2,0,L|236:197,1,90,10|2,3:2|3:2,0:0:0:0:
312,184,153179,5,14,0:0:0:0:
330,272,153533,2,0,L|342:336,2,45,10|8|10,0:0|0:0|0:3,0:0:0:0:
398,213,154238,1,14,0:0:0:0:
256,192,154415,12,4,156004,0:0:0:0:
