osu file format v14

[General]
AudioFilename: audio.mp3
AudioLeadIn: 0
PreviewTime: 124062
Countdown: 0
SampleSet: Soft
StackLeniency: 0.3
Mode: 0
LetterboxInBreaks: 0
WidescreenStoryboard: 1

[Editor]
Bookmarks: 45886
DistanceSpacing: 1.6
BeatDivisor: 4
GridSize: 4
TimelineZoom: 1.5

[Metadata]
Title:Higashi no Sora kara Hajimaru Sekai (Short Ver.)
TitleUnicode:東の空から始まる世界 (Short Ver.)
Artist:yuiko
ArtistUnicode:yuiko
Creator:[ TNTlealu ]
Version:I just wish she would come back to me again.
Source:恋×シンアイ彼女
Tags:primary meis clauson Japanese Flask Silent Rock GfMRT Garden Kuse KuBsNia_ZhoYL_ Tuffiii ゆいこんぬ yuikonnu VN Visual Novel Vocals 美少女ゲーム Eroge Video Game Us:track Koi x Shin Ai Kanojo ED Ending pop j-pop jpop School Girls Stories Kakeru Koikake
BeatmapID:2705255
BeatmapSetID:1301082

[Difficulty]
HPDrainRate:6
CircleSize:4.7
OverallDifficulty:8.4
ApproachRate:8
SliderMultiplier:2.4
SliderTickRate:1

[Events]
//Background and Video events
0,0,"a7960376_waifu2x_art_noise3_scale_tta_1.jpg",0,0
//Break Periods
//Storyboard Layer 0 (Background)
//Storyboard Layer 1 (Fail)
//Storyboard Layer 2 (Pass)
//Storyboard Layer 3 (Foreground)
//Storyboard Layer 4 (Overlay)
//Storyboard Sound Samples

[TimingPoints]
710,705.882352941176,4,2,1,55,1,0
10239,-100,4,2,1,65,0,0
10592,-100,4,2,1,60,0,0
11010,-100,4,2,1,65,0,0
11298,-100,4,2,1,70,0,0
12004,-83.3333333333333,4,2,1,70,0,0
12709,-66.6666666666667,4,2,2,70,0,0
12974,-66.6666666666667,4,2,2,70,0,0
13062,-66.6666666666667,4,2,2,70,0,0
13415,-83.3333333333333,4,2,2,70,0,0
13592,-83.3333333333333,4,2,1,70,0,0
14121,-66.6666666666667,4,2,2,70,0,0
14386,-66.6666666666667,4,2,2,70,0,0
14474,-66.6666666666667,4,2,2,70,0,0
14651,-66.6666666666667,4,2,1,70,0,0
14827,-83.3333333333333,4,2,2,70,0,0
16415,-83.3333333333333,4,2,1,70,0,0
16945,-83.3333333333333,4,2,2,70,0,0
17209,-83.3333333333333,4,2,2,70,0,0
17298,-83.3333333333333,4,2,1,70,0,0
17562,-83.3333333333333,4,2,1,70,0,0
17651,-83.3333333333333,4,2,2,70,0,0
18357,-66.6666666666667,4,2,2,70,0,0
19062,-83.3333333333333,4,2,2,70,0,0
19239,-83.3333333333333,4,2,1,70,0,0
19768,-66.6666666666667,4,2,2,70,0,0
21601,-66.6666666666667,4,2,1,68,0,0
21886,-66.6666666666667,4,2,1,66,0,0
22239,-66.6666666666667,4,2,1,64,0,0
22592,-66.6666666666667,4,2,1,62,0,0
22945,-66.6666666666667,4,2,1,60,0,0
23298,-100,4,2,1,60,0,0
23651,-100,4,2,2,60,0,0
24533,-100,4,2,1,60,0,0
24709,-100,4,2,2,60,0,0
24886,-100,4,2,1,60,0,0
25768,-100,4,2,2,60,0,0
25945,-100,4,2,1,60,0,0
26121,-100,4,2,2,60,0,0
27357,-100,4,2,1,60,0,0
27533,-100,4,2,2,60,0,0
28062,-100,4,2,1,60,0,0
28945,-100,4,2,2,60,0,0
30709,-100,4,2,1,60,0,0
31062,-100,4,2,2,60,0,0
31504,-100,4,2,1,60,0,0
31768,-100,4,2,2,60,0,0
32827,-100,4,2,1,60,0,0
33180,-100,4,2,2,60,0,0
33357,-100,4,2,1,60,0,0
33445,-100,4,2,2,60,0,0
34239,-100,4,2,1,60,0,0
34592,-100,4,2,2,60,0,0
35827,-100,4,2,1,60,0,0
36004,-100,4,2,2,60,0,0
36180,-100,4,2,1,60,0,0
36357,-100,4,2,2,60,0,0
37239,-100,4,2,1,60,0,0
37415,-100,4,2,2,60,0,0
38651,-100,4,2,1,60,0,0
38827,-100,4,2,2,60,0,0
39004,-100,4,2,1,60,0,0
39180,-100,4,2,2,60,0,0
40062,-100,4,2,1,60,0,0
40239,-100,4,2,2,60,0,0
42004,-100,4,2,1,60,0,0
42709,-100,4,2,2,60,0,0
42886,-100,4,2,1,60,0,0
43062,-100,4,2,2,60,0,0
44121,-100,4,2,1,60,0,0
44474,-100,4,2,2,60,0,0
45533,-200,4,2,1,60,0,0
45798,-200,4,2,1,60,0,0
45886,-100,4,2,2,65,0,0
46239,-100,4,2,3,65,0,0
46327,-100,4,2,2,65,0,0
46415,-100,4,2,1,65,0,0
46504,-100,4,2,2,65,0,0
47298,-100,4,2,3,65,0,0
47386,-100,4,2,2,65,0,0
47474,-100,4,2,1,65,0,0
47651,-100,4,2,3,65,0,0
47739,-100,4,2,2,65,0,0
48357,-100,4,2,3,65,0,0
48445,-100,4,2,2,65,0,0
48533,-100,4,2,1,65,0,0
48709,-100,4,2,3,65,0,0
48797,-100,4,2,2,65,0,0
49239,-100,4,2,1,65,0,0
49327,-100,4,2,2,65,0,0
50121,-100,4,2,3,65,0,0
50209,-100,4,2,2,65,0,0
50298,-100,4,2,1,65,0,0
50474,-100,4,2,3,65,0,0
50562,-100,4,2,2,65,0,0
51357,-100,4,2,1,65,0,0
51533,-100,4,2,3,65,0,0
51621,-100,4,2,2,65,0,0
51886,-100,4,2,3,65,0,0
51974,-100,4,2,1,65,0,0
52151,-100,4,2,2,65,0,0
52945,-100,4,2,3,65,0,0
53033,-100,4,2,2,65,0,0
53121,-100,4,2,1,65,0,0
53298,-100,4,2,3,65,0,0
53386,-100,4,2,2,65,0,0
54180,-100,4,2,1,65,0,0
54357,-100,4,2,3,65,0,0
54445,-100,4,2,2,65,0,0
54709,-100,4,2,3,65,0,0
54797,-100,4,2,2,65,0,0
54886,-100,4,2,1,65,0,0
54974,-100,4,2,2,65,0,0
55768,-100,4,2,3,65,0,0
55856,-100,4,2,2,65,0,0
55945,-100,4,2,1,65,0,0
56121,-100,4,2,3,65,0,0
56209,-100,4,2,2,65,0,0
56827,-100,4,2,1,65,0,0
57180,-100,4,2,2,65,0,0
57533,-100,4,2,3,65,0,0
57621,-100,4,2,1,65,0,0
57886,-100,4,2,3,65,0,0
57974,-100,4,2,2,65,0,0
58592,-100,4,2,3,65,0,0
58680,-100,4,2,2,65,0,0
58768,-100,4,2,1,65,0,0
58945,-100,4,2,3,65,0,0
59033,-100,4,2,2,65,0,0
59651,-100,4,2,1,65,0,0
59739,-100,4,2,2,65,0,0
60004,-100,4,2,1,66,0,0
60357,-100,4,2,1,67,0,0
60709,-100,4,2,1,68,0,0
61062,-100,4,2,1,69,0,0
61415,-100,4,2,1,70,0,0
62827,-58.8235294117647,4,2,2,70,0,1
63092,-58.8235294117647,4,2,2,70,0,1
63180,-58.8235294117647,4,2,2,70,0,1
63268,-58.8235294117647,4,2,2,70,0,1
63357,-58.8235294117647,4,2,2,70,0,1
63445,-58.8235294117647,4,2,2,70,0,1
63533,-58.8235294117647,4,2,2,70,0,1
63798,-58.8235294117647,4,2,2,70,0,1
63886,-58.8235294117647,4,2,2,70,0,1
64151,-58.8235294117647,4,2,2,70,0,1
64239,-58.8235294117647,4,2,2,70,0,1
64415,-58.8235294117647,4,2,1,70,0,1
64504,-58.8235294117647,4,2,2,70,0,1
65651,-83.3333333333333,4,2,2,70,0,1
66268,-83.3333333333333,4,2,2,70,0,1
66357,-83.3333333333333,4,2,2,70,0,1
66621,-83.3333333333333,4,2,2,70,0,1
66709,-83.3333333333333,4,2,2,70,0,1
67239,-83.3333333333333,4,2,1,70,0,1
67327,-83.3333333333333,4,2,2,70,0,1
68386,-83.3333333333333,4,2,2,70,0,1
68474,-58.8235294117647,4,2,2,70,0,1
68739,-58.8235294117647,4,2,2,70,0,1
68827,-58.8235294117647,4,2,2,70,0,1
69092,-58.8235294117647,4,2,2,70,0,1
69180,-58.8235294117647,4,2,2,70,0,1
69709,-58.8235294117647,4,2,1,70,0,1
69798,-58.8235294117647,4,2,1,70,0,1
69886,-58.8235294117647,4,2,2,70,0,1
70062,-58.8235294117647,4,2,1,70,0,1
70150,-58.8235294117647,4,2,2,70,0,1
72533,-58.8235294117647,4,2,1,70,0,1
72709,-58.8235294117647,4,2,2,70,0,1
72886,-58.8235294117647,4,2,1,70,0,1
72974,-58.8235294117647,4,2,2,70,0,1
73239,-58.8235294117647,4,2,1,70,0,1
73415,-58.8235294117647,4,2,2,70,0,1
75709,-58.8235294117647,4,2,1,70,0,1
75797,-58.8235294117647,4,2,2,70,0,1
76504,-58.8235294117647,4,2,2,70,0,1
76592,-58.8235294117647,4,2,2,70,0,1
76680,-58.8235294117647,4,2,2,70,0,1
76768,-58.8235294117647,4,2,2,70,0,1
76857,-58.8235294117647,4,2,2,70,0,1
76945,-83.3333333333333,4,2,2,70,0,1
77209,-83.3333333333333,4,2,2,70,0,1
77298,-83.3333333333333,4,2,2,70,0,1
77562,-83.3333333333333,4,2,2,70,0,1
77651,-83.3333333333333,4,2,2,70,0,1
77915,-83.3333333333333,4,2,2,70,0,1
78004,-83.3333333333333,4,2,2,70,0,1
78268,-83.3333333333333,4,2,2,70,0,1
78357,-83.3333333333333,4,2,2,70,0,1
78533,-83.3333333333333,4,2,1,70,0,1
78621,-83.3333333333333,4,2,2,70,0,1
79768,-58.8235294117647,4,2,2,70,0,1
81004,-58.8235294117647,4,2,1,70,0,1
81180,-58.8235294117647,4,2,2,70,0,1
81357,-58.8235294117647,4,2,1,70,0,1
81445,-58.8235294117647,4,2,2,70,0,1
81709,-58.8235294117647,4,2,1,70,0,1
81886,-58.8235294117647,4,2,2,70,0,1
81974,-58.8235294117647,4,2,2,70,0,1
82062,-58.8235294117647,4,2,2,70,0,1
82151,-58.8235294117647,4,2,2,70,0,1
82239,-58.8235294117647,4,2,2,70,0,1
82327,-58.8235294117647,4,2,2,70,0,1
82415,-58.8235294117647,4,2,2,70,0,1
82504,-58.8235294117647,4,2,2,70,0,1
82592,-100,4,2,1,70,0,0
82680,-100,4,2,2,70,0,0
83827,-100,4,2,1,70,0,0
84004,-100,4,2,2,70,0,0
84180,-100,4,2,1,70,0,0
84268,-100,4,2,2,70,0,0
84445,-100,4,2,2,70,0,0
84533,-100,4,2,2,70,0,0
86739,-100,4,2,2,70,0,0
86827,-100,4,2,2,70,0,0
87004,-100,4,2,1,70,0,0
87092,-100,4,2,2,70,0,0
87268,-100,4,2,2,70,0,0
87357,-100,4,2,2,70,0,0
87798,-100,4,2,2,70,0,0
87886,-100,4,2,2,70,0,0
88062,-100,4,2,1,70,0,0
88239,-100,4,2,2,70,0,0
89474,-100,4,2,1,70,0,0
89651,-100,4,2,2,70,0,0
89827,-100,4,2,1,70,0,0
89916,-100,4,2,2,70,0,0
92298,-100,4,2,1,70,0,0
92474,-100,4,2,2,70,0,0
92651,-100,4,2,1,70,0,0
92740,-100,4,2,2,70,0,0
93004,-100,4,2,1,70,0,0
93093,-100,4,2,2,70,0,0
95121,-100,4,2,1,70,0,0
95210,-100,4,2,2,70,0,0
95474,-100,4,2,1,70,0,0
95563,-100,4,2,2,70,0,0
95651,-125,4,2,1,70,0,0
95739,-125,4,2,1,70,0,0
95827,-100,4,2,2,70,0,0
95915,-200,4,2,2,70,0,0
96004,-100,4,2,1,70,0,0
96709,-100,4,2,2,70,0,0
98298,-100,4,2,1,70,0,0
98386,-100,4,2,2,70,0,0
99357,-100,4,2,1,70,0,0
99533,-100,4,2,2,70,0,0
100680,-100,4,2,2,70,0,0
100768,-100,4,2,2,70,0,0
101121,-100,4,2,1,70,0,0
101209,-100,4,2,2,70,0,0
101298,-100,4,2,2,70,0,0
101474,-76.9230769230769,4,2,2,70,0,0
102357,-100,4,2,1,67,0,0
102709,-100,4,2,1,64,0,0
103062,-100,4,2,1,61,0,0
103415,-100,4,2,1,58,0,0
103768,-100,4,2,1,55,0,0
105180,-100,4,2,1,55,0,0
116121,-100,4,2,1,57,0,0
116298,-100,4,2,1,58,0,0
116474,-100,4,2,1,60,0,0
123533,-333.333333333333,4,2,1,60,0,0
123709,-333.333333333333,4,2,1,63,0,0
123886,-333.333333333333,4,2,1,66,0,0
124062,-333.333333333333,4,2,1,70,0,0
124239,-100,4,2,1,70,0,0
124945,-58.8235294117647,4,2,2,70,0,1
125209,-58.8235294117647,4,2,2,70,0,1
125298,-58.8235294117647,4,2,2,70,0,1
125386,-58.8235294117647,4,2,2,70,0,1
125474,-58.8235294117647,4,2,2,70,0,1
125562,-58.8235294117647,4,2,2,70,0,1
125651,-58.8235294117647,4,2,2,70,0,1
126533,-58.8235294117647,4,2,1,70,0,1
126622,-58.8235294117647,4,2,2,70,0,1
126798,-58.8235294117647,4,2,2,70,0,1
126886,-58.8235294117647,4,2,2,70,0,1
127768,-83.3333333333333,4,2,2,70,0,1
128033,-83.3333333333333,4,2,2,70,0,1
128121,-83.3333333333333,4,2,2,70,0,1
129092,-83.3333333333333,4,2,2,70,0,1
129180,-83.3333333333333,4,2,2,70,0,1
129357,-83.3333333333333,4,2,1,70,0,1
129445,-83.3333333333333,4,2,2,70,0,1
129533,-83.3333333333333,4,2,2,70,0,1
129798,-83.3333333333333,4,2,2,70,0,1
129886,-83.3333333333333,4,2,2,70,0,1
130592,-58.8235294117647,4,2,2,70,0,1
130680,-58.8235294117647,4,2,2,70,0,1
130768,-58.8235294117647,4,2,2,70,0,1
130857,-58.8235294117647,4,2,2,70,0,1
130945,-58.8235294117647,4,2,2,70,0,1
131827,-58.8235294117647,4,2,1,70,0,1
132004,-58.8235294117647,4,2,2,70,0,1
132180,-58.8235294117647,4,2,1,70,0,1
132268,-58.8235294117647,4,2,2,70,0,1
132445,-58.8235294117647,4,2,2,70,0,1
132533,-58.8235294117647,4,2,2,70,0,1
132709,-55.5555555555556,4,2,2,70,0,1
132798,-55.5555555555556,4,2,2,70,0,1
132886,-55.5555555555556,4,2,2,70,0,1
132974,-55.5555555555556,4,2,2,70,0,1
133062,-55.5555555555556,4,2,2,70,0,1
133239,-58.8235294117647,4,2,2,70,0,1
134651,-58.8235294117647,4,2,1,70,0,1
134827,-58.8235294117647,4,2,2,70,0,1
135004,-58.8235294117647,4,2,1,70,0,1
135092,-58.8235294117647,4,2,2,70,0,1
135357,-58.8235294117647,4,2,1,70,0,1
135533,-58.8235294117647,4,2,2,70,0,1
136504,-58.8235294117647,4,2,2,70,0,1
136592,-58.8235294117647,4,2,2,70,0,1
137827,-58.8235294117647,4,2,1,70,0,1
137915,-58.8235294117647,4,2,2,70,0,1
138004,-58.8235294117647,4,2,2,70,0,1
138092,-58.8235294117647,4,2,2,70,0,1
138180,-58.8235294117647,4,2,2,70,0,1
138268,-58.8235294117647,4,2,2,70,0,1
138357,-58.8235294117647,4,2,2,70,0,1
139062,-83.3333333333333,4,2,2,70,0,1
140651,-83.3333333333333,4,2,1,70,0,1
140739,-83.3333333333333,4,2,2,70,0,1
141886,-58.8235294117647,4,2,2,70,0,1
142151,-58.8235294117647,4,2,2,70,0,1
142239,-58.8235294117647,4,2,2,70,0,1
143122,-58.8235294117647,4,2,1,70,0,1
143298,-58.8235294117647,4,2,2,70,0,1
143475,-58.8235294117647,4,2,1,70,0,1
143563,-58.8235294117647,4,2,2,70,0,1
143827,-58.8235294117647,4,2,1,70,0,1
144004,-58.8235294117647,4,2,2,70,0,1
144709,-83.3333333333333,4,2,1,70,0,0
145062,-83.3333333333333,4,2,2,70,0,0
145415,-66.6666666666667,4,2,2,70,0,0
146121,-83.3333333333333,4,2,2,70,0,0
146297,-83.3333333333333,4,2,1,70,0,0
146827,-66.6666666666667,4,2,2,70,0,0
147356,-66.6666666666667,4,2,1,70,0,0
147533,-83.3333333333333,4,2,2,70,0,0
149120,-83.3333333333333,4,2,1,70,0,0
149650,-83.3333333333333,4,2,2,70,0,0
150003,-83.3333333333333,4,2,1,70,0,0
150356,-83.3333333333333,4,2,2,70,0,0
151062,-66.6666666666667,4,2,2,70,0,0
151768,-83.3333333333333,4,2,2,70,0,0
151944,-83.3333333333333,4,2,1,70,0,0
152474,-66.6666666666667,4,2,2,70,0,0
154592,-66.6666666666667,4,2,1,68,0,0
155298,-66.6666666666667,4,2,1,66,0,0
156004,-66.6666666666667,4,2,30,64,0,0
156709,-66.6666666666667,4,2,1,60,0,0
157415,-66.6666666666667,4,2,1,50,0,0
158121,-66.6666666666667,4,2,1,40,0,0
158827,-66.6666666666667,4,2,1,30,0,0
159533,-66.6666666666667,4,2,1,20,0,0
160239,-66.6666666666667,4,2,1,10,0,0
160945,-66.6666666666667,4,2,1,5,0,0

[Colours]
Combo1 : 255,128,255
Combo2 : 128,64,64
Combo3 : 0,128,255
Combo4 : 255,128,64

[HitObjects]
430,74,10592,5,0,3:2:0:0:
375,316,10945,1,12,0:0:0:0:
375,315,11033,1,0,3:2:0:0:
375,315,11121,1,0,3:2:0:0:
328,155,11298,1,8,0:0:0:0:
458,257,11474,1,8,0:0:0:0:
293,251,11651,1,8,0:3:0:0:
431,159,11827,1,4,0:3:0:0:
202,321,12004,6,0,P|216:292|220:252,1,71.9999978027345,14|0,0:0|0:0,0:0:0:0:
108,178,12357,2,0,P|116:209|139:242,1,71.9999978027345,2|0,3:2|0:0,0:0:0:0:
246,117,12709,2,0,B|201:150|155:115|155:119|151:119|151:115|107:75|55:119,1,180.000006866455,10|2,3:2|3:2,0:0:0:0:
204,56,13415,6,0,P|233:42|273:38,1,71.9999978027345,10|0,3:2|3:2,0:0:0:0:
308,124,13768,2,0,P|337:138|377:142,1,71.9999978027345,10|0,0:0|0:0,0:0:0:0:
469,15,14121,2,0,P|457:107|453:211,1,180.000006866455,10|2,3:2|3:2,0:0:0:0:
380,352,14827,6,0,P|379:311|386:280,1,71.9999978027344,10|0,3:2|0:0,0:0:0:0:
308,191,15180,2,0,P|308:230|301:262,1,71.9999978027344,2|0,3:2|0:0,0:0:0:0:
158,231,15533,6,0,P|118:235|88:243,1,71.9999978027344,10|0,3:2|0:0,0:0:0:0:
167,148,15886,2,0,P|211:161|248:164,1,71.9999978027344,2|0,3:2|0:0,0:0:0:0:
344,72,16239,6,0,P|300:59|263:56,1,71.9999978027344,10|0,3:2|3:2,0:0:0:0:
180,64,16592,1,2,3:2:0:0:
236,163,16768,2,0,P|271:142|322:139,1,71.9999978027344,2|8,0:0|3:2,0:0:0:0:
457,51,17121,2,0,P|426:87|393:178,1,143.999995605469,2|0,0:0|3:2,0:0:0:0:
391,351,17651,6,0,P|407:307|403:259,1,71.9999978027344,10|0,3:2|0:0,0:0:0:0:
299,217,18004,2,0,P|307:263|335:303,1,71.9999978027344,2|0,3:2|0:0,0:0:0:0:
477,207,18357,2,0,B|451:169|394:174|394:174|370:128|319:127,1,180.000006866455,10|2,3:2|3:2,0:0:0:0:
157,188,19062,6,0,P|197:180|237:204,1,71.9999978027344,10|0,3:2|3:2,0:0:0:0:
318,284,19415,2,0,P|326:324|302:364,1,71.9999978027344,10|0,0:0|0:0,0:0:0:0:
76,269,19768,2,0,B|152:245|156:309|240:353|272:273,1,180.000006866455,10|2,3:2|3:2,0:0:0:0:
391,65,20474,5,14,0:0:0:0:
391,65,20827,5,10,0:0:0:0:
288,143,21004,1,8,0:0:0:0:
242,224,21180,1,10,0:3:0:0:
242,308,21357,1,4,0:3:0:0:
280,371,21533,5,14,0:0:0:0:
256,192,21621,12,0,23121,0:0:0:0:
108,56,23298,5,4,3:2:0:0:
108,56,23651,2,0,P|142:59|173:80,1,60,2|2,3:2|0:0,0:0:0:0:
259,145,24004,2,0,P|317:125|333:47,1,120,10|2,3:2|3:2,0:0:0:0:
260,65,24533,1,2,3:2:0:0:
188,145,24709,2,0,P|183:174|185:204,2,60,0|8|10,3:2|3:2|0:2,0:0:0:0:
79,132,25239,1,2,0:0:0:0:
79,132,25415,2,0,P|76:191|90:258,1,120,8|2,0:0|3:2,0:0:0:0:
223,351,26121,5,10,3:2:0:0:
379,325,26474,1,2,3:2:0:0:
379,325,26651,2,0,P|391:294|384:254,1,60,0|10,0:0|3:2,0:0:0:0:
360,183,27004,1,2,0:0:0:0:
282,136,27180,2,0,L|223:128,1,60,2|0,3:2|3:2,0:0:0:0:
174,56,27533,2,0,B|191:32|191:32|213:70,2,60,0|8|8,3:2|3:2|3:2,0:0:0:0:
122,170,28239,1,8,3:2:0:0:
272,350,28592,2,0,P|242:353|214:343,1,60,0|0,3:2|3:0,0:0:0:0:
128,264,28945,5,8,3:2:0:0:
128,264,29298,2,0,P|99:331|115:373,2,120,2|10|2,3:2|3:2|3:2,0:0:0:0:
216,86,30357,2,0,P|249:77|289:78,1,60,10|0,3:2|0:0,0:0:0:0:
366,23,30709,1,2,3:2:0:0:
452,118,30886,2,0,P|423:126|393:128,1,60,2|8,0:0|3:2,0:0:0:0:
309,160,31415,1,2,3:2:0:0:
309,160,31592,1,2,3:2:0:0:
309,160,31768,6,0,P|288:218|342:286,2,120,8|0|8,3:2|3:2|3:2,0:0:0:0:
97,311,32827,2,0,P|149:344|212:311,1,120,10|0,3:2|3:2,0:0:0:0:
256,247,33357,1,8,3:2:0:0:
312,322,33533,2,0,P|364:349|431:314,1,120,8|8,3:2|3:2,0:0:0:0:
457,188,34239,2,0,P|456:224|456:251,1,60,8|4,0:3|0:3,0:0:0:0:
477,48,34592,5,12,3:2:0:0:
477,48,34945,2,0,L|415:56,1,60,2|2,3:2|0:0,0:0:0:0:
363,143,35298,2,0,L|239:123,1,120,10|2,3:2|3:2,0:0:0:0:
156,82,35827,1,2,3:2:0:0:
94,160,36004,2,0,P|59:166|35:162,2,60,0|8|10,3:2|3:2|3:2,0:0:0:0:
156,82,36533,1,0,3:2:0:0:
156,82,36709,2,0,P|174:142|163:200,1,120,8|2,3:2|3:2,0:0:0:0:
113,313,37415,5,10,3:2:0:0:
212,353,37768,1,2,3:2:0:0:
212,353,37945,2,0,P|244:336|284:341,1,60,2|8,0:0|3:2,0:0:0:0:
358,372,38298,1,2,0:0:0:0:
413,284,38474,2,0,P|417:259|414:218,1,60,2|0,3:2|3:2,0:0:0:0:
415,130,38827,2,0,B|432:106|432:106|454:144,2,60,0|8|8,3:2|3:2|3:2,0:0:0:0:
322,259,39533,1,8,3:2:0:0:
193,132,39886,2,0,L|283:138,1,60,0|0,3:2|3:2,0:0:0:0:
335,143,40239,5,8,3:2:0:0:
335,143,40592,2,0,P|323:203|351:263,2,120,2|8|2,3:2|3:2|3:2,0:0:0:0:
158,18,41651,2,0,B|194:30|194:30|234:10|278:34,1,120,10|0,3:2|3:2,0:0:0:0:
370,115,42180,2,0,P|361:157|359:196,2,60,2|8|0,0:0|3:2|0:0,0:0:0:0:
475,194,42709,1,2,3:2:0:0:
475,194,42886,1,2,3:2:0:0:
475,194,43062,6,0,P|500:146|491:77,2,120,8|0|8,3:2|3:2|3:2,0:0:0:0:
387,129,44121,2,0,P|352:121|321:124,1,60,0|0,3:2|0:0,0:0:0:0:
208,122,44474,1,0,3:2:0:0:
255,203,44651,1,8,3:2:0:0:
211,281,44827,1,0,3:2:0:0:
307,283,45004,1,8,0:0:0:0:
307,283,45092,1,8,0:0:0:0:
307,283,45180,1,8,3:2:0:0:
253,355,45357,1,8,0:0:0:0:
208,122,45533,6,0,P|189:116|162:122,1,45,6|0,0:3|0:0,0:0:0:0:
56,222,45886,6,0,B|80:190|112:194|112:194|136:214|168:202,1,120,14|2,0:0|3:2,0:0:0:0:
239,188,46415,1,2,3:2:0:0:
340,84,46592,2,0,P|348:108|345:144,1,60,8|2,3:2|0:0,0:0:0:0:
333,333,46945,2,0,B|313:305|329:273|329:273|345:241|321:209,1,120,10|0,0:0|3:3,0:0:0:0:
255,259,47474,1,8,3:2:0:0:
174,304,47651,2,0,L|112:298,1,60,8|0,3:2|0:0,0:0:0:0:
75,152,48004,2,0,L|159:144,1,60,10|0,3:2|0:0,0:0:0:0:
176,212,48357,2,0,L|236:207,1,60,10|0,3:2|3:2,0:0:0:0:
342,223,48709,6,0,P|333:256|305:279,1,60,10|0,3:2|0:0,0:0:0:0:
238,291,49062,1,2,3:2:0:0:
304,162,49239,2,0,P|330:148|360:149,1,60,2|8,3:2|3:2,0:0:0:0:
442,163,49592,1,2,0:0:0:0:
246,99,49768,2,0,B|246:123|226:143|226:143|218:187|242:211,1,120,10|0,0:0|3:2,0:0:0:0:
304,162,50298,1,8,3:2:0:0:
301,41,50474,2,0,P|273:28|223:17,1,60,8|0,3:2|0:0,0:0:0:0:
117,31,50827,2,0,P|85:23|49:43,1,60,10|0,3:2|0:0,0:0:0:0:
25,102,51180,2,0,P|57:110|93:90,1,60,10|0,0:0|3:0,0:0:0:0:
186,76,51533,6,0,B|206:84|214:112|214:112|198:152|218:196,1,120,10|2,3:2|3:2,0:0:0:0:
185,287,52062,2,0,P|215:290|255:276,1,60,2|8,3:2|3:2,0:0:0:0:
314,248,52415,1,2,0:0:0:0:
395,156,52592,2,0,B|379:194|400:216|400:216|407:246|387:274,1,120,10|0,0:0|3:2,0:0:0:0:
470,169,53121,1,0,3:2:0:0:
370,81,53298,2,0,L|296:66,1,60,8|0,3:2|0:0,0:0:0:0:
164,83,53651,2,0,L|88:63,1,60,10|0,3:2|0:0,0:0:0:0:
86,143,54004,2,0,L|156:161,1,60,10|0,0:0|3:2,0:0:0:0:
265,253,54357,6,0,B|233:229|237:197|237:197|257:173|245:141,1,120,10|2,3:2|3:2,0:0:0:0:
311,322,54886,1,2,3:2:0:0:
357,258,55063,2,0,P|384:250|417:253,1,60,8|2,3:2|0:0,0:0:0:0:
510,348,55416,2,0,P|435:353|385:334,1,120,10|0,0:0|3:2,0:0:0:0:
359,259,55945,1,8,3:2:0:0:
432,185,56121,2,0,P|468:178|509:180,1,60,8|0,3:2|0:0,0:0:0:0:
443,27,56474,2,0,L|371:19,1,60,10|0,3:2|0:0,0:0:0:0:
324,71,56827,2,0,L|260:63,1,60,10|4,0:3|0:3,0:0:0:0:
180,194,57180,6,0,P|160:142|200:82,1,120,14|2,0:0|3:2,0:0:0:0:
257,244,57709,1,2,3:2:0:0:
326,296,57886,2,0,P|333:326|331:356,1,60,8|2,3:2|0:0,0:0:0:0:
233,376,58239,2,0,B|205:356|173:372|173:372|141:388|118:370,1,120,10|0,0:0|3:2,0:0:0:0:
39,316,58768,1,8,3:2:0:0:
136,246,58945,2,0,L|126:316,1,60,8|0,0:0|0:0,0:0:0:0:
215,180,59298,2,0,P|299:180|331:208,1,120,8|2,3:2|3:2,0:0:0:0:
419,163,59827,1,2,0:0:0:0:
472,344,60004,5,10,3:2:0:0:
388,332,60357,1,8,3:2:0:0:
324,252,60709,1,8,3:2:0:0:
272,144,61062,1,8,3:2:0:0:
156,72,61415,1,12,3:2:0:0:
156,72,61945,5,8,0:0:0:0:
156,72,62033,1,8,0:0:0:0:
156,72,62121,1,10,0:0:0:0:
272,144,62298,1,10,0:0:0:0:
324,252,62474,1,10,0:3:0:0:
388,332,62651,1,6,0:3:0:0:
339,107,62827,6,0,B|337:124|356:150|356:150|384:157|398:182,1,102.000001945496,12|2,0:0|0:0,0:0:0:0:
432,348,63180,2,0,B|436:320|460:304|460:304|468:272|461:256,1,102.000001945496,2|0,3:2|0:0,0:0:0:0:
510,180,63533,2,0,P|398:229|303:287,1,204.000003890991,8|2,3:2|3:2,0:0:0:0:
193,361,64062,1,0,3:2:0:0:
268,208,64239,1,10,3:2:0:0:
328,344,64415,1,8,3:2:0:0:
168,260,64592,2,0,P|151:210|181:141,1,102.000001945496,10|2,3:2|0:0,0:0:0:0:
328,344,64945,2,0,B|272:344|232:311|232:311|180:340|132:328,1,204.000003890991,8|2,3:2|3:2,0:0:0:0:
306,267,65474,1,0,0:0:0:0:
387,170,65651,6,0,B|374:204|398:239|398:239|437:245|439:295,1,143.999995605469,10|2,3:2|0:0,0:0:0:0:
259,149,66180,1,2,3:2:0:0:
259,149,66357,2,0,B|295:143|313:104|313:104|299:68|342:41,1,143.999995605469,8|2,3:2|3:2,0:0:0:0:
306,267,66886,1,2,0:0:0:0:
306,267,67062,2,0,B|282:238|240:242|240:242|215:272|170:249,1,143.999995605469,8|10,3:2|0:0,0:0:0:0:
116,210,67592,1,0,0:0:0:0:
156,344,67768,5,10,3:2:0:0:
256,356,67945,1,2,0:0:0:0:
359,316,68121,1,10,0:0:0:0:
399,193,68298,1,2,0:0:0:0:
253,335,68474,6,0,B|236:357|244:385|244:385|271:377|277:352,1,102.000001945496,8|2,3:2|3:2,0:0:0:0:
333,186,68827,2,0,B|323:159|295:152|295:152|288:180|307:197,1,102.000001945496,2|0,3:2|0:0,0:0:0:0:
394,309,69180,2,0,P|302:269|194:277,1,204.000003890991,8|2,3:2|0:0,0:0:0:0:
51,345,69709,1,2,3:2:0:0:
100,232,69886,2,0,B|80:176|124:140|124:140|136:80|76:48,1,204.000003890991,10|10,0:0|0:0,0:0:0:0:
19,123,70415,1,2,0:0:0:0:
174,200,70592,2,0,B|209:169|240:170|267:197|267:197|296:229|329:229|359:198,1,204.000003890991,8|2,3:2|3:2,0:0:0:0:
511,70,71121,1,2,0:0:0:0:
439,189,71298,2,0,B|439:145|407:129|407:129|431:65|399:37|399:37|359:81,1,204.000003890991,8|0,3:2|3:2,0:0:0:0:
172,36,72004,6,0,B|124:64|124:128,1,102.000001945496,10|0,3:2|0:0,0:0:0:0:
234,248,72357,2,0,B|282:220|282:156,1,102.000001945496,2|0,0:0|3:2,0:0:0:0:
283,32,72709,1,8,3:2:0:0:
225,89,72886,1,10,3:2:0:0:
204,177,73062,1,10,0:0:0:0:
231,292,73239,1,0,3:2:0:0:
231,292,73327,1,0,3:2:0:0:
231,292,73415,5,8,0:0:0:0:
204,177,73592,1,8,0:3:0:0:
225,89,73768,1,6,0:3:0:0:
283,32,73945,1,2,0:0:0:0:
431,224,74121,6,0,B|419:196|379:188|379:188|343:192,1,102.000001945496,12|0,0:0|0:0,0:0:0:0:
231,292,74474,2,0,B|243:320|283:328|283:328|318:323,1,102.000001945496,0|0,3:2|0:0,0:0:0:0:
303,132,74827,2,0,L|345:331,1,204.000003890991,8|2,3:2|3:2,0:0:0:0:
431,300,75357,1,0,0:0:0:0:
500,120,75533,1,10,3:2:0:0:
432,208,75709,1,8,3:2:0:0:
320,228,75886,2,0,P|289:174|306:119,1,102.000001945496,10|2,0:0|0:0,0:0:0:0:
176,56,76239,2,0,B|212:92|216:144|168:192|168:192|140:156|168:116,1,204.000003890991,8|2,3:2|3:2,0:0:0:0:
324,76,76768,1,0,0:0:0:0:
381,259,76945,6,0,B|401:320|446:320|446:320|450:279|417:256,1,143.999995605469,10|2,3:2|3:2,0:0:0:0:
236,213,77474,1,2,3:2:0:0:
236,213,77651,2,0,B|173:199|150:238|150:238|184:262|220:245,1,143.999995605469,8|2,3:2|3:2,0:0:0:0:
356,89,78180,1,2,0:0:0:0:
356,89,78357,2,0,B|398:41|376:2|376:2|338:19|335:59,1,143.999995605469,8|10,3:2|0:0,0:0:0:0:
259,119,78886,1,0,0:0:0:0:
159,225,79062,5,10,3:2:0:0:
106,99,79239,1,2,0:0:0:0:
283,218,79415,1,10,0:0:0:0:
100,326,79592,1,2,3:2:0:0:
189,159,79768,6,0,B|201:183|229:191|229:191|201:199|188:217,1,102.000001945496,8|2,3:2|0:0,0:0:0:0:
67,292,80121,2,0,B|44:277|16:284|16:284|36:263|38:240,1,102.000001945496,2|0,3:2|0:0,0:0:0:0:
104,184,80474,2,0,B|124:299|194:316|194:316|208:260|166:263,1,204.000003890991,8|2,3:2|3:2,0:0:0:0:
32,320,81004,1,0,3:2:0:0:
160,252,81180,5,10,3:2:0:0:
260,320,81357,1,8,3:2:0:0:
344,260,81533,1,14,0:0:0:0:
416,316,81709,1,2,3:2:0:0:
416,316,81798,1,0,3:2:0:0:
416,316,81886,5,8,3:2:0:0:
344,260,82063,1,10,0:0:0:0:
260,320,82239,1,10,0:3:0:0:
160,252,82416,1,4,0:3:0:0:
306,191,82592,6,0,P|316:138|260:74,2,120,4|0|10,3:2|3:2|3:2,0:0:0:0:
460,235,83474,1,0,0:0:0:0:
397,168,83651,2,0,P|399:127|393:108,1,60,2|0,3:2|3:2,0:0:0:0:
399,19,84004,1,10,0:0:0:0:
282,84,84181,1,8,3:2:0:0:
397,168,84357,1,10,0:0:0:0:
254,209,84533,2,0,P|286:205|326:209,1,60,2|8,0:0|3:2,0:0:0:0:
397,168,84886,1,2,0:0:0:0:
282,84,85062,2,0,P|213:59|150:94,1,120,2|8,3:2|3:2,0:0:0:0:
68,216,85768,5,0,3:2:0:0:
68,216,86121,2,0,B|53:251|53:251|56:293,1,60,10|0,3:2|0:0,0:0:0:0:
142,365,86474,2,0,B|158:339|158:339|162:277,1,60,2|0,3:2|0:0,0:0:0:0:
68,216,86827,2,0,P|22:180|24:123,1,120,10|10,3:2|0:0,0:0:0:0:
54,41,87357,1,2,0:0:0:0:
137,111,87533,1,10,3:2:0:0:
234,50,87709,1,2,3:2:0:0:
311,125,87886,2,0,P|372:127|427:93,1,120,10|8,0:0|3:2,0:0:0:0:
422,289,88592,5,0,3:2:0:0:
422,289,88945,2,0,L|406:229,1,60,10|0,3:2|0:0,0:0:0:0:
311,125,89298,2,0,L|289:209,1,60,2|0,3:2|3:2,0:0:0:0:
266,325,89651,2,0,P|210:342|159:316,1,120,10|10,3:2|0:0,0:0:0:0:
114,233,90181,1,2,3:2:0:0:
124,130,90357,2,0,P|132:92|135:60,1,60,8|2,3:2|0:0,0:0:0:0:
259,138,90710,2,0,P|260:202|274:260,1,120,2|8,0:0|3:2,0:0:0:0:
336,83,91416,5,0,3:2:0:0:
336,83,91768,2,0,P|372:104|394:106,1,60,10|0,3:2|0:0,0:0:0:0:
512,23,92121,2,0,P|488:6|459:0,1,60,2|0,3:2|3:2,0:0:0:0:
336,83,92474,1,10,3:2:0:0:
377,212,92651,1,0,3:2:0:0:
285,163,92827,1,14,0:0:0:0:
425,124,93004,1,2,3:2:0:0:
211,66,93180,5,8,0:0:0:0:
197,122,93298,5,8,0:0:0:0:
249,107,93415,5,8,0:3:0:0:
131,83,93533,5,10,0:3:0:0:
112,101,93651,5,4,0:3:0:0:
97,120,93768,5,4,0:3:0:0:
82,139,93886,6,0,P|75:207|155:259,1,120,12|0,0:0|3:2,0:0:0:0:
271,290,94592,2,0,P|300:282|327:269,1,60,10|0,3:2|0:0,0:0:0:0:
411,164,94945,2,0,P|440:172|467:185,1,60,2|2,0:0|3:2,0:0:0:0:
512,285,95298,1,10,3:2:0:0:
412,249,95474,1,10,3:2:0:0:
382,346,95651,1,10,3:2:0:0:
319,250,95827,2,0,B|318:218|337:172,1,60,2|8,3:2|3:2,0:0:0:0:
368,99,96180,1,2,0:0:0:0:
246,201,96357,2,0,P|209:201|172:194,1,60,2|0,3:2|3:2,0:0:0:0:
125,63,96709,6,0,P|197:77|222:133,1,120,8|0,3:2|3:2,0:0:0:0:
253,279,97415,2,0,P|309:270|344:277,1,60,10|0,3:2|0:0,0:0:0:0:
478,347,97768,2,0,P|449:355|419:356,1,60,2|0,3:2|0:0,0:0:0:0:
311,270,98121,2,0,P|309:235|314:188,1,60,10|8,3:2|3:2,0:0:0:0:
323,102,98474,1,10,0:0:0:0:
449,230,98651,2,0,B|419:233|386:231,1,60,2|8,0:0|3:2,0:0:0:0:
219,204,99004,1,2,3:2:0:0:
239,333,99180,1,10,0:0:0:0:
138,211,99357,1,0,3:2:0:0:
138,211,99445,1,0,3:2:0:0:
138,211,99533,6,0,P|121:274|109:363,2,120,10|0|8,3:2|3:2|3:2,0:0:0:0:
266,121,100592,2,0,P|283:184|294:271,1,120,2|10,0:0|0:0,0:0:0:0:
216,31,101298,1,10,0:0:0:0:
216,31,101474,2,0,P|174:126|188:182,1,155.999992858887,10|10,0:0|0:3,0:0:0:0:
233,254,102004,1,4,0:3:0:0:
295,127,102180,1,0,0:0:0:0:
400,226,102357,6,0,B|400:183|448:150|448:150|479:191|464:252|464:252|446:292|489:327|489:327|441:347|399:314|399:314|350:345|300:313,1,480,14|0,0:0|0:0,0:0:0:0:
65,104,105180,5,2,0:0:0:0:
137,106,105886,1,2,0:0:0:0:
187,156,106592,1,2,0:0:0:0:
188,227,107298,1,2,0:0:0:0:
282,335,108004,5,2,0:0:0:0:
328,280,108709,1,0,0:0:0:0:
397,261,109415,1,2,0:0:0:0:
467,276,110121,1,2,0:0:0:0:
382,88,110827,5,2,0:0:0:0:
355,155,111533,1,2,0:0:0:0:
302,204,112239,1,2,0:0:0:0:
230,202,112945,1,2,0:0:0:0:
76,76,113651,5,2,0:0:0:0:
116,135,114357,1,2,0:0:0:0:
118,206,115062,1,2,0:0:0:0:
77,265,115768,1,2,0:0:0:0:
221,333,116474,6,0,P|196:286|221:224,1,120,2|2,0:0|0:0,0:0:0:0:
259,163,117180,1,2,0:0:0:0:
329,176,117533,1,2,0:0:0:0:
395,149,117886,2,0,P|388:92|317:69,1,120,2|2,0:0|0:0,0:0:0:0:
271,107,118592,2,0,P|277:164|328:190,1,120,2|2,0:0|0:0,0:0:0:0:
420,278,119298,6,0,P|387:270|276:288,1,120,2|2,0:0|0:0,0:0:0:0:
266,353,120004,2,0,P|228:321|228:252,1,120,2|2,0:0|0:0,0:0:0:0:
284,199,120709,1,2,0:0:0:0:
214,148,121062,1,2,0:0:0:0:
138,100,121415,6,0,P|138:132|115:184,2,60,2|2|2,0:0|0:0|0:0,0:0:0:0:
53,139,121945,1,2,0:0:0:0:
53,139,122121,2,0,P|35:211|71:258,1,120,2|2,0:0|0:0,0:0:0:0:
141,257,122827,1,2,0:0:0:0:
204,191,123180,1,0,0:0:0:0:
284,165,123533,6,0,L|324:156,1,35.9999989013672,2|0,0:0|0:0,0:0:0:0:
424,54,124062,1,8,0:0:0:0:
424,54,124151,1,8,0:0:0:0:
424,54,124239,1,10,0:0:0:0:
319,157,124415,1,10,0:0:0:0:
300,265,124592,1,10,0:3:0:0:
326,351,124768,1,6,0:3:0:0:
236,168,124945,6,0,P|197:132|144:155,1,102.000001945496,12|2,0:0|0:0,0:0:0:0:
0,211,125298,2,0,P|39:247|92:224,1,102.000001945496,2|0,3:2|0:0,0:0:0:0:
127,324,125651,2,0,L|108:93,1,204.000003890991,8|2,3:2|3:2,0:0:0:0:
105,55,126180,1,0,3:2:0:0:
252,250,126357,1,10,3:2:0:0:
226,98,126533,1,8,3:2:0:0:
150,246,126709,2,0,P|146:306|196:343,1,102.000001945496,10|2,3:2|0:0,0:0:0:0:
355,299,127063,2,0,B|318:309|286:278|286:278|247:294|211:277|211:277|226:253|258:249|258:249,1,204.000003890991,8|2,3:2|3:2,0:0:0:0:
409,178,127592,1,0,3:2:0:0:
252,250,127769,6,0,B|241:278|257:306|257:306|297:319|308:374,1,143.999995605469,10|2,3:2|0:0,0:0:0:0:
226,98,128298,1,2,3:2:0:0:
297,134,128474,2,0,B|326:138|350:117|350:117|355:75|406:53,1,143.999995605469,8|2,3:2|3:2,0:0:0:0:
222,238,129004,1,2,0:0:0:0:
181,171,129180,2,0,B|170:142|139:132|139:132|101:149|56:116,1,143.999995605469,8|10,3:2|0:0,0:0:0:0:
0,71,129710,1,0,0:0:0:0:
146,6,129886,5,10,3:2:0:0:
224,71,130063,1,2,0:0:0:0:
255,173,130239,1,10,0:0:0:0:
240,302,130416,1,2,0:0:0:0:
390,71,130592,6,0,B|414:120|414:120|373:166,1,102.000001945496,8|2,3:2|3:2,0:0:0:0:
454,354,130945,2,0,B|429:304|429:304|470:258,1,102.000001945496,2|0,3:2|0:0,0:0:0:0:
512,226,131298,2,0,B|473:199|473:199|426:212|426:212|374:226|374:226|312:194,1,204.000003890991,8|2,3:2|0:0,0:0:0:0:
276,258,131827,1,2,3:2:0:0:
191,170,132004,2,0,B|140:196|152:256|152:256|196:292|176:348,1,204.000003890991,10|10,0:0|0:0,0:0:0:0:
77,333,132533,1,2,0:0:0:0:
276,258,132710,2,0,B|321:250|354:226|354:226|395:248|441:256|441:256|422:271|413:290|413:290,1,215.999993408203,8|2,3:2|3:2,0:0:0:0:
253,372,133239,1,2,0:0:0:0:
146,229,133416,2,0,B|162:197|162:197|146:169|146:169|109:169|109:169|94:199|94:199|110:230|110:230|146:229,1,204.000003890991,8|0,3:2|3:2,0:0:0:0:
423,279,134122,6,0,B|464:240|451:186,1,102.000001945496,10|0,3:2|0:0,0:0:0:0:
308,59,134474,2,0,B|266:97|279:151,1,102.000001945496,2|0,0:0|3:2,0:0:0:0:
320,274,134827,1,8,3:2:0:0:
380,210,135004,1,2,3:2:0:0:
383,116,135180,1,10,0:0:0:0:
300,19,135357,1,0,3:2:0:0:
300,19,135445,1,0,3:2:0:0:
300,19,135533,5,8,0:0:0:0:
383,116,135709,1,8,0:3:0:0:
380,210,135886,1,6,0:3:0:0:
320,274,136063,1,2,0:0:0:0:
215,31,136239,6,0,B|179:40|179:40|145:61|148:97,1,102.000001945496,12|0,0:0|0:0,0:0:0:0:
56,250,136592,2,0,B|80:223|80:223|97:186|74:158,1,102.000001945496,0|0,3:2|0:0,0:0:0:0:
3,77,136945,2,0,B|40:121|108:119|108:119|167:117|203:172,1,204.000003890991,8|2,3:2|3:2,0:0:0:0:
90,19,137475,1,0,0:0:0:0:
124,197,137651,1,10,3:2:0:0:
228,68,137827,1,8,3:2:0:0:
298,216,138004,2,0,P|297:275|254:305,1,102.000001945496,10|2,0:0|0:0,0:0:0:0:
49,231,138357,2,0,B|11:229|4:263|4:263|30:285|64:278|88:266|112:251|129:231|135:201,1,204.000003890991,8|2,3:2|3:2,0:0:0:0:
180,91,138886,1,0,3:2:0:0:
248,359,139062,6,0,B|268:335|255:302|255:302|274:261|319:245,1,143.999995605469,10|2,3:2|3:2,0:0:0:0:
481,189,139592,1,2,3:2:0:0:
398,170,139768,2,0,B|366:167|352:135|352:135|309:120|266:141,1,143.999995605469,8|2,3:2|3:2,0:0:0:0:
111,67,140298,1,2,0:0:0:0:
109,148,140474,2,0,B|123:214|178:228|178:228|187:208|186:182,1,143.999995605469,8|10,3:2|0:0,0:0:0:0:
271,138,141004,1,0,0:0:0:0:
178,314,141180,5,10,3:2:0:0:
247,265,141357,1,2,0:0:0:0:
359,261,141533,1,10,3:2:0:0:
464,337,141710,1,2,3:2:0:0:
447,158,141886,6,0,B|462:135|450:112|450:112|421:112|410:141,1,102.000001945496,8|0,3:2|0:0,0:0:0:0:
313,313,142239,2,0,B|297:335|309:358|309:358|339:359|350:330,1,102.000001945496,2|0,3:2|0:0,0:0:0:0:
336,191,142592,2,0,B|374:265|442:295|442:295|463:260|444:225,1,204.000003890991,8|2,3:2|3:2,0:0:0:0:
308,124,143122,1,0,3:2:0:0:
313,313,143298,5,10,3:2:0:0:
206,383,143475,1,8,3:2:0:0:
127,303,143651,1,14,0:0:0:0:
49,358,143827,1,2,3:2:0:0:
49,358,143916,1,0,3:2:0:0:
49,358,144004,5,8,3:2:0:0:
127,303,144181,1,10,0:0:0:0:
206,383,144357,1,10,0:3:0:0:
313,313,144534,1,4,0:3:0:0:
192,156,144709,6,0,P|178:185|174:225,1,71.9999978027345,4|0,3:2|0:0,0:0:0:0:
313,313,145062,2,0,P|310:281|294:245,1,71.9999978027345,0|0,3:2|0:0,0:0:0:0:
333,87,145415,2,0,B|293:127|249:87|249:91|245:91|245:87|201:47|161:91,1,180.000006866455,10|2,3:2|3:2,0:0:0:0:
400,28,146121,6,0,P|414:57|418:97,1,71.9999978027344,10|0,3:2|3:2,0:0:0:0:
297,238,146474,2,0,P|301:203|316:170,1,71.9999978027345,10|0,0:0|0:0,0:0:0:0:
495,155,146827,2,0,L|299:171,1,180.000006866455,10|2,3:2|3:2,0:0:0:0:
459,301,147533,6,0,P|423:284|357:279,1,71.9999978027344,10|0,3:2|0:0,0:0:0:0:
313,347,147886,2,0,P|273:347|211:325,1,71.9999978027344,2|0,3:2|0:0,0:0:0:0:
208,224,148239,6,0,P|176:210|106:202,1,71.9999978027344,10|0,3:2|0:0,0:0:0:0:
37,306,148592,2,0,P|69:320|108:322,1,71.9999978027344,2|0,3:2|0:0,0:0:0:0:
288,272,148945,6,0,B|277:240|293:188,1,71.9999978027344,10|0,3:2|3:2,0:0:0:0:
318,130,149298,1,2,3:2:0:0:
305,350,149474,2,0,P|264:346|223:326,1,71.9999978027344,2|8,0:0|3:2,0:0:0:0:
436,222,149827,2,0,P|440:278|363:341,1,143.999995605469,2|0,0:0|3:2,0:0:0:0:
187,279,150357,6,0,P|171:323|175:371,1,71.9999978027344,10|0,3:2|0:0,0:0:0:0:
294,276,150709,2,0,P|310:232|306:184,1,71.9999978027344,2|0,3:2|0:0,0:0:0:0:
151,135,151062,2,0,B|201:149|246:118|246:118|290:88|342:104,1,180.000006866455,10|2,3:2|3:2,0:0:0:0:
472,177,151768,6,0,P|432:185|392:161,1,71.9999978027344,10|0,3:2|3:2,0:0:0:0:
325,31,152121,2,0,P|333:71|309:111,1,71.9999978027344,10|0,0:0|0:0,0:0:0:0:
160,206,152474,2,0,B|214:175|234:242|291:240|291:240|324:190,1,180.000006866455,10|2,3:2|3:2,0:0:0:0:
408,49,153180,5,14,0:0:0:0:
408,49,153533,5,10,0:0:0:0:
404,173,153709,1,8,0:0:0:0:
343,266,153885,1,10,0:3:0:0:
276,314,154062,1,4,0:3:0:0:
206,326,154239,5,14,0:0:0:0:
256,192,154415,12,0,155915,0:0:0:0:
256,190,156004,5,4,0:0:0:0:
256,192,156092,12,0,160945,0:0:0:0:
