osu file format v14

[General]
AudioFilename: audio.mp3
AudioLeadIn: 0
PreviewTime: 64592
Countdown: 0
SampleSet: Soft
StackLeniency: 0.3
Mode: 0
LetterboxInBreaks: 0
WidescreenStoryboard: 1

[Editor]
Bookmarks: 104203
DistanceSpacing: 1
BeatDivisor: 2
GridSize: 32
TimelineZoom: 1.8

[Metadata]
Title:GLORIOUS_DAYS(Short)
TitleUnicode:GLORIOUS_DAYS(Short)
Artist:yuiko
ArtistUnicode:yuiko
Creator:Momochikun
Version:Normal
Source:恋×シンアイ彼女
Tags:koi kakeru shinai kanojo glorious days yuikonnu galge visual novel eroge us:track xinely
BeatmapID:926138
BeatmapSetID:429220

[Difficulty]
HPDrainRate:3
CircleSize:3.5
OverallDifficulty:4
ApproachRate:5
SliderMultiplier:1.11
SliderTickRate:1

[Events]
//Background and Video events
0,0,"BG Normal.png",0,0
//Break Periods
//Storyboard Layer 0 (Background)
//Storyboard Layer 1 (Fail)
//Storyboard Layer 2 (Pass)
//Storyboard Layer 3 (Foreground)
//Storyboard Sound Samples

[TimingPoints]
730,359.281437125748,4,2,1,30,1,0
730,-100,4,2,1,30,0,0
11149,-100,4,2,1,40,0,0
11508,-100,4,2,1,40,0,0
11957,-100,4,2,1,5,0,0
13484,-100,4,2,1,50,0,0
13664,-100,4,2,1,90,0,1
13843,-100,4,2,1,90,0,0
25161,-100,4,2,1,60,0,0
36658,-100,4,2,1,80,0,0
47616,-100,4,2,1,50,0,0
47795,-100,4,2,1,80,0,0
48155,-100,4,2,1,70,0,0
59652,-100,4,2,1,80,0,0
65400,-100,4,2,1,90,0,1
75819,-100,4,1,1,90,0,0
76897,-100,4,2,1,90,0,1
88035,-100,4,2,1,90,0,0
88394,-100,4,2,1,90,0,1
88484,-100,4,2,1,90,0,0
99891,-100,4,2,1,90,0,1
99981,-100,4,2,1,50,0,0
101328,-100,4,2,1,35,0,0
102765,-100,4,2,1,20,0,0
103843,-100,4,2,1,5,0,0

[Colours]
Combo1 : 255,157,157
Combo2 : 221,172,149
Combo3 : 255,159,255

[HitObjects]
307,76,730,6,0,P|362:67|419:100,1,111,2|0,0:0|0:0,0:0:0:0:
443,134,1268,2,0,L|424:253,1,111,0|2,0:0|0:0,0:0:0:0:
417,298,1807,1,0,0:0:0:0:
312,261,2167,2,0,P|257:252|200:285,1,111,2|0,0:0|0:0,0:0:0:0:
191,328,2706,2,0,P|136:337|79:304,1,111,0|2,0:0|0:0,0:0:0:0:
40,284,3244,1,0,0:0:0:0:
71,177,3604,6,0,P|94:123|85:70,1,111,2|0,0:0|0:0,0:0:0:0:
60,25,4143,2,0,L|169:56,1,111,0|2,0:0|0:0,0:0:0:0:
205,94,4682,2,0,L|311:63,1,111,0|2,0:0|0:0,0:0:0:0:
392,139,5400,2,0,L|285:169,2,111,0|2|0,0:0|0:0|0:0,0:0:0:0:
500,116,6478,6,0,P|537:173|535:217,1,111,2|0,0:0|0:0,0:0:0:0:
500,256,7017,2,0,P|442:252|381:292,1,111,0|2,0:0|0:0,0:0:0:0:
376,326,7556,1,0,0:0:0:0:
268,354,7915,2,0,B|236:366|236:366|158:352,1,111,2|0,0:0|0:0,0:0:0:0:
106,338,8454,1,2,0:0:0:0:
28,258,8813,2,0,B|8:206|8:206|39:158|101:156,1,166.5,2|2,0:0|0:0,0:0:0:0:
263,195,9891,6,0,P|313:200|378:175,1,111,0|2,0:0|0:0,0:0:0:0:
414,148,10430,2,0,L|389:275,2,111,0|2|2,0:0|0:0|0:0,0:0:0:0:
339,65,11508,1,2,0:0:0:0:
233,97,11867,1,2,0:0:0:0:
41,43,13664,6,0,P|72:90|87:145,1,111,6|10,1:0|0:0,0:0:0:0:
45,179,14203,2,0,P|110:190|152:210,1,111,2|8,0:1|0:0,0:0:0:0:
192,244,14741,1,8,0:2:0:0:
256,153,15101,2,0,L|368:175,1,111,0|8,1:0|0:0,0:0:0:0:
467,216,15819,2,0,P|494:164|493:108,1,111,2|2,1:0|1:0,0:0:0:0:
400,52,16538,6,0,P|345:53|296:79,1,111,2|8,1:0|0:0,0:0:0:0:
251,111,17077,2,0,B|203:128|203:128|149:113|81:109,1,166.5,2|8,0:1|0:0,0:0:0:0:
5,183,17975,2,0,L|25:301,1,111,8|12,0:0|0:0,0:0:0:0:
122,343,18694,2,0,L|142:225,1,111,2|12,1:0|0:0,0:0:0:0:
174,190,19232,5,8,0:0:0:0:
174,190,19412,2,0,P|236:174|282:174,1,111,6|8,1:0|0:0,0:0:0:0:
330,202,19951,2,0,P|344:148|345:93,1,111,2|2,0:1|1:0,0:0:0:0:
323,42,20490,1,0,1:0:0:0:
212,53,20849,2,0,B|156:66|159:36|90:47,2,111,8|8|2,0:0|0:0|1:0,0:0:0:0:
323,42,21927,1,2,1:1:0:0:
417,99,22286,6,0,B|434:140|434:140|420:222,1,111,2|2,1:0|1:0,0:0:0:0:
414,260,22825,2,0,P|343:242|271:298,1,166.5,2|2,0:1|1:0,0:0:0:0:
172,343,23724,2,0,P|115:348|57:312,1,111,8|12,0:0|0:0,0:0:0:0:
16,226,24442,2,0,L|2:169,1,55.5,8|4,0:0|1:3,0:0:0:0:
17,118,24801,1,4,1:3:0:0:
116,68,25161,6,0,P|173:63|231:99,1,111,4|0,0:0|3:0,0:0:0:0:
290,172,25879,2,0,P|347:177|405:141,1,111,0|0,3:0|3:0,0:0:0:0:
494,105,26598,2,0,L|475:236,1,111,0|0,3:0|3:0,0:0:0:0:
424,229,27137,2,0,L|443:360,1,111,0|0,0:0|0:0,0:0:0:0:
398,376,27676,1,0,3:0:0:0:
301,320,28035,6,0,B|264:303|264:303|176:313,1,111,0|0,3:0|3:0,0:0:0:0:
136,216,28753,2,0,B|173:233|173:233|261:223,2,111,0|0|0,3:0|3:0|3:0,0:0:0:0:
36,165,29831,1,0,3:0:0:0:
136,118,30191,2,0,P|161:67|162:6,1,111,0|0,3:0|3:0,0:0:0:0:
272,34,30909,6,0,P|247:85|246:146,1,111,0|0,3:0|3:0,0:0:0:0:
318,221,31628,2,0,P|417:202|442:197,1,111,0|0,3:0|3:0,0:0:0:0:
394,306,32346,2,0,P|339:316|285:326,1,111,0|0,3:0|3:0,0:0:0:0:
236,354,32885,2,0,P|182:331|113:348,1,111,0|0,0:0|0:0,0:0:0:0:
78,354,33424,1,0,3:0:0:0:
29,254,33783,6,0,B|27:212|7:184|7:184|22:128,1,111,0|0,3:0|3:0,0:0:0:0:
80,56,34502,2,0,L|208:78,1,111,0|0,3:0|3:0,0:0:0:0:
270,150,35221,2,0,L|379:131,1,111,0|0,3:0|3:0,0:0:0:0:
433,122,35759,2,0,P|461:177|458:233,1,111,2|8,0:0|0:0,0:0:0:0:
439,276,36298,1,8,0:0:0:0:
337,320,36658,6,0,P|282:319|233:292,1,111,4|8,0:0|0:0,0:0:0:0:
128,258,37376,2,0,P|101:306|100:361,2,111,8|8|10,0:0|0:0|0:0,0:0:0:0:
194,169,38454,1,8,0:0:0:0:
194,169,38634,2,0,L|169:48,1,111,2|8,0:0|0:0,0:0:0:0:
219,31,39173,1,8,0:0:0:0:
328,11,39532,6,0,L|444:42,1,111,8|8,0:0|0:0,0:0:0:0:
474,143,40250,2,0,P|416:171|362:170,1,111,8|8,0:0|0:0,0:0:0:0:
271,227,40969,2,0,P|273:281|299:330,1,111,10|8,0:0|0:0,0:0:0:0:
258,368,41508,2,0,P|209:342|154:339,1,111,2|8,0:0|0:0,0:0:0:0:
99,348,42047,1,8,0:0:0:0:
24,265,42406,6,0,B|13:196|13:196|23:149,1,111,8|8,0:0|0:0,0:0:0:0:
109,87,43125,2,0,L|95:34,2,55.5,10|8|8,0:0|0:0|0:0,0:0:0:0:
211,128,43843,2,0,P|262:135|320:110,1,111,10|8,0:0|0:0,0:0:0:0:
347,67,44382,2,0,P|397:45|452:52,1,111,2|8,0:0|0:0,0:0:0:0:
492,89,44921,1,8,0:0:0:0:
423,174,45280,6,0,P|403:228|397:284,1,111,8|8,0:0|0:0,0:0:0:0:
321,362,45999,1,8,0:0:0:0:
215,329,46358,2,0,B|172:331|144:341|144:341|96:330,1,111,8|8,0:0|0:0,0:0:0:0:
24,257,47077,1,8,0:0:0:0:
62,155,47436,2,0,L|45:101,2,55.5,8|4|4,0:0|1:2|1:3,0:0:0:0:
108,184,47975,5,4,1:3:0:0:
108,184,48155,2,0,P|163:187|222:151,1,111,4|8,0:0|0:0,0:0:0:0:
320,182,48873,2,0,P|358:237|354:294,1,111,8|0,0:0|0:0,0:0:0:0:
275,352,49592,2,0,P|237:297|241:240,1,111,8|8,0:0|0:0,0:0:0:0:
320,182,50310,2,0,L|299:70,1,111,8|0,0:0|0:0,0:0:0:0:
189,58,51029,6,0,L|209:167,2,111,8|8|8,0:0|0:0|0:0,0:0:0:0:
80,33,52107,1,2,0:0:0:0:
52,140,52466,2,0,L|39:193,1,55.5,8|8,0:0|0:0,0:0:0:0:
27,248,52825,2,0,B|93:267|93:267|143:257,1,111,8|8,0:0|0:0,0:0:0:0:
188,246,53364,2,0,P|244:231|312:230,1,111,2|2,0:0|0:0,0:0:0:0:
337,266,53903,5,8,0:0:0:0:
421,194,54262,1,8,0:0:0:0:
376,92,54622,2,0,P|320:77|252:76,1,111,8|0,0:0|0:0,0:0:0:0:
166,120,55340,2,0,L|111:104,2,55.5,8|8|8,0:0|0:0|0:0,0:0:0:0:
233,208,56059,2,0,P|252:261|250:316,1,111,8|2,0:0|0:0,0:0:0:0:
209,354,56598,5,2,0:0:0:0:
209,354,56777,2,0,L|74:335,1,111,8|8,0:0|0:0,0:0:0:0:
30,251,57496,2,0,L|165:232,1,111,8|2,0:0|0:0,0:0:0:0:
225,164,58215,2,0,P|283:143|342:149,1,111,8|8,0:0|0:0,0:0:0:0:
373,181,58753,2,0,P|408:131|406:67,1,111,4|8,0:0|0:0,0:0:0:0:
384,33,59292,2,0,P|351:22|328:19,1,55.5,12|8,0:0|0:0,0:0:0:0:
278,38,59652,6,0,P|214:57|145:52,1,111,4|8,0:0|0:0,0:0:0:0:
120,31,60191,2,0,B|94:72|94:72|110:143,1,111,2|10,0:0|0:0,0:0:0:0:
123,186,60729,1,8,0:0:0:0:
207,258,61089,2,0,B|268:274|264:244|327:259,1,111,8|8,0:0|0:0,0:0:0:0:
418,300,61807,2,0,P|444:252|431:174,1,111,8|8,0:0|0:0,0:0:0:0:
392,97,62526,6,0,L|284:119,1,111,12|8,0:0|0:0,0:0:0:0:
248,162,63065,2,0,L|140:140,1,111,8|8,0:0|0:0,0:0:0:0:
85,124,63604,1,8,0:0:0:0:
85,124,63783,1,12,0:0:0:0:
24,217,64143,2,0,L|38:280,1,55.5,12|12,0:0|0:0,0:0:0:0:
126,336,64682,6,0,L|138:281,1,55.5,2|0,0:0|0:0,0:0:0:0:
171,237,65041,2,0,B|214:222|258:233|258:233|307:213,1,111,0|4,0:0|1:0,0:0:0:0:
382,185,65759,2,0,P|415:237|415:289,2,111,8|8|8,0:0|0:0|0:0,0:0:0:0:
285,128,66837,2,0,P|252:76|252:24,1,111,8|8,0:0|0:0,0:0:0:0:
162,94,67556,2,0,L|52:78,1,111,8|8,0:0|0:0,0:0:0:0:
102,177,68274,6,0,L|118:287,1,111,8|8,0:0|0:0,0:0:0:0:
134,340,68813,2,0,P|204:312|262:319,1,111,2|8,0:0|0:0,0:0:0:0:
292,327,69352,1,8,0:0:0:0:
358,237,69712,2,0,P|302:234|253:210,2,111,8|12|10,0:0|0:0|0:0,0:0:0:0:
399,133,70789,1,12,0:0:0:0:
288,120,71149,6,0,P|232:122|183:146,1,111,10|8,0:0|0:0,0:0:0:0:
157,193,71688,2,0,L|171:69,1,111,2|8,0:0|0:0,0:0:0:0:
148,43,72227,1,8,0:0:0:0:
71,122,72586,2,0,L|58:232,1,111,8|8,0:0|0:0,0:0:0:0:
124,321,73304,1,8,0:0:0:0:
231,292,73664,2,0,P|263:284|288:283,1,55.5,8|2,0:0|0:0,0:0:0:0:
337,301,74023,6,0,P|386:268|409:204,1,111,8|8,0:0|0:0,0:0:0:0:
378,174,74562,2,0,P|322:164|266:126,1,111,2|10,0:0|0:0,0:0:0:0:
248,86,75101,1,8,0:0:0:0:
140,114,75460,2,0,L|118:237,1,111,8|12,0:0|2:0,0:0:0:0:
166,324,76179,6,0,P|218:304|257:305,1,55.5,2|0,0:0|0:0,0:0:0:0:
270,287,76538,2,0,P|320:303|395:310,1,111,2|6,0:0|1:0,0:0:0:0:
467,248,77256,1,8,0:0:0:0:
467,248,77436,2,0,P|451:198|439:121,1,111,2|10,0:0|0:0,0:0:0:0:
479,100,77975,1,8,0:0:0:0:
375,58,78334,2,0,B|336:43|336:43|233:63,1,111,10|8,0:0|0:0,0:0:0:0:
170,109,79053,2,0,B|131:124|131:124|88:105|28:104,2,111,8|8|8,0:0|0:0|0:0,0:0:0:0:
266,165,80131,6,0,P|293:216|297:282,1,111,12|10,0:0|0:0,0:0:0:0:
192,300,80849,2,0,P|165:249|161:183,2,111,12|10|12,0:0|0:0|0:0,0:0:0:0:
282,365,81927,1,10,0:0:0:0:
387,331,82286,2,0,L|506:310,1,111,12|4,0:0|0:0,0:0:0:0:
431,220,83005,5,8,0:0:0:0:
431,220,83185,2,0,L|321:239,1,111,2|10,0:0|0:0,0:0:0:0:
269,257,83724,2,0,L|214:245,1,55.5,8|2,0:0|0:0,0:0:0:0:
161,228,84083,2,0,P|134:181|143:116,1,111,10|8,0:0|0:0,0:0:0:0:
108,79,84622,2,0,P|155:52|220:61,1,111,2|10,0:0|0:0,0:0:0:0:
263,72,85161,1,8,0:0:0:0:
367,33,85520,6,0,L|349:163,1,111,10|8,0:0|0:0,0:0:0:0:
249,186,86238,2,0,L|267:316,1,111,8|8,0:0|0:0,0:0:0:0:
156,324,86957,2,0,L|144:259,2,55.5,8|12|12,0:0|0:0|0:0,0:0:0:0:
50,288,87676,2,0,L|38:223,1,55.5,8|8,0:0|0:0,0:0:0:0:
26,179,88035,1,4,0:0:0:0:
105,101,88394,6,0,P|175:100|234:120,1,111,6|8,1:1|0:0,0:0:0:0:
257,145,88933,2,0,B|316:137|365:163|365:163|404:143|408:105,1,166.5,2|8,0:1|0:0,0:0:0:0:
503,76,89831,1,0,1:0:0:0:
484,185,90191,1,8,0:0:0:0:
467,294,90550,2,0,L|350:276,1,111,2|2,1:0|1:0,0:0:0:0:
266,341,91268,6,0,L|149:323,1,111,2|2,1:1|1:0,0:0:0:0:
101,316,91807,2,0,P|124:260|113:191,1,111,2|2,0:1|1:0,0:0:0:0:
78,174,92346,1,8,0:0:0:0:
107,66,92706,2,0,P|164:61|219:90,1,111,8|12,0:0|0:0,0:0:0:0:
285,166,93424,2,0,P|334:188|389:183,1,111,2|4,1:0|1:2,0:0:0:0:
489,233,94143,6,0,L|507:123,1,111,6|8,1:0|0:0,0:0:0:0:
493,69,94682,2,0,B|443:39|443:39|393:67|332:48,1,166.5,2|8,0:1|0:0,0:0:0:0:
229,25,95580,2,0,P|166:52|131:107,1,111,2|8,1:0|0:0,0:0:0:0:
53,152,96298,2,0,P|102:186|159:190,1,111,2|2,1:0|1:0,0:0:0:0:
250,242,97017,6,0,P|332:222|376:219,1,111,2|2,1:0|1:0,0:0:0:0:
409,197,97556,2,0,P|377:287|370:331,1,111,2|2,0:1|1:0,0:0:0:0:
396,352,98095,1,8,0:0:0:0:
288,379,98454,2,0,P|233:371|179:356,1,111,0|12,1:0|0:0,0:0:0:0:
96,282,99173,2,0,L|81:223,1,55.5,2|4,1:0|1:3,0:0:0:0:
124,191,99532,2,0,L|109:132,1,55.5,2|4,1:0|1:3,0:0:0:0:
67,101,99891,1,6,1:0:0:0:
256,192,100071,12,0,104203,0:0:0:0:
