osu file format v14

[General]
AudioFilename: audio.mp3
AudioLeadIn: 0
PreviewTime: 64592
Countdown: 0
SampleSet: Soft
StackLeniency: 0.3
Mode: 0
LetterboxInBreaks: 0
WidescreenStoryboard: 1

[Editor]
Bookmarks: 104203
DistanceSpacing: 0.4
BeatDivisor: 4
GridSize: 32
TimelineZoom: 1

[Metadata]
Title:GLORIOUS_DAYS(Short)
TitleUnicode:GLORIOUS_DAYS(Short)
Artist:yuiko
ArtistUnicode:yuiko
Creator:Momochikun
Version:Insane
Source:恋×シンアイ彼女
Tags:koi kakeru shinai kanojo glorious days yuikonnu galge visual novel eroge us:track xinely
BeatmapID:926137
BeatmapSetID:429220

[Difficulty]
HPDrainRate:7
CircleSize:4
OverallDifficulty:7
ApproachRate:8.8
SliderMultiplier:1.53
SliderTickRate:1

[Events]
//Background and Video events
0,0,"BG Insane.png",0,0
//Break Periods
//Storyboard Layer 0 (Background)
//Storyboard Layer 1 (Fail)
//Storyboard Layer 2 (Pass)
//Storyboard Layer 3 (Foreground)
//Storyboard Sound Samples

[TimingPoints]
730,359.281437125748,4,2,1,30,1,0
730,-125,4,2,1,30,0,0
11149,-125,4,2,1,40,0,0
11508,-125,4,2,1,40,0,0
11957,-125,4,2,1,5,0,0
13484,-100,4,2,1,50,0,0
13664,-100,4,2,1,90,0,1
13843,-100,4,2,1,90,0,0
25161,-105.263157894737,4,2,1,60,0,0
36658,-100,4,2,1,80,0,0
47616,-100,4,2,1,50,0,0
47795,-100,4,2,1,80,0,0
48155,-111.111111111111,4,2,1,70,0,0
59652,-100,4,2,1,80,0,0
64682,-117.647058823529,4,2,1,80,0,0
65400,-100,4,2,1,90,0,1
75819,-83.3333333333333,4,1,1,90,0,0
76897,-100,4,2,1,90,0,1
88035,-100,4,2,1,90,0,0
88394,-100,4,2,1,90,0,1
88484,-100,4,2,1,90,0,0
99891,-100,4,2,1,90,0,1
99981,-100,4,2,1,50,0,0
101328,-100,4,2,1,35,0,0
102765,-100,4,2,1,20,0,0
103843,-100,4,2,1,5,0,0

[Colours]
Combo1 : 255,157,157
Combo2 : 221,172,149
Combo3 : 255,159,255

[HitObjects]
372,199,730,6,0,P|378:139|341:93,1,122.4,2|0,0:0|0:0,0:0:0:0:
140,185,1268,2,0,P|134:245|171:291,1,122.4,0|2,0:0|0:0,0:0:0:0:
259,354,1807,1,0,0:0:0:0:
125,304,2167,6,0,L|244:335,1,122.4,2|0,0:0|0:0,0:0:0:0:
368,235,2706,2,0,B|330:234|300:248|300:248|269:236|255:214,1,122.4,0|2,0:0|0:0,0:0:0:0:
443,150,3244,1,0,0:0:0:0:
275,107,3604,6,0,B|245:142|245:142|260:237,1,122.4,2|0,0:0|0:0,0:0:0:0:
256,217,4143,2,0,P|207:206|138:257,1,122.4,0|2,0:0|0:0,0:0:0:0:
200,372,4682,2,0,P|197:336|184:307,1,61.2
78,284,5041,1,2,0:0:0:0:
256,32,5400,5,0,0:0:0:0:
304,102,5759,1,2,0:0:0:0:
386,76,6119,1,0,0:0:0:0:
440,141,6478,6,0,B|424:182|424:182|452:213|435:273,1,122.4,2|0,0:0|0:0,0:0:0:0:
367,309,7017,1,0,0:0:0:0:
315,74,7376,1,2,0:0:0:0:
300,172,7556,2,0,P|242:196|168:197,2,122.4,0|2|0,0:0|0:0|0:0,0:0:0:0:
391,123,8454,6,0,P|425:111|457:107,1,61.2,2|0,0:0|0:0,0:0:0:0:
300,172,8813,2,0,L|315:46,1,122.4,2|0,0:0|0:0,0:0:0:0:
408,22,9352,5,2,0:0:0:0:
192,147,9712,1,0,0:0:0:0:
149,240,9891,2,0,P|209:244|265:212,1,122.4,0|2,0:0|0:0,0:0:0:0:
277,68,10430,2,0,P|223:94|191:146,1,122.4,0|2,0:0|0:0,0:0:0:0:
149,240,11149,5,2,0:0:0:0:
205,313,11508,1,2,0:0:0:0:
256,192,11867,1,2,0:0:0:0:
256,192,11957,12,0,13304,0:0:0:0:
466,98,13484,5,8,0:0:0:0:
455,109,13574,1,8,0:0:0:0:
444,120,13664,2,2,P|375:142|295:144,1,153,6|10,1:0|0:0,1:0:0:0:
151,81,14203,1,2,0:1:0:0:
136,85,14292,1,8,0:0:0:0:
121,90,14382,1,8,0:0:0:0:
246,21,14562,1,8,0:0:0:0:
194,181,14741,2,2,P|203:223|210:256,1,76.5,8|2,0:2|0:1,0:1:0:0:
333,343,15101,6,0,P|350:311|344:263,1,76.5,0|2,1:0|0:1,0:0:0:0:
290,125,15460,1,8,0:0:0:0:
193,181,15640,1,0,0:0:0:0:
326,238,15819,2,0,P|369:228|400:222,1,76.5,2|8,1:0|0:0,0:0:0:0:
213,83,16179,2,0,P|170:93|139:99,1,76.5,2|0,1:0|0:0,0:0:0:0:
44,300,16538,6,0,P|117:310|180:251,1,153,2|8,1:0|0:0,0:0:0:0:
95,130,17077,1,2,0:1:0:0:
87,143,17167,1,8,0:0:0:0:
80,156,17256,2,0,P|76:197|97:232,1,76.5,8|8,0:0|0:0,0:0:0:0:
251,297,17616,1,8,0:0:0:0:
211,175,17795,5,2,0:1:0:0:
211,175,17885,1,0,0:0:0:0:
211,175,17975,1,8,0:0:0:0:
300,154,18155,1,2,1:0:0:0:
389,133,18334,2,0,P|375:190|368:223,1,76.5,12|0,0:0|0:0,0:0:0:0:
348,315,18694,1,2,1:0:0:0:
472,253,18873,1,8,0:0:0:0:
290,123,19053,1,12,0:0:0:0:
241,255,19232,5,8,0:0:0:0:
233,268,19322,1,8,0:0:0:0:
223,279,19412,2,0,P|237:336|244:369,1,76.5,6|0,1:0|0:0,0:0:0:0:
348,315,19771,1,8,0:0:0:0:
179,187,19951,2,2,B|138:185|91:210|91:210|55:197|43:168,1,153,2|2,0:1|1:0,0:1:0:0:
157,54,20490,1,0,1:0:0:0:
287,158,20670,1,2,0:1:0:0:
195,258,20849,6,0,P|177:225|178:185,1,76.5,8|2,0:0|0:1,0:0:0:0:
242,83,21209,1,8,0:0:0:0:
355,202,21388,1,0,0:0:0:0:
365,212,21478,1,8,0:0:0:0:
376,222,21568,2,0,L|295:205,1,76.5,2|8,1:0|0:0,0:0:0:0:
139,312,21927,2,2,L|58:295,1,76.5,2|0,1:1|0:1,0:1:0:0:
224,154,22286,6,2,P|265:204|263:293,1,153,2|2,1:0|1:0,1:0:0:0:
69,338,22825,2,2,P|107:316|140:312,1,76.5,2|2,0:1|1:0,0:1:0:0:
259,376,23185,1,0,1:0:0:0:
199,236,23364,1,2,1:0:0:0:
138,311,23544,1,2,0:1:0:0:
280,367,23724,5,8,0:0:0:0:
329,189,23903,1,2,1:0:0:0:
170,134,24083,2,0,P|118:148|90:155,1,76.5,12|8,0:0|0:0,0:0:0:0:
85,164,24352,1,8,0:0:0:0:
74,175,24442,1,8,0:0:0:0:
150,236,24622,5,4,1:3:0:0:
256,64,24801,1,4,1:3:0:0:
170,134,24981,1,0,0:0:0:0:
256,192,25161,6,0,P|326:196|390:150,1,145.349996118736,4|0,0:0|3:0,0:0:0:0:
457,230,25700,1,0,0:0:0:0:
374,301,25879,2,0,P|338:294|302:287,1,72.6749980593682,0|0,3:0|0:0,0:0:0:0:
184,205,26238,2,0,P|219:197|255:191,1,72.6749980593682,0|0,3:0|0:0,0:0:0:0:
140,117,26598,6,0,P|105:152|93:250,1,145.349996118736,0|0,3:0|3:0,0:0:0:0:
229,98,27137,2,0,P|222:58|207:30,1,72.6749980593682,0|0,0:0|3:0,0:0:0:0:
106,16,27496,1,0,0:0:0:0:
28,81,27676,2,0,P|35:121|50:149,1,72.6749980593682,0|0,3:0|0:0,0:0:0:0:
212,186,28035,5,0,3:0:0:0:
140,117,28215,1,0,0:0:0:0:
117,237,28394,2,0,P|104:283|97:313,1,72.6749980593682,0|0,3:0|0:0,0:0:0:0:
208,371,28753,2,0,P|322:323|373:332,1,145.349996118736,0|0,3:0|3:0,0:0:0:0:
398,218,29292,1,0,0:0:0:0:
203,233,29472,6,0,P|133:215|80:150,1,145.349996118736,0|0,3:0|3:0,0:0:0:0:
147,22,30011,2,0,P|164:62|170:97,1,72.6749980593682,0|0,0:0|3:0,0:0:0:0:
85,162,30370,1,0,0:0:0:0:
300,122,30550,1,0,3:0:0:0:
284,200,30729,1,0,0:0:0:0:
269,278,30909,6,0,P|368:259|414:250,1,145.349996118736,0|0,3:0|3:0,0:0:0:0:
400,17,31628,2,0,P|386:65|380:91,1,72.6749980593682,0|0,3:0|0:0,0:0:0:0:
300,122,31987,2,0,B|240:162|218:121|156:163,1,145.349996118736,0|0,3:0|3:0,0:0:0:0:
76,175,32526,5,0,0:0:0:0:
37,96,32706,1,0,3:0:0:0:
162,159,32885,2,0,P|193:216|195:298,1,145.349996118736
316,191,33424,2,0,P|301:155|301:111,1,72.6749980593682,0|0,3:0|0:0,0:0:0:0:
374,290,33783,5,0,3:0:0:0:
414,154,33963,1,0,0:0:0:0:
274,273,34143,2,0,B|227:287|227:287|184:264|131:274,2,145.349996118736,0|0|0,3:0|3:0|3:0,0:0:0:0:
374,290,35041,1,0,0:0:0:0:
212,182,35221,6,0,P|171:166|125:166,1,72.6749980593682,0|0,3:0|0:0,0:0:0:0:
65,227,35580,1,0,3:0:0:0:
198,92,35759,2,0,P|212:50|207:10,1,72.6749980593682,2|0,0:0|3:0,0:0:0:0:
65,227,36119,5,8,0:0:0:0:
276,140,36298,1,8,0:0:0:0:
198,92,36478,1,0,0:0:0:0:
299,312,36658,6,0,B|348:309|390:332|390:332|424:317|446:290,1,153,4|8,0:0|0:0,0:0:0:0:
276,140,37197,1,2,0:0:0:0:
201,201,37376,2,0,L|216:279,1,76.5,8|8,0:0|0:0,0:0:0:0:
321,222,37735,1,8,0:0:0:0:
353,89,37915,1,0,0:0:0:0:
201,201,38095,6,0,P|129:210|66:154,1,153,10|8,0:0|0:0,0:0:0:0:
133,53,38634,2,0,P|152:91|153:127,1,76.5,2|0,0:0|0:0,0:0:0:0:
19,238,38993,1,8,0:0:0:0:
201,201,39173,1,8,0:0:0:0:
124,271,39352,1,2,0:0:0:0:
234,307,39532,6,0,L|308:291,1,76.5,8|2,0:0|0:0,0:0:0:0:
410,268,39891,1,8,0:0:0:0:
384,360,40071,1,2,0:0:0:0:
282,199,40250,1,8,0:0:0:0:
308,290,40430,1,10,0:0:0:0:
431,170,40610,2,0,P|430:135|408:100,1,76.5,8|0,0:0|0:0,0:0:0:0:
256,32,40969,6,0,P|181:35|118:80,1,153,10|8,0:0|0:0,0:0:0:0:
199,236,41508,2,0,P|198:198|181:165,1,76.5,2|0,0:0|0:0,0:0:0:0:
45,201,41867,2,0,P|78:218|116:220,1,76.5,8|8,0:0|0:0,0:0:0:0:
273,178,42227,1,2,0:0:0:0:
152,85,42406,6,0,P|119:102|98:134,1,76.5,8|0,0:0|0:0,0:0:0:0:
163,299,42765,1,8,0:0:0:0:
259,322,42945,1,0,0:0:0:0:
340,265,43125,2,0,L|326:185,1,76.5,10|8,0:0|0:0,0:0:0:0:
459,136,43484,2,0,L|445:211,1,76.5,8|0,0:0|0:0,0:0:0:0:
250,238,43843,5,10,0:0:0:0:
278,116,44023,2,0,P|313:99|361:101,1,76.5,0|8,0:0|0:0,0:0:0:0:
326,189,44382,1,2,0:0:0:0:
193,119,44562,1,0,0:0:0:0:
267,23,44741,1,8,0:0:0:0:
197,210,44921,2,0,P|188:246|180:286,1,76.5,8|2,0:0|0:0,0:0:0:0:
165,380,45280,5,8,0:0:0:0:
82,304,45460,1,2,0:0:0:0:
276,349,45640,2,0,B|333:334|333:334|362:346|362:346|428:330,1,153,8|8,0:0|0:0,0:0:0:0:
328,245,46179,1,8,0:0:0:0:
165,380,46358,1,8,0:0:0:0:
276,349,46538,1,2,0:0:0:0:
143,225,46718,6,0,P|140:186|157:148,1,76.5,8|0,0:0|0:0,0:0:0:0:
224,32,47077,1,8,0:0:0:0:
88,101,47256,1,2,0:0:0:0:
74,105,47346,1,8,0:0:0:0:
60,109,47436,1,8,0:0:0:0:
246,181,47616,5,4,1:2:0:0:
317,21,47795,1,4,1:3:0:0:
114,94,47975,1,4,1:3:0:0:
332,228,48155,6,0,P|374:219|403:214,1,68.8499978988648,12|2,0:0|0:0,0:0:0:0:
246,181,48514,1,8,0:0:0:0:
259,290,48694,1,2,0:0:0:0:
317,133,48873,2,0,P|372:94|454:107,1,137.69999579773,8|0,0:0|0:0,0:0:0:0:
397,177,49412,1,2,0:0:0:0:
228,101,49592,5,8,0:0:0:0:
246,181,49771,1,8,0:0:0:0:
269,260,49951,2,0,B|223:269|185:247|185:247|155:255|136:286,2,137.69999579773,8|8|0,0:0|0:0|0:0,0:0:0:0:
356,297,50849,1,2,0:0:0:0:
399,212,51029,6,0,P|444:201|478:195,1,68.8499978988648,8|0,0:0|0:0,0:0:0:0:
413,115,51388,2,0,P|348:106|264:89,1,137.69999579773,8|8,0:0|0:0,0:0:0:0:
75,126,52107,1,2,0:0:0:0:
171,180,52286,1,0,0:0:0:0:
131,71,52466,6,0,P|98:53|65:50,1,68.8499978988648,8|8,0:0|0:0,0:0:0:0:
128,248,52825,2,0,P|183:255|251:192,1,137.69999579773,8|8,0:0|0:0,0:0:0:0:
171,180,53364,2,0,P|183:257|233:310,1,137.69999579773,2|2,0:0|0:0,0:0:0:0:
319,356,53903,5,8,0:0:0:0:
406,330,54083,1,2,0:0:0:0:
340,266,54262,1,8,0:0:0:0:
302,378,54442,1,2,0:0:0:0:
431,240,54622,2,0,B|450:143|450:143|428:82,1,137.69999579773,8|2,0:0|0:0,0:0:0:0:
379,32,55161,1,2,0:0:0:0:
233,109,55340,6,0,P|266:95|302:86,1,68.8499978988648,8|8,0:0|0:0,0:0:0:0:
147,251,55700,2,0,P|201:233|288:223,1,137.69999579773,8|8,0:0|0:0,0:0:0:0:
0,288,56418,1,2,0:0:0:0:
57,203,56598,1,2,0:0:0:0:
147,251,56777,6,0,P|185:205|172:131,1,137.69999579773,8|8,0:0|0:0,0:0:0:0:
90,84,57316,1,2,0:0:0:0:
90,84,57496,2,0,L|245:123,1,137.69999579773,8|2,0:0|0:0,0:0:0:0:
313,168,58035,5,8,3:2:0:0:
313,168,58215,2,0,L|380:152,1,68.8499978988648,8|8,0:0|0:0,0:0:0:0:
479,127,58574,1,8,0:0:0:0:
256,64,58753,5,4,0:0:0:0:
313,168,58933,1,8,0:0:0:0:
364,13,59113,1,8,0:0:0:0:
220,159,59292,1,12,0:0:0:0:
223,179,59382,1,8,0:0:0:0:
226,195,59472,1,8,0:0:0:0:
395,384,59652,6,0,P|443:335|433:242,1,153,4|8,0:0|0:0,0:0:0:0:
337,98,60191,2,0,P|316:131|312:170,1,76.5,2|8,0:0|0:0,0:0:0:0:
311,167,60550,1,10,0:0:0:0:
478,33,60729,2,0,L|395:53,1,76.5,8|2,0:0|0:0,0:0:0:0:
227,129,61089,5,8,0:0:0:0:
130,104,61268,1,2,0:0:0:0:
256,32,61448,1,8,0:0:0:0:
323,200,61628,2,0,B|377:223|428:202|428:202|460:151,1,153,2|8,0:0|0:0,0:0:0:0:
231,226,62167,1,8,0:0:0:0:
301,285,62346,1,2,0:0:0:0:
346,109,62526,5,12,0:0:0:0:
323,200,62706,1,8,0:0:0:0:
157,148,62885,1,8,0:0:0:0:
294,15,63065,5,8,0:0:0:0:
252,129,63244,1,8,0:0:0:0:
66,171,63424,1,8,0:0:0:0:
192,60,63604,5,8,0:0:0:0:
100,319,63783,1,12,0:0:0:0:
363,230,64143,5,12,0:0:0:0:
78,328,64322,1,12,0:0:0:0:
436,345,64682,5,2,0:0:0:0:
363,230,64861,1,0,0:0:0:0:
270,256,65041,2,0,P|230:218|236:135,1,130.050002480507,0|4,0:0|1:0,0:0:0:0:
296,59,65580,5,2,0:0:0:0:
178,219,65759,2,0,P|140:214|107:193,1,76.5,8|2,0:0|0:0,0:0:0:0:
100,181,66029,1,8,0:0:0:0:
91,167,66119,1,8,0:0:0:0:
158,85,66298,1,10,0:0:0:0:
296,59,66478,2,0,P|314:92|315:130,1,76.5,8|2,0:0|0:0,0:0:0:0:
191,254,66837,6,0,P|224:235|262:234,1,76.5,8|2,0:0|0:0,0:0:0:0:
364,294,67197,1,8,0:0:0:0:
211,358,67376,2,0,L|124:342,1,76.5,2|8,0:0|0:0,0:0:0:0:
27,355,67735,1,8,0:0:0:0:
191,254,67915,1,8,0:0:0:0:
135,344,68095,1,2,0:0:0:0:
92,211,68274,6,0,P|100:173|108:136,1,76.5,8|0,0:0|0:0,0:0:0:0:
47,54,68634,1,8,0:0:0:0:
255,22,68813,2,0,P|247:59|239:96,1,76.5,2|8,0:0|0:0,0:0:0:0:
142,145,69173,1,8,0:0:0:0:
308,180,69352,1,8,0:0:0:0:
252,261,69532,2,0,L|264:304,2,38.25,2|0|8,0:0|0:0|0:0,0:0:0:0:
253,109,69891,5,8,0:0:0:0:
367,248,70071,1,12,0:0:0:0:
175,310,70250,2,0,L|130:298,2,38.25,2|0|8,0:0|0:0|0:0,0:0:0:0:
298,365,70610,1,8,0:0:0:0:
367,248,70789,2,0,P|382:215|381:174,1,76.5,12|0,0:0|0:0,0:0:0:0:
364,142,71059,5,8,0:0:0:0:
364,142,71149,2,0,B|412:123|412:123|452:157|513:133,1,153,10|8,0:0|0:0,0:0:0:0:
407,25,71688,1,2,0:0:0:0:
289,92,71867,2,0,P|273:126|274:176,1,76.5,8|8,0:0|0:0,0:0:0:0:
155,269,72227,2,0,P|171:235|170:185,1,76.5,8|2,0:0|0:0,0:0:0:0:
157,72,72586,6,0,P|107:63|77:58,1,76.5,8|2,0:0|0:0,0:0:0:0:
99,150,72945,1,8,0:0:0:0:
251,102,73125,1,2,0:0:0:0:
251,102,73215,1,8,0:0:0:0:
251,102,73304,2,0,L|225:8,1,76.5,8|8,0:0|0:0,0:0:0:0:
99,150,73664,1,8,0:0:0:0:
187,219,73843,1,2,0:0:0:0:
343,115,74023,6,0,P|436:80|497:76,1,153,8|8,0:0|0:0,0:0:0:0:
432,191,74562,1,2,0:0:0:0:
240,148,74741,1,8,0:0:0:0:
343,115,74921,1,10,0:0:0:0:
340,266,75101,1,8,0:0:0:0:
512,227,75280,1,2,0:0:0:0:
343,115,75460,5,8,0:0:0:0:
446,303,75640,1,10,0:0:0:0:
183,208,75819,2,0,B|150:221|123:214|123:214|104:225|104:225|74:219|38:241,1,137.69999579773,12|0,2:0|2:0,0:0:0:0:
12,254,76179,5,2,0:0:0:0:
32,223,76268,1,0,0:0:0:0:
39,187,76358,1,0,0:0:0:0:
36,150,76448,1,0,0:0:0:0:
28,114,76538,2,0,L|15:63,1,45.8999985992432,2|0,0:0|0:0,0:0:0:0:
140,4,76718,2,0,L|128:48,1,45.8999985992432
178,152,76897,6,0,P|231:157|290:115,1,114.75,6|0,1:0|0:0,0:0:0:0:
351,98,77256,2,0,L|428:113,1,76.5,10|0,0:0|0:0,0:0:0:0:
459,134,77526,1,8,0:0:0:0:
459,134,77616,2,0,P|442:179|434:210,1,76.5,8|10,0:0|0:0,0:0:0:0:
324,184,77975,1,8,0:0:0:0:
507,272,78155,1,0,0:0:0:0:
428,340,78334,6,0,B|375:336|344:358|344:358|296:341|287:308,1,153,10|8,0:0|0:0,0:0:0:0:
220,242,78873,1,0,0:0:0:0:
205,248,78963,1,8,0:0:0:0:
190,254,79053,1,8,0:0:0:0:
222,384,79232,1,10,0:0:0:0:
62,278,79412,2,0,P|72:234|80:202,1,76.5,8|2,0:0|0:0,0:0:0:0:
169,101,79771,5,8,0:0:0:0:
3,173,79951,1,10,0:0:0:0:
250,282,80131,2,0,P|303:284|362:235,1,114.75,12|0,0:0|0:0,0:0:0:0:
374,223,80491,5,10,0:0:0:0:
273,127,80670,1,8,0:0:0:0:
211,355,80849,2,0,P|177:319|179:232,1,114.75,12|0,0:0|0:0,0:0:0:0:
182,228,81209,5,10,0:0:0:0:
273,127,81388,1,8,0:0:0:0:
130,319,81568,2,0,P|77:316|22:262,1,114.75,12|0,0:0|0:0,0:0:0:0:
18,247,81927,5,10,0:0:0:0:
213,357,82107,1,8,0:0:0:0:
256,128,82286,1,12,0:0:0:0:
144,67,82466,5,0,0:0:0:0:
130,74,82556,1,8,0:0:0:0:
117,83,82646,2,0,P|61:135|51:213,1,153,4|8,0:0|0:0,0:0:0:0:
116,379,83185,2,0,L|126:342,1,38.25,2|8,0:0|0:0,0:0:0:0:
130,313,83364,2,0,L|203:292,1,76.5,8|10,0:0|0:0,0:0:0:0:
313,259,83724,1,8,0:0:0:0:
225,163,83903,1,2,0:0:0:0:
376,308,84083,6,0,P|390:274|385:228,1,76.5,10|0,0:0|0:0,0:0:0:0:
322,89,84442,1,8,0:0:0:0:
225,163,84622,1,2,0:0:0:0:
361,194,84801,2,0,P|402:186|447:176,1,76.5,8|10,0:0|0:0,0:0:0:0:
246,75,85161,2,0,P|205:83|160:93,1,76.5,8|2,0:0|0:0,0:0:0:0:
17,300,85520,6,0,B|67:293|108:314|108:314|120:278|148:262,1,153,10|8,0:0|0:0,0:0:0:0:
256,128,86059,1,2,0:0:0:0:
270,124,86149,1,8,0:0:0:0:
284,120,86238,1,8,0:0:0:0:
236,283,86418,1,8,0:0:0:0:
327,208,86598,1,8,0:0:0:0:
141,164,86777,1,2,0:0:0:0:
236,283,86957,5,8,0:0:0:0:
405,234,87137,1,12,0:0:0:0:
206,109,87316,1,12,0:0:0:0:
349,324,87496,1,8,0:0:0:0:
378,143,87676,5,8,0:0:0:0:
404,115,87765,1,8,0:0:0:0:
439,100,87855,1,8,0:0:0:0:
477,99,87945,1,8,0:0:0:0:
510,116,88035,2,0,P|495:179|485:238,1,114.75,12|0,0:0|0:0,0:0:0:0:
452,308,88394,6,2,B|392:272|374:326|304:282,1,153,6|8,1:1|0:0,0:1:0:0:
205,176,88933,1,2,0:1:0:0:
194,165,89023,1,8,0:0:0:0:
183,154,89113,2,0,P|143:157|111:176,1,76.5,8|8,0:0|0:0,0:0:0:0:
39,250,89472,1,8,0:0:0:0:
140,277,89652,1,2,0:1:0:0:
267,120,89831,6,0,P|280:85|275:34,1,76.5,0|2,1:0|0:1,0:0:0:0:
163,27,90191,1,8,0:0:0:0:
183,154,90370,1,0,0:0:0:0:
328,203,90550,2,0,L|407:189,1,76.5,2|8,1:0|0:0,0:0:0:0:
205,286,90909,2,0,L|129:272,1,76.5,2|0,1:0|0:0,0:0:0:0:
363,320,91268,6,2,P|408:272|398:181,1,153,2|2,1:1|1:0,0:1:0:0:
318,45,91807,2,0,P|299:81|302:124,1,76.5,2|8,0:1|0:0,0:0:0:0:
453,280,92167,1,2,1:0:0:0:
377,155,92346,1,8,0:0:0:0:
508,204,92526,1,2,0:1:0:0:
367,244,92706,5,8,0:0:0:0:
465,133,92886,1,2,1:0:0:0:
288,210,93066,2,0,P|250:205|219:177,1,76.5,12|0,0:0|0:0,0:0:0:0:
256,64,93424,1,2,1:0:0:0:
288,210,93604,1,0,1:0:0:0:
119,198,93783,2,0,P|113:160|133:122,1,76.5,4|0,1:2|0:0,0:0:0:0:
143,93,94053,5,8,0:0:0:0:
143,93,94143,2,0,L|66:111,1,76.5,6|0,1:0|0:0,0:0:0:0:
3,209,94502,1,8,0:0:0:0:
259,274,94682,2,2,P|328:268|414:222,1,153,2|2,0:1|1:1,0:1:0:0:
379,128,95221,1,8,0:0:0:0:
308,178,95400,1,2,0:1:0:0:
426,329,95580,5,2,1:0:0:0:
402,232,95759,1,2,0:1:0:0:
503,276,95939,1,8,0:0:0:0:
308,178,96119,2,0,L|258:189,1,38.25,0|8,0:0|0:0,0:0:0:0:
202,245,96298,2,0,P|189:290|183:323,1,76.5,2|0,1:0|0:0,0:0:0:0:
21,359,96658,2,0,P|34:314|40:281,1,76.5,2|0,1:0|0:0,0:0:0:0:
107,112,97017,6,2,B|148:99|148:99|172:107|172:107|209:86|257:91,1,153,2|2,1:0|1:0,0:0:0:0:
357,146,97556,2,2,P|395:136|438:130,1,76.5,2|2,0:1|1:0,0:0:0:0:
269,206,97915,1,2,1:0:0:0:
331,73,98095,2,0,P|345:31|340:0,1,76.5,8|2,0:0|0:1,0:0:0:0:
269,206,98454,5,0,1:0:0:0:
357,146,98634,1,8,0:0:0:0:
180,42,98813,1,12,0:0:0:0:
104,239,98993,1,0,0:0:0:0:
98,253,99083,1,8,0:0:0:0:
92,267,99173,1,2,1:0:0:0:
269,206,99352,5,4,1:3:0:0:
170,138,99532,1,2,1:0:0:0:
218,295,99712,1,4,1:3:0:0:
408,63,99891,1,6,1:0:0:0:
256,192,99981,12,0,104203,0:0:0:0:
