osu file format v14

[General]
AudioFilename: audio.mp3
AudioLeadIn: 0
PreviewTime: 64592
Countdown: 0
SampleSet: Soft
StackLeniency: 0.3
Mode: 0
LetterboxInBreaks: 0
WidescreenStoryboard: 1

[Editor]
Bookmarks: 104203
DistanceSpacing: 1.3
BeatDivisor: 4
GridSize: 32
TimelineZoom: 1.8

[Metadata]
Title:GLORIOUS_DAYS(Short)
TitleUnicode:GLORIOUS_DAYS(Short)
Artist:yuiko
ArtistUnicode:yuiko
Creator:Momochikun
Version:Hard
Source:恋×シンアイ彼女
Tags:koi kakeru shinai kanojo glorious days yuikonnu galge visual novel eroge us:track xinely
BeatmapID:926136
BeatmapSetID:429220

[Difficulty]
HPDrainRate:5.5
CircleSize:4
OverallDifficulty:6
ApproachRate:7.4
SliderMultiplier:1.41
SliderTickRate:1

[Events]
//Background and Video events
0,0,"BG Hard.png",0,0
//Break Periods
//Storyboard Layer 0 (Background)
//Storyboard Layer 1 (Fail)
//Storyboard Layer 2 (Pass)
//Storyboard Layer 3 (Foreground)
//Storyboard Sound Samples

[TimingPoints]
730,359.281437125748,4,2,1,30,1,0
730,-111.111111111111,4,2,1,30,0,0
11149,-111.111111111111,4,2,1,40,0,0
11508,-111.111111111111,4,2,1,40,0,0
11957,-111.111111111111,4,2,1,5,0,0
13484,-100,4,2,1,50,0,0
13664,-100,4,2,1,90,0,1
13843,-100,4,2,1,90,0,0
25161,-105.263157894737,4,2,1,60,0,0
36658,-100,4,2,1,80,0,0
47616,-100,4,2,1,50,0,0
47795,-100,4,2,1,80,0,0
48155,-105.263157894737,4,2,1,70,0,0
59652,-100,4,2,1,80,0,0
65400,-100,4,2,1,90,0,1
75819,-100,4,1,1,90,0,0
76897,-100,4,2,1,90,0,1
88035,-100,4,2,1,90,0,0
88394,-100,4,2,1,90,0,1
88484,-100,4,2,1,90,0,0
99891,-100,4,2,1,90,0,1
99981,-100,4,2,1,50,0,0
101328,-100,4,2,1,35,0,0
102765,-100,4,2,1,20,0,0
103843,-100,4,2,1,5,0,0

[Colours]
Combo1 : 255,157,157
Combo2 : 221,172,149
Combo3 : 255,159,255

[HitObjects]
256,224,730,6,0,P|193:244|124:241,1,126.899996127319,2|0,0:0|0:0,0:0:0:0:
187,146,1268,2,0,P|250:126|319:129,1,126.899996127319,0|2,0:0|0:0,0:0:0:0:
375,187,1807,1,0,0:0:0:0:
375,187,2167,2,0,B|353:147|353:147|369:50,1,126.899996127319,2|0,0:0|0:0,0:0:0:0:
447,25,2706,1,0,0:0:0:0:
283,93,3065,1,2,0:0:0:0:
203,54,3244,6,0,L|75:34,2,126.899996127319,0|2|0,0:0|0:0|0:0,0:0:0:0:
283,93,4143,2,0,P|345:94|397:59,1,126.899996127319,0|2,0:0|0:0,0:0:0:0:
474,89,4682,1,0,0:0:0:0:
396,234,5041,2,0,P|335:249|286:289,1,126.899996127319,2|0,0:0|0:0,0:0:0:0:
179,338,5759,1,2,0:0:0:0:
96,257,6119,1,0,0:0:0:0:
96,257,6478,6,0,P|55:243|32:240,1,63.4499980636597,2|0,0:0|0:0,0:0:0:0:
4,156,6837,1,0,0:0:0:0:
91,171,7017,2,0,P|152:164|213:124,1,126.899996127319,0|2,0:0|0:0,0:0:0:0:
264,62,7556,2,0,L|229:194,1,126.899996127319,0|2,0:0|0:0,0:0:0:0:
400,239,8274,1,0,0:0:0:0:
313,261,8454,2,0,L|348:393,2,126.899996127319,2|2|0,0:0|0:0|0:0,0:0:0:0:
338,175,9352,6,0,B|383:158|383:158|419:178|471:169,1,126.899996127319,2|0,0:0|0:0,0:0:0:0:
434,85,9891,1,0,0:0:0:0:
313,261,10250,1,2,0:0:0:0:
228,235,10429,2,0,P|238:179|197:119,1,126.899996127319,0|2,0:0|0:0,0:0:0:0:
116,148,11149,5,2,0:0:0:0:
62,76,11508,1,2,0:0:0:0:
148,55,11867,1,2,0:0:0:0:
256,192,11957,12,0,13304,0:0:0:0:
468,82,13664,6,0,B|405:105|405:62|322:88,1,141,6|8,1:0|0:2,0:0:0:0:
253,137,14203,1,2,0:1:0:0:
169,101,14382,2,0,P|154:71|157:30,2,70.5,8|8|8,0:0|0:0|0:2,0:0:0:0:
264,258,15101,6,2,L|120:224,1,141,0|8,1:0|0:0,0:0:0:0:
51,277,15640,1,0,0:0:0:0:
143,294,15819,2,0,L|126:225,1,70.5,2|8,1:0|0:0,0:0:0:0:
73,150,16179,6,0,B|44:153|21:127|21:127|41:83|31:35,2,141,2|2|8,1:0|1:0|0:0,0:0:0:0:
158,116,17077,2,0,P|227:104|290:147,1,141,2|8,0:1|0:0,0:0:0:0:
300,230,17616,2,0,P|257:224|229:204,1,70.5,8|2,0:0|0:1,0:0:0:0:
367,173,17975,6,0,P|384:203|387:238,1,70.5,0|2,1:0|1:0,0:0:0:0:
335,313,18334,1,12,0:0:0:0:
481,202,18694,2,0,L|499:131,1,70.5,2|8,1:0|0:0,0:0:0:0:
462,49,19053,1,12,0:0:0:0:
382,93,19232,5,8,0:0:0:0:
382,93,19322,1,8,0:0:0:0:
382,93,19412,2,0,P|313:105|253:56,1,141,6|8,1:0|0:0,0:0:0:0:
173,31,19951,2,0,L|201:185,1,141,2|2,0:1|1:0,0:0:0:0:
276,217,20490,2,0,L|258:290,1,70.5,0|2,1:0|0:1,0:0:0:0:
187,343,20849,6,0,B|134:354|134:354|105:346|105:346|44:360,1,141,8|8,0:0|0:0,0:0:0:0:
13,282,21388,1,0,0:0:0:0:
13,282,21478,1,8,0:0:0:0:
13,282,21568,2,0,P|-1:244|4:208,1,70.5,2|8,1:0|0:0,0:0:0:0:
106,107,21927,2,0,P|107:141|94:174,1,70.5,2|0,1:1|0:1,0:0:0:0:
156,237,22286,6,0,B|199:255|199:255|240:226|292:231,1,141,2|2,1:0|1:0,0:0:0:0:
375,258,22825,2,0,P|413:206|401:130,1,141,2|0,0:1|1:0,0:0:0:0:
321,90,23364,1,2,1:0:0:0:
156,172,23724,6,0,P|118:120|130:44,1,141,8|12,0:0|0:0,0:0:0:0:
214,17,24262,1,8,0:0:0:0:
214,17,24352,1,8,0:0:0:0:
214,17,24442,2,0,L|282:32,1,70.5,8|4,0:0|1:3,0:0:0:0:
337,141,24801,2,0,L|269:126,1,70.5,4|0,1:3|0:0,0:0:0:0:
302,231,25161,6,0,P|353:237|423:185,2,133.949996423149,4|0|0,0:0|3:0|3:0,0:0:0:0:
223,193,26059,1,0,0:0:0:0:
173,264,26238,2,0,L|102:277,1,66.9749982115746,0|0,3:0|0:0,0:0:0:0:
41,334,26598,2,0,P|62:292|46:209,1,133.949996423149,0|0,3:0|3:0,0:0:0:0:
116,158,27137,2,0,P|95:116|111:33,1,133.949996423149,0|0,0:0|0:0,0:0:0:0:
194,10,27676,1,0,3:0:0:0:
325,123,28035,6,0,L|186:96,2,133.949996423149,0|0|0,3:0|3:0|3:0,0:0:0:0:
406,92,28933,1,0,0:0:0:0:
447,168,29113,2,0,P|460:209|459:243,1,66.9749982115746,0|0,3:0|0:0,0:0:0:0:
488,315,29472,2,0,P|445:277|366:262,1,133.949996423149,0|0,3:0|3:0,0:0:0:0:
287,285,30011,2,0,P|274:244|275:210,1,66.9749982115746,0|0,0:0|3:0,0:0:0:0:
301,137,30370,1,0,0:0:0:0:
219,106,30550,2,0,P|195:142|187:175,1,66.9749982115746,0|0,3:0|0:0,0:0:0:0:
130,229,30909,6,0,B|91:241|91:241|-16:214,1,133.949996423149,0|0,3:0|3:0,0:0:0:0:
168,49,31628,2,0,P|200:36|237:34,1,66.9749982115746,0|0,3:0|0:0,0:0:0:0:
309,74,31987,2,0,B|355:86|392:64|392:64|410:66|436:86,2,133.949996423149,0|0|0,3:0|3:0|3:0,0:0:0:0:
240,128,32885,2,0,L|261:261,1,133.949996423149
342,225,33424,2,0,P|373:211|416:211,1,66.9749982115746,0|0,3:0|0:0,0:0:0:0:
391,295,33783,5,0,3:0:0:0:
474,271,33963,1,0,0:0:0:0:
391,295,34143,2,0,L|256:259,1,133.949996423149,0|0,3:0|3:0,0:0:0:0:
75,125,34861,2,0,L|143:142,1,66.9749982115746,0|0,3:0|0:0,0:0:0:0:
186,215,35221,2,0,P|223:166|209:85,1,133.949996423149,0|0,3:0|3:0,0:0:0:0:
105,6,35759,2,0,P|67:59|75:125,1,133.949996423149,2|8,0:0|0:0,0:0:0:0:
198,280,36298,2,0,L|185:214,1,66.9749982115746,8|0,0:0|0:0,0:0:0:0:
249,161,36658,6,0,P|313:178|390:183,1,141,4|8,0:0|0:0,0:0:0:0:
445,250,37197,1,2,0:0:0:0:
455,164,37376,2,0,P|411:173|388:182,1,70.5,8|8,0:0|0:0,0:0:0:0:
331,284,37735,2,0,P|322:240|313:217,1,70.5,8|0,0:0|0:0,0:0:0:0:
249,161,38095,6,0,B|204:154|168:177|168:177|139:164|123:129,1,141,10|8,0:0|0:0,0:0:0:0:
66,70,38634,2,0,L|91:216,1,141,2|8,0:0|0:0,0:0:0:0:
105,299,39173,2,0,L|36:285,1,70.5,8|2,0:0|0:0,0:0:0:0:
169,347,39532,6,0,P|184:317|181:273,1,70.5,8|2,0:0|0:0,0:0:0:0:
237,206,39891,2,0,P|267:191|311:194,1,70.5,8|2,0:0|0:0,0:0:0:0:
385,233,40250,1,8,0:0:0:0:
385,233,40430,1,10,0:0:0:0:
435,156,40610,2,0,L|449:83,1,70.5,8|0,0:0|0:0,0:0:0:0:
381,23,40969,6,0,P|334:15|253:63,1,141,10|8,0:0|0:0,0:0:0:0:
186,119,41508,2,0,P|139:127|58:79,1,141,2|8,0:0|0:0,0:0:0:0:
113,158,42047,2,0,P|128:198|123:244,1,70.5,8|2,0:0|0:0,0:0:0:0:
52,278,42406,6,0,B|102:262|102:262|148:267|174:313,1,141,8|8,0:0|0:0,0:0:0:0:
250,360,42945,1,0,0:0:0:0:
250,360,43125,2,0,L|321:345,1,70.5,10|8,0:0|0:0,0:0:0:0:
271,266,43484,2,0,L|342:251,1,70.5,8|0,0:0|0:0,0:0:0:0:
429,232,43843,6,0,P|364:224|316:158,1,141,10|8,0:0|0:0,0:0:0:0:
255,100,44382,2,0,P|314:129|393:133,1,141,2|8,0:0|0:0,0:0:0:0:
318,40,44921,2,0,P|275:22|226:17,1,70.5,8|2,0:0|0:0,0:0:0:0:
168,56,45280,6,0,P|150:99|145:148,1,70.5,8|2,0:0|0:0,0:0:0:0:
117,210,45640,2,0,B|65:222|65:222|24:201|-24:207,2,141,8|8|8,0:0|0:0|0:0,0:0:0:0:
205,185,46538,1,2,0:0:0:0:
253,262,46718,6,0,P|293:268|372:206,1,141,8|8,0:0|0:0,0:0:0:0:
427,141,47256,1,2,0:0:0:0:
427,141,47346,1,8,0:0:0:0:
427,141,47436,2,0,P|464:134|497:130,1,70.5,8|4,0:0|1:2,0:0:0:0:
377,51,47795,2,0,P|340:58|307:62,1,70.5,4|4,1:3|1:3,0:0:0:0:
218,126,48155,6,0,P|177:85|192:14,2,133.949996423149,4|8|8,0:0|0:0|0:0,0:0:0:0:
316,269,49232,2,0,P|329:239|325:193,1,66.9749982115746,0|2,0:0|0:0,0:0:0:0:
382,135,49592,2,0,P|414:124|459:122,2,66.9749982115746,8|8|8,0:0|0:0|0:0,0:0:0:0:
240,236,50310,2,0,P|184:240|124:193,1,133.949996423149,8|0,0:0|0:0,0:0:0:0:
40,218,50849,1,2,0:0:0:0:
64,134,51029,6,0,B|75:73|75:73|54:39|40:3,2,133.949996423149,8|8|8,0:0|0:0|0:0,0:0:0:0:
18,302,52107,2,0,L|32:371,1,66.9749982115746,2|0,0:0|0:0,0:0:0:0:
114,341,52466,2,0,P|148:328|193:327,1,66.9749982115746,8|8,0:0|0:0,0:0:0:0:
242,266,52825,2,0,P|320:293|385:293,1,133.949996423149,8|8,0:0|0:0,0:0:0:0:
428,360,53364,2,0,L|410:219,1,133.949996423149,2|2,0:0|0:0,0:0:0:0:
337,180,53903,6,0,L|354:101,1,66.9749982115746,8|2,0:0|0:0,0:0:0:0:
399,42,54262,2,0,P|346:29|279:78,1,133.949996423149,8|8,0:0|0:0,0:0:0:0:
170,203,54981,2,0,P|135:214|99:213,1,66.9749982115746,0|2,0:0|0:0,0:0:0:0:
35,161,55340,2,0,L|20:96,2,66.9749982115746,8|8|8,0:0|0:0|0:0,0:0:0:0:
152,290,56059,2,0,P|218:311|286:314,1,133.949996423149,8|2,0:0|0:0,0:0:0:0:
355,266,56598,1,2,0:0:0:0:
280,220,56777,6,0,P|260:192|252:161,1,66.9749982115746,8|0,0:0|0:0,0:0:0:0:
331,123,57137,2,0,P|359:103|390:95,1,66.9749982115746,8|2,0:0|0:0,0:0:0:0:
477,90,57496,2,0,L|329:49,1,133.949996423149,8|2,0:0|0:0,0:0:0:0:
262,72,58035,1,0,0:0:0:0:
262,72,58215,2,0,L|188:51,1,66.9749982115746,8|8,0:0|0:0,0:0:0:0:
112,33,58574,1,8,0:0:0:0:
140,119,58753,6,0,P|153:158|153:191,1,66.9749982115746,4|8,0:0|0:0,0:0:0:0:
116,262,59113,1,8,0:0:0:0:
38,300,59292,2,0,L|-5:286,2,33.4874991057873,12|8|8,0:0|0:0|0:0,0:0:0:0:
153,348,59652,6,0,B|218:390|230:345|309:383,1,141,4|8,0:0|0:0,0:0:0:0:
378,355,60191,2,0,P|411:300|395:228,1,141,2|10,0:0|0:0,0:0:0:0:
327,213,60729,2,0,P|359:226|396:228,1,70.5,8|2,0:0|0:0,0:0:0:0:
361,134,61089,6,0,P|306:127|246:185,1,141,8|8,0:0|0:0,0:0:0:0:
202,262,61628,2,0,L|46:232,1,141,2|8,0:0|0:0,0:0:0:0:
30,149,62167,2,0,L|15:70,1,70.5,8|2,0:0|0:0,0:0:0:0:
150,35,62526,6,0,L|136:104,1,70.5,12|8,0:0|0:0,0:0:0:0:
256,160,62885,2,0,L|256:64,1,70.5,8|8,0:0|0:0,0:0:0:0:
362,35,63244,2,0,L|375:104,1,70.5,8|8,0:0|0:0,0:0:0:0:
401,192,63604,1,8,0:0:0:0:
323,257,63783,6,0,P|259:273|176:250,1,141,12|12,0:0|0:0,0:0:0:0:
256,160,64322,1,12,0:0:0:0:
256,160,64682,6,0,L|256:230,1,70.5,2|0,0:0|0:0,0:0:0:0:
168,328,65041,2,0,P|128:300|131:214,1,141,0|4,0:0|1:0,0:0:0:0:
217,56,65759,1,8,0:0:0:0:
274,119,65939,2,0,L|127:89,1,141,2|10,0:0|0:0,0:0:0:0:
44,79,66478,2,0,L|55:150,1,70.5,8|2,0:0|0:0,0:0:0:0:
131,217,66837,6,0,L|120:288,1,70.5,8|2,0:0|0:0,0:0:0:0:
83,371,67197,1,0,0:0:0:0:
183,352,67376,2,0,P|236:335|328:326,1,141,2|10,0:0|0:0,0:0:0:0:
408,300,67915,2,0,P|421:263|422:229,1,70.5,8|2,0:0|0:0,0:0:0:0:
372,155,68274,5,8,0:0:0:0:
206,234,68634,1,8,0:0:0:0:
146,165,68813,2,0,L|72:149,1,70.5,2|8,0:0|0:0,0:0:0:0:
25,242,69173,1,10,0:0:0:0:
25,242,69352,2,0,L|93:256,1,70.5,8|2,0:0|0:0,0:0:0:0:
159,322,69712,6,0,P|191:311|233:310,1,70.5,8|8,0:0|0:0,0:0:0:0:
301,363,70071,2,0,P|270:319|263:231,1,141,12|10,0:0|0:0,0:0:0:0:
317,160,70610,1,8,0:0:0:0:
392,210,70789,1,12,0:0:0:0:
444,134,70969,5,0,0:0:0:0:
444,134,71059,1,8,0:0:0:0:
444,134,71149,2,0,B|436:69|388:45|388:45|399:57|404:79,1,141,10|8,0:0|0:0,0:0:0:0:
319,111,71688,2,0,P|256:117|194:71,1,141,2|8,0:0|0:0,0:0:0:0:
105,54,72227,2,0,P|112:108|130:136,1,70.5,8|2,0:0|0:0,0:0:0:0:
155,205,72586,6,0,B|105:221|57:184|57:184|29:207|46:234,1,141,8|8,0:0|0:0,0:0:0:0:
60,303,73125,2,0,P|93:316|134:313,1,70.5,2|8,0:0|0:0,0:0:0:0:
212,280,73484,1,8,0:0:0:0:
256,360,73664,2,0,L|333:346,1,70.5,8|2,0:0|0:0,0:0:0:0:
412,317,74023,6,0,P|421:261|444:179,1,141,8|8,0:0|0:0,0:0:0:0:
373,92,74562,2,0,P|364:148|341:230,1,141,2|8,0:0|0:0,0:0:0:0:
255,260,75101,1,8,0:0:0:0:
186,199,75280,1,2,0:0:0:0:
116,140,75460,6,0,P|71:131|37:125,1,70.5,8|10,0:0|0:0,0:0:0:0:
125,49,75819,2,0,P|170:58|204:64,1,70.5,12|0,2:0|2:0,0:0:0:0:
298,109,76179,2,0,L|344:99,3,35.25,2|0|0|0,0:0|0:0|0:0|0:0,0:0:0:0:
371,126,76538,2,0,L|405:118,3,35.25,2|0|0|0,0:0|0:0|0:0|0:0,0:0:0:0:
450,109,76897,6,0,P|488:158|484:240,1,141,4|8,1:0|0:0,0:0:0:0:
410,330,77436,2,0,P|372:281|376:199,1,141,2|10,0:0|0:0,0:0:0:0:
284,227,77975,2,0,L|207:210,1,70.5,8|0,0:0|0:0,0:0:0:0:
140,168,78334,6,0,B|168:133|210:129|210:129|270:142,1,141,10|8,0:0|0:0,0:0:0:0:
344,91,78873,2,0,L|333:49,2,35.25,0|8|8,0:0|0:0|0:0,0:0:0:0:
428,126,79232,2,0,L|413:210,1,70.5,10|8,0:0|0:0,0:0:0:0:
397,285,79592,1,2,0:0:0:0:
308,263,79771,6,0,L|323:347,1,70.5,8|10,0:0|0:0,0:0:0:0:
320,332,80131,2,0,P|251:323|189:369,1,141,12|10,0:0|0:0,0:0:0:0:
105,338,80670,1,8,0:0:0:0:
122,248,80849,2,0,B|137:189|137:189|126:172|126:172|140:104,1,141,12|10,0:0|0:0,0:0:0:0:
138,113,81388,1,8,0:0:0:0:
212,59,81568,6,0,B|260:40|260:40|300:62|368:38,1,141,12|8,0:0|0:0,0:0:0:0:
437,21,82107,1,8,0:0:0:0:
490,94,82286,2,0,P|505:138|509:177,1,70.5,12|0,0:0|0:0,0:0:0:0:
491,192,82556,5,8,0:0:0:0:
491,192,82646,2,0,L|348:220,1,141,4|8,0:0|0:0,0:0:0:0:
415,285,83185,2,0,L|276:257,1,141,2|10,0:0|0:0,0:0:0:0:
276,257,83724,1,8,0:0:0:0:
186,240,83903,1,2,0:0:0:0:
135,165,84083,6,0,P|145:129|167:100,1,70.5,10|0,0:0|0:0,0:0:0:0:
226,35,84442,1,8,0:0:0:0:
226,35,84622,2,0,P|149:60|82:64,1,141,2|10,0:0|0:0,0:0:0:0:
25,130,85161,2,0,P|28:167|45:199,1,70.5,8|2,0:0|0:0,0:0:0:0:
110,258,85520,6,0,P|174:268|251:238,1,141,10|8,0:0|0:0,0:0:0:0:
303,172,86059,2,0,P|368:147|437:156,1,141,2|8,0:0|0:0,0:0:0:0:
512,254,86598,2,0,L|441:239,1,70.5,8|2,0:0|0:0,0:0:0:0:
371,314,86957,6,0,L|300:299,1,70.5,8|12,0:0|0:0,0:0:0:0:
212,279,87316,1,12,0:0:0:0:
123,303,87496,1,8,0:0:0:0:
34,325,87676,2,0,L|14:270,3,35.25,8|8|8|8,0:0|0:0|0:0|0:0,0:0:0:0:
33,247,88035,2,0,P|40:210|42:174,1,70.5,4|0,0:0|0:0,0:0:0:0:
89,98,88394,6,2,B|127:88|127:88|150:93|150:93|179:77|238:80,1,141,6|8,1:1|0:0,0:0:0:0:
306,39,88933,2,0,P|347:80|351:167,1,141,2|8,0:1|0:0,0:0:0:0:
282,217,89472,1,8,0:0:0:0:
133,325,89831,6,0,B|177:322|214:342|214:342|248:324|257:293,1,141,2|8,1:0|0:0,0:0:0:0:
282,217,90370,1,0,0:0:0:0:
352,275,90550,2,0,L|421:260,1,70.5,2|8,1:0|0:0,0:0:0:0:
486,195,90909,2,0,P|497:159|493:118,1,70.5,2|0,1:0|0:0,0:0:0:0:
433,58,91268,6,0,B|330:35|330:35|286:58,1,141,2|2,1:1|1:0,0:0:0:0:
231,117,91807,2,0,P|161:118|93:96,1,141,2|2,0:1|1:0,0:0:0:0:
8,63,92346,2,0,L|22:154,1,70.5,8|2,0:0|0:1,0:0:0:0:
82,199,92706,6,0,L|68:290,1,70.5,8|2,0:0|1:0,0:0:0:0:
49,357,93065,1,12,0:0:0:0:
184,233,93424,2,0,P|221:242|250:256,1,70.5,2|0,1:0|1:0,0:0:0:0:
312,323,93783,1,4,1:2:0:0:
394,282,93963,5,0,0:0:0:0:
394,282,94053,1,8,0:0:0:0:
394,282,94143,2,0,B|433:249|487:255|487:255|466:232|447:218,1,141,6|8,1:0|0:0,0:0:0:0:
373,190,94682,2,0,P|359:156|362:117,1,70.5,2|8,0:1|0:0,0:0:0:0:
444,86,95041,2,0,P|487:102|537:98,2,70.5,2|8|2,1:1|0:0|0:1,0:0:0:0:
382,17,95580,6,0,L|224:42,1,141,2|8,1:0|0:0,0:0:0:0:
164,86,96119,1,0,0:0:0:0:
164,86,96209,1,8,0:0:0:0:
164,86,96298,2,0,L|146:169,1,70.5,2|0,1:0|0:0,0:0:0:0:
254,198,96658,2,0,L|268:129,1,70.5,2|0,1:0|0:0,0:0:0:0:
332,226,97017,6,0,P|292:266|195:259,1,141,2|2,1:0|1:0,0:0:0:0:
125,236,97556,2,0,P|85:196|90:98,1,141,2|2,0:1|1:0,0:0:0:0:
139,44,98095,2,0,P|176:31|218:26,1,70.5,8|2,0:0|0:1,0:0:0:0:
288,68,98454,6,0,P|325:55|367:50,1,70.5,0|8,1:0|0:0,0:0:0:0:
441,84,98813,1,12,0:0:0:0:
371,144,98993,2,0,L|358:194,2,35.25,0|8|2,0:0|0:0|1:0,0:0:0:0:
441,84,99352,1,4,1:3:0:0:
457,193,99532,2,0,L|469:264,1,70.5,2|4,1:0|1:3,0:0:0:0:
485,352,99891,1,6,1:0:0:0:
256,192,99981,12,0,104203,0:0:0:0:
