osu file format v14

[General]
AudioFilename: audio.mp3
AudioLeadIn: 0
PreviewTime: 64592
Countdown: 0
SampleSet: Soft
StackLeniency: 0.3
Mode: 0
LetterboxInBreaks: 0
WidescreenStoryboard: 1

[Editor]
Bookmarks: 104203
DistanceSpacing: 1.1
BeatDivisor: 2
GridSize: 32
TimelineZoom: 1.3

[Metadata]
Title:GLORIOUS_DAYS(Short)
TitleUnicode:GLORIOUS_DAYS(Short)
Artist:yuiko
ArtistUnicode:yuiko
Creator:Momochikun
Version:Easy
Source:恋×シンアイ彼女
Tags:koi kakeru shinai kanojo glorious days yuikonnu galge visual novel eroge us:track xinely
BeatmapID:926135
BeatmapSetID:429220

[Difficulty]
HPDrainRate:2
CircleSize:3
OverallDifficulty:3
ApproachRate:3
SliderMultiplier:0.91
SliderTickRate:1

[Events]
//Background and Video events
0,0,"BG Easy.png",0,0
//Break Periods
//Storyboard Layer 0 (Background)
//Storyboard Layer 1 (Fail)
//Storyboard Layer 2 (Pass)
//Storyboard Layer 3 (Foreground)
//Storyboard Sound Samples

[TimingPoints]
730,359.281437125748,4,2,1,30,1,0
730,-100,4,2,1,30,0,0
11149,-100,4,2,1,40,0,0
11508,-100,4,2,1,40,0,0
11957,-100,4,2,1,5,0,0
13484,-100,4,2,1,50,0,0
13664,-100,4,2,1,90,0,1
13843,-100,4,2,1,90,0,0
25161,-100,4,2,1,60,0,0
36658,-100,4,2,1,80,0,0
47616,-100,4,2,1,50,0,0
47795,-100,4,2,1,80,0,0
48155,-100,4,2,1,70,0,0
59652,-100,4,2,1,80,0,0
65400,-100,4,2,1,90,0,1
75819,-100,4,1,1,90,0,0
76897,-100,4,2,1,90,0,1
88035,-100,4,2,1,90,0,0
88394,-100,4,2,1,90,0,1
88484,-100,4,2,1,90,0,0
99891,-100,4,2,1,90,0,1
99981,-100,4,2,1,50,0,0
101328,-100,4,2,1,35,0,0
102765,-100,4,2,1,20,0,0
103843,-100,4,2,1,5,0,0

[Colours]
Combo1 : 255,157,157
Combo2 : 221,172,149
Combo3 : 255,159,255

[HitObjects]
315,114,730,6,0,P|455:79|487:73,2,136.5,2|0|0,0:0|0:0|0:0,0:0:0:0:
295,213,2167,2,0,P|435:178|466:173,2,136.5,2|0|0,0:0|0:0|0:0,0:0:0:0:
199,246,3604,6,0,P|144:255|57:206,1,136.5,2|0,0:0|0:0,0:0:0:0:
98,126,4502,1,2,0:0:0:0:
243,90,5041,2,0,P|294:78|335:50,1,91,2|0,0:0|0:0,0:0:0:0:
418,95,5759,2,0,P|430:146|458:187,1,91,2|0,0:0|0:0,0:0:0:0:
381,251,6478,6,0,P|321:209|225:204,2,136.5,2|0|0,0:0|0:0|0:0,0:0:0:0:
331,338,7915,2,0,P|256:329|194:286,1,136.5,2|2,0:0|0:0,0:0:0:0:
162,206,8813,2,0,B|110:190|110:190|2:214,1,136.5,2|2,0:0|0:0,0:0:0:0:
99,74,9891,6,0,B|151:90|151:90|259:66,1,136.5,0|0,0:0|0:0,0:0:0:0:
324,35,10789,2,0,P|370:9|431:15,1,91,2|2,0:0|0:0,0:0:0:0:
430,105,11508,2,0,P|389:125|344:123,1,91,2|2,0:0|0:0,0:0:0:0:
464,271,13664,6,0,B|405:266|405:266|360:301|266:294,1,182,6|8,1:0|0:0,0:0:0:0:
196,259,14741,1,8,0:2:0:0:
112,315,15101,2,0,P|84:272|87:217,1,91,0|8,1:0|0:0,0:0:0:0:
144,155,15819,2,0,L|117:34,1,91,2|2,1:0|1:0,0:0:0:0:
222,86,16538,6,0,P|288:107|405:42,1,182,2|8,1:0|0:0,0:0:0:0:
486,82,17616,1,8,0:0:0:0:
459,178,17975,2,0,L|482:281,1,91,8|12,0:0|0:0,0:0:0:0:
382,237,18694,2,0,L|405:340,1,91,2|12,1:0|0:0,0:0:0:0:
308,360,19412,6,0,B|208:379|221:317|93:357,1,182,6|8,1:0|0:0,0:0:0:0:
41,298,20490,1,0,1:0:0:0:
110,226,20849,2,0,P|121:169|105:111,1,91,8|8,0:0|0:0,0:0:0:0:
89,40,21568,2,0,L|200:65,1,91,2|2,1:0|1:1,0:0:0:0:
260,116,22286,6,0,B|338:99|338:99|363:112|363:112|460:93,1,182,2|2,1:0|1:0,0:0:0:0:
482,186,23364,1,2,1:0:0:0:
402,247,23724,2,0,P|385:286|374:354,1,91,8|12,0:0|0:0,0:0:0:0:
277,357,24442,2,0,P|238:340|170:329,1,91,8|4,0:0|1:3,0:0:0:0:
91,347,25161,6,0,B|60:220|60:220|90:149,1,182,4|0,0:0|3:0,0:0:0:0:
241,54,26598,2,0,B|272:181|272:181|242:252,1,182,0|0,3:0|3:0,0:0:0:0:
195,311,27676,1,0,3:0:0:0:
287,348,28035,6,0,P|363:359|447:287,1,182,0|0,3:0|3:0,0:0:0:0:
476,203,29113,1,0,3:0:0:0:
395,143,29472,2,0,P|319:132|235:204,1,182,0|0,3:0|3:0,0:0:0:0:
174,269,30550,1,0,3:0:0:0:
80,233,30909,6,0,P|78:187|94:136,1,91,0|0,3:0|3:0,0:0:0:0:
176,93,31628,2,0,P|219:105|264:103,1,91,0|0,3:0|3:0,0:0:0:0:
359,69,32346,2,0,B|444:44|444:44|518:57,2,136.5,0|0|0,3:0|0:0|3:0,0:0:0:0:
313,158,33783,5,0,3:0:0:0:
260,243,34143,2,0,P|189:258|103:180,1,182,0|0,3:0|3:0,0:0:0:0:
10,169,35221,2,0,B|29:260|29:260|15:310,2,136.5,0|2|8,3:0|0:0|0:0,0:0:0:0:
10,68,36658,6,0,L|99:87,1,91,4|8,0:0|0:0,0:0:0:0:
186,39,37376,2,0,L|275:58,1,91,8|8,0:0|0:0,0:0:0:0:
361,109,38095,2,0,B|433:128|431:86|516:108,2,136.5,10|2|8,0:0|0:0|0:0,0:0:0:0:
275,161,39532,6,0,P|249:201|245:244,1,91,8|8,0:0|0:0,0:0:0:0:
312,317,40250,2,0,P|274:342|229:347,1,91,8|8,0:0|0:0,0:0:0:0:
140,302,40969,2,0,B|87:295|32:324|32:324|-5:305|10:245,1,182,10|0,0:0|0:0,0:0:0:0:
59,179,42047,1,8,0:0:0:0:
142,123,42406,6,0,P|156:86|156:32,1,91,8|8,0:0|0:0,0:0:0:0:
253,59,43125,2,0,P|239:96|239:150,1,91,10|8,0:0|0:0,0:0:0:0:
297,227,43843,2,0,P|222:238|147:188,2,136.5,10|2|8,0:0|0:0|0:0,0:0:0:0:
379,169,45280,5,8,0:0:0:0:
446,243,45640,2,0,L|430:346,2,91,8|8|8,0:0|0:0|0:0,0:0:0:0:
492,153,46718,2,0,L|478:63,1,91,8|8,0:0|0:0,0:0:0:0:
389,16,47436,2,0,P|335:12|299:29,1,91,8|4,0:0|1:3,0:0:0:0:
237,103,48155,6,0,B|182:126|120:115|120:115|88:55,1,182,4|8,0:0|0:0,0:0:0:0:
4,240,49592,2,0,B|59:217|121:228|121:228|153:288,1,182,8|8,0:0|0:0,0:0:0:0:
230,343,50670,1,0,0:0:0:0:
319,298,51029,6,0,P|376:298|419:320,1,91,8|8,0:0|0:0,0:0:0:0:
484,374,51747,2,0,L|439:182,1,182,8|8,0:0|0:0,0:0:0:0:
345,171,52825,2,0,L|324:54,1,91,8|8,0:0|0:0,0:0:0:0:
243,28,53544,1,0,0:0:0:0:
181,106,53903,6,0,L|197:195,1,91,8|8,0:0|0:0,0:0:0:0:
249,281,54622,2,0,P|179:297|100:224,1,182,8|8,0:0|0:0,0:0:0:0:
13,182,55700,2,0,P|-1:136|4:76,1,91,8|8,0:0|0:0,0:0:0:0:
85,41,56418,1,2,0:0:0:0:
180,69,56777,6,0,B|212:82|212:82|296:69,1,91,8|8,0:0|0:0,0:0:0:0:
359,114,57496,2,0,B|372:146|372:146|363:201,1,91,8|2,0:0|0:0,0:0:0:0:
288,268,58215,2,0,P|225:250|133:237,2,136.5,8|4|12,0:0|0:0|0:0,0:0:0:0:
376,315,59652,5,4,0:0:0:0:
447,245,60011,1,8,0:0:0:0:
416,149,60370,2,0,L|433:48,1,91,8|8,0:0|0:0,0:0:0:0:
334,31,61089,2,0,P|272:24|198:54,2,136.5,8|2|8,0:0|0:0|0:0,0:0:0:0:
331,131,62526,6,0,P|277:146|231:140,1,91,12|8,0:0|0:0,0:0:0:0:
145,118,63244,2,0,P|103:174|92:266,1,136.5,8|12,0:0|0:0,0:0:0:0:
134,328,64143,2,0,L|181:315,1,45.5,12|12,0:0|0:0,0:0:0:0:
275,293,64682,5,2,0:0:0:0:
372,270,65041,2,0,P|386:228|381:169,1,91,0|4,0:0|1:0,0:0:0:0:
366,83,65759,1,8,0:0:0:0:
276,129,66119,2,0,L|173:112,1,91,8|8,0:0|0:0,0:0:0:0:
91,80,66837,2,0,B|118:35|162:22|162:22|280:40,1,182,8|8,0:0|0:0,0:0:0:0:
349,53,67915,1,8,0:0:0:0:
426,116,68274,6,0,P|476:181|476:293,1,182,8|8,0:0|0:0,0:0:0:0:
408,347,69352,1,8,0:0:0:0:
317,304,69712,2,0,P|272:292|226:293,1,91,8|12,0:0|0:0,0:0:0:0:
145,349,70430,2,0,P|99:349|55:337,1,91,10|12,0:0|0:0,0:0:0:0:
15,246,71149,6,0,B|-2:131|-2:131|26:67,1,182,10|8,0:0|0:0,0:0:0:0:
118,36,72227,1,8,0:0:0:0:
166,123,72586,2,0,B|253:135|251:86|356:109,1,182,8|8,0:0|0:0,0:0:0:0:
440,75,73664,1,8,0:0:0:0:
489,162,74023,6,0,P|476:225|471:274,1,91,8|8,0:0|0:0,0:0:0:0:
377,282,74741,2,0,P|364:219|359:170,2,91,8|8|8,0:0|0:0|0:0,0:0:0:0:
445,355,75819,1,12,2:0:0:0:
345,370,76179,6,0,P|296:366|251:340,1,91,2|2,0:0|0:0,0:0:0:0:
167,307,76897,2,0,P|169:264|153:214,1,91,6|8,1:0|0:0,0:0:0:0:
100,136,77616,2,0,L|6:115,1,91,8|8,0:0|0:0,0:0:0:0:
68,33,78334,2,0,B|182:61|182:61|230:86|227:122,1,182,10|8,0:0|0:0,0:0:0:0:
304,169,79412,1,8,0:0:0:0:
395,127,79771,6,0,P|409:82|407:38,2,91,8|12|10,0:0|0:0|0:0,0:0:0:0:
461,202,80849,2,0,P|447:247|449:291,1,91,12|10,0:0|0:0,0:0:0:0:
361,340,81568,1,12,0:0:0:0:
266,308,81927,2,0,L|169:331,1,91,10|12,0:0|0:0,0:0:0:0:
118,248,82646,6,0,L|206:227,1,91,4|8,0:0|0:0,0:0:0:0:
300,194,83364,2,0,P|319:152|323:105,1,91,8|8,0:0|0:0,0:0:0:0:
234,60,84083,2,0,P|162:77|88:81,2,136.5,10|2|8,0:0|0:0|0:0,0:0:0:0:
323,15,85520,6,0,P|379:27|417:41,1,91,10|8,0:0|0:0,0:0:0:0:
474,115,86238,2,0,L|456:222,1,91,8|8,0:0|0:0,0:0:0:0:
387,274,86957,2,0,L|400:332,2,45.5,8|12|12,0:0|0:0|0:0,0:0:0:0:
301,222,87676,2,0,P|255:206|203:208,1,91,8|4,0:0|0:0,0:0:0:0:
147,281,88394,6,0,B|90:269|36:300|36:300|6:285|-5:240,1,182,6|8,1:1|0:0,0:0:0:0:
47,161,89472,1,8,0:0:0:0:
91,71,89831,2,0,P|184:94|282:105,1,182,0|2,1:0|1:0,0:0:0:0:
360,62,90909,1,2,1:0:0:0:
412,146,91268,6,0,P|426:195|431:237,1,91,2|2,1:1|1:0,0:0:0:0:
339,276,91987,2,0,P|325:227|320:185,2,91,8|8|8,0:0|0:0|0:0,0:0:0:0:
412,344,93065,1,12,0:0:0:0:
315,368,93424,2,0,L|205:353,1,91,2|4,1:0|1:2,0:0:0:0:
129,323,94143,6,0,B|162:238|100:249|135:146,1,182,6|8,1:0|0:0,0:0:0:0:
187,59,95221,1,8,0:0:0:0:
273,109,95580,2,0,P|330:122|432:50,1,182,2|2,1:0|1:0,0:0:0:0:
507,119,96658,1,2,1:0:0:0:
496,218,97017,6,0,L|402:201,1,91,2|2,1:0|1:0,0:0:0:0:
317,248,97735,2,0,L|223:231,2,91,2|8|0,1:0|0:0|1:0,0:0:0:0:
377,328,98813,1,12,0:0:0:0:
476,316,99173,1,2,1:0:0:0:
496,218,99532,1,2,1:0:0:0:
256,192,99891,12,0,104203,0:0:0:0:
