osu file format v14

[General]
AudioFilename: GLORIOUS DAYS.mp3
AudioLeadIn: 0
PreviewTime: 139202
Countdown: 0
SampleSet: Normal
StackLeniency: 0.7
Mode: 0
LetterboxInBreaks: 0
WidescreenStoryboard: 1

[Editor]
DistanceSpacing: 0.6
BeatDivisor: 4
GridSize: 32
TimelineZoom: 1.7

[Metadata]
Title:GLORIOUS DAYS
TitleUnicode:GLORIOUS DAYS
Artist:yuiko
ArtistUnicode:yuiko
Creator:Kisaki
Version:Insane
Source:恋×シンアイ彼女
Tags:yuiko galgame
BeatmapID:1370499
BeatmapSetID:646510

[Difficulty]
HPDrainRate:6
CircleSize:4
OverallDifficulty:6.5
ApproachRate:8.5
SliderMultiplier:1.6
SliderTickRate:1

[Events]
//Background and Video events
0,0,"9d04d513b90980045d3464d5f8ff0595.jpg",0,0
//Break Periods
2,25331,35159
2,91259,98932
2,166169,185414
//Storyboard Layer 0 (Background)
//Storyboard Layer 1 (Fail)
//Storyboard Layer 2 (Pass)
//Storyboard Layer 3 (Foreground)
//Storyboard Sound Samples

[TimingPoints]
700,359.281437125748,4,1,1,70,1,0
700,-100,4,1,1,70,0,0
65370,-100,4,1,1,70,0,1
88544,-100,4,1,1,70,0,0
140101,-100,4,1,1,70,0,1
163274,-100,4,1,1,70,0,0
186089,-133.333333333333,4,1,1,70,0,0
209083,-100,4,1,1,70,0,1
232256,-100,4,1,1,70,0,0

[HitObjects]
256,192,10759,12,0,13274,0:0:0:0:
142,156,13634,5,2,0:0:0:0:
142,156,13723,1,0,0:0:0:0:
142,156,13813,1,0,0:0:0:0:
88,239,13993,2,0,P|137:249|170:247,1,80
203,178,14352,2,0,P|236:220|247:252,1,80
173,301,14711,2,0,P|225:315|265:314,1,80
271,233,15071,6,0,P|319:264|339:299,1,80,2|0,0:0|0:0,0:0:0:0:
410,335,15430,2,0,P|413:281|428:247,1,80
474,194,15789,2,0,P|409:188|372:198,1,80
314,240,16149,2,0,P|312:198|323:154,1,80
403,119,16508,6,0,P|360:108|327:83,1,80,2|0,0:0|0:0,0:0:0:0:
268,40,16867,2,0,P|241:83|233:119,1,80
207,198,17226,2,0,P|257:177|296:170,1,80
325,104,17586,2,0,P|350:145|362:195,1,80
266,187,17945,6,0,P|290:234|317:253,1,80,2|0,0:0|0:0,0:0:0:0:
361,178,18304,2,0,P|392:211|406:258,1,80
386,324,18664,1,0,0:0:0:0:
386,324,18843,1,0,0:0:0:0:
386,324,19023,1,0,0:0:0:0:
325,239,19382,6,0,P|297:291|266:308,1,80,2|0,0:0|0:0,0:0:0:0:
216,354,19741,2,0,P|195:307|191:265,1,80
262,225,20101,2,0,P|225:199|206:166,1,80
133,100,20460,2,0,P|110:146|104:186,1,80
139,258,20819,6,0,P|176:216|210:204,1,80,2|0,0:0|0:0,0:0:0:0:
254,272,21179,2,0,P|286:229|317:210,1,80
370,267,21538,2,0,P|398:222|399:184,1,80
475,154,21897,2,0,P|436:118|400:115,1,80
343,57,22256,6,0,P|327:109|323:163,1,80,2|0,0:0|0:0,0:0:0:0:
241,163,22616,2,0,P|270:204|322:219,1,80
383,205,22975,2,0,P|376:256|344:288,1,80
267,295,23334,2,0,P|223:276|200:239,1,80
268,189,23694,6,0,P|219:171|177:169,1,80,2|0,0:0|0:0,0:0:0:0:
104,183,24053,2,0,P|64:212|45:252,1,80
51,332,24412,1,0,0:0:0:0:
51,332,24592,1,0,0:0:0:0:
51,332,24771,1,0,0:0:0:0:
51,332,24951,1,0,0:0:0:0:
51,332,25131,1,2,0:0:0:0:
356,200,35909,6,0,P|347:141|346:117,1,80
272,63,36268,2,0,P|260:118|259:167,1,80
144,133,36628,6,0,L|171:234,1,80,6|0,0:0|0:0,0:0:0:0:
191,291,36987,1,0,0:0:0:0:
269,167,37167,1,0,0:0:0:0:
269,167,37346,2,0,L|355:200,1,80,2|0,0:0|0:0,0:0:0:0:
328,299,37705,1,0,0:0:0:0:
328,299,37885,2,0,L|417:268,1,80,0|6,0:0|0:0,0:0:0:0:
423,151,38244,1,0,0:0:0:0:
423,151,38424,2,0,L|476:223,1,80,0|2,0:0|0:0,0:0:0:0:
463,337,38783,6,0,P|411:314|369:314,2,80,0|0|2,0:0|0:0|0:0,0:0:0:0:
319,335,39322,1,0,0:0:0:0:
319,335,39502,2,0,L|298:250,1,80,6|0,0:0|0:0,0:0:0:0:
214,279,39861,1,0,0:0:0:0:
214,279,40041,2,0,L|154:220,1,80,0|2,0:0|0:0,0:0:0:0:
72,161,40400,1,0,0:0:0:0:
72,161,40580,2,0,L|68:249,1,80
168,185,40939,1,6,0:0:0:0:
168,185,41119,2,0,P|209:153|221:115,1,80
294,78,41478,6,0,P|344:93|376:83,2,80,2|0|0,0:0|0:0|0:0,0:0:0:0:
400,170,42017,1,2,0:0:0:0:
400,170,42197,2,0,L|350:249,1,80,0|6,0:0|0:0,0:0:0:0:
308,311,42556,1,0,0:0:0:0:
308,311,42735,1,0,0:0:0:0:
232,209,42915,5,0,0:0:0:0:
232,209,43095,1,2,0:0:0:0:
148,106,43454,2,0,P|93:179|122:249,1,160,0|6,0:0|0:0,0:0:0:0:
179,311,43993,1,0,0:0:0:0:
179,311,44173,2,0,P|202:250|226:231,1,80,0|2,0:0|0:0,0:0:0:0:
259,147,44891,5,0,0:0:0:0:
259,147,45071,2,0,P|278:204|277:243,1,80,6|0,0:0|0:0,0:0:0:0:
369,223,45430,1,0,0:0:0:0:
369,223,45610,2,0,P|338:275|309:296,1,80,0|2,0:0|0:0,0:0:0:0:
384,341,45969,1,0,0:0:0:0:
384,341,46149,2,0,P|320:357|282:355,1,80
213,317,46508,1,6,0:0:0:0:
138,147,46867,6,0,P|137:100|153:58,2,80,0|0|6,0:0|0:0|0:0,0:0:0:0:
145,241,47406,1,6,0:0:0:0:
145,241,47496,1,0,0:0:0:0:
145,241,47586,1,0,0:0:0:0:
239,159,47765,1,2,0:0:0:0:
225,239,47945,1,4,0:0:0:0:
212,315,48125,1,6,0:0:0:0:
271,254,48484,6,0,P|334:190|408:190,1,160,0|4,0:0|0:0,0:0:0:0:
361,106,49202,5,0,0:0:0:0:
361,104,49562,2,0,P|435:156|429:228,1,160,2|0,0:0|0:0,0:0:0:0:
399,316,50280,1,4,0:0:0:0:
399,316,50640,2,0,P|303:314|251:266,1,160,0|2,0:0|0:0,0:0:0:0:
222,149,51358,1,0,0:0:0:0:
222,149,51717,2,0,P|125:201|68:170,1,160,4|0,0:0|0:0,0:0:0:0:
148,88,52436,1,2,0:0:0:0:
148,88,52795,1,0,0:0:0:0:
325,113,53155,1,4,0:0:0:0:
322,112,53514,1,0,0:0:0:0:
164,128,53873,6,0,L|217:278,1,160,2|0,0:0|0:0,0:0:0:0:
289,189,54592,1,4,0:0:0:0:
287,187,54951,1,0,0:0:0:0:
202,323,55310,6,0,L|373:353,1,160,2|0,0:0|0:0,0:0:0:0:
316,240,56029,1,4,0:0:0:0:
316,240,56388,1,0,0:0:0:0:
406,352,56747,6,0,L|453:188,1,160,2|0,0:0|0:0,0:0:0:0:
333,181,57466,1,4,0:0:0:0:
333,181,57825,1,0,0:0:0:0:
396,131,58185,6,0,P|424:175|435:207,1,80,2|0,0:0|0:0,0:0:0:0:
352,228,58544,2,0,P|382:273|421:292,1,80
487,272,58903,1,6,0:0:0:0:
382,147,59083,1,0,0:0:0:0:
382,147,59173,1,0,0:0:0:0:
382,147,59263,1,0,0:0:0:0:
404,227,59442,1,0,0:0:0:0:
309,154,59622,6,0,P|286:198|274:229,1,80,2|0,0:0|0:0,0:0:0:0:
194,262,59981,2,0,P|237:301|289:308,1,80
348,315,60340,2,0,P|333:262|309:227,1,80,12|0,0:0|0:0,0:0:0:0:
289,148,60699,2,0,P|243:184|211:193,1,80
212,271,61059,6,0,P|152:256|112:262,1,80,2|0,0:0|0:0,0:0:0:0:
108,155,61418,2,0,P|75:196|51:239,1,80
161,228,61777,2,0,P|192:192|236:177,1,80,12|0,0:0|0:0,0:0:0:0:
236,102,62137,2,0,P|277:120|309:152,1,80
272,223,62496,6,0,P|334:221|374:201,1,80,2|0,0:0|0:0,0:0:0:0:
430,121,62855,2,0,P|381:131|340:133,1,80
195,161,63214,2,0,P|223:103|247:73,1,80,12|0,0:0|0:0,0:0:0:0:
335,177,63574,2,0,B|365:221|368:264,1,80
177,270,64113,1,0,0:0:0:0:
354,308,64292,1,4,0:0:0:0:
123,221,64652,5,0,0:0:0:0:
310,268,64831,2,0,L|410:306,1,80
308,172,65370,6,0,P|252:145|232:116,1,80,6|0,0:0|0:0,0:0:0:0:
332,84,65729,1,0,0:0:0:0:
332,84,65909,2,0,P|383:108|407:145,1,80,0|2,0:0|0:0,0:0:0:0:
258,207,66268,1,0,0:0:0:0:
258,207,66448,2,0,P|203:182|189:152,1,80
138,63,66807,1,6,0:0:0:0:
138,63,66987,2,0,P|95:101|71:138,1,80
49,214,67346,5,2,0:0:0:0:
49,214,67436,1,0,0:0:0:0:
49,214,67526,1,0,0:0:0:0:
169,208,67705,1,2,0:0:0:0:
14,257,68065,5,0,0:0:0:0:
160,223,68244,2,0,P|157:175|143:134,1,80,6|0,0:0|0:0,0:0:0:0:
130,313,68604,1,0,0:0:0:0:
239,182,68783,2,0,P|200:147|163:132,1,80,2|0,0:0|0:0,0:0:0:0:
62,121,69143,1,2,0:0:0:0:
192,103,69322,1,0,0:0:0:0:
140,226,69502,1,2,0:0:0:0:
243,147,69861,6,0,L|286:231,1,80,0|2,0:0|0:0,0:0:0:0:
341,163,70220,2,0,L|340:247,1,80
414,232,70580,2,0,L|376:307,1,80,0|4,0:0|0:0,0:0:0:0:
293,255,71119,6,0,P|271:295|266:330,1,80,6|0,0:0|0:0,0:0:0:0:
410,309,71478,1,0,0:0:0:0:
410,309,71658,2,0,P|439:252|444:215,1,80,0|2,0:0|0:0,0:0:0:0:
318,147,72017,1,0,0:0:0:0:
318,147,72197,2,0,P|328:209|354:239,1,80
423,107,72556,1,6,0:0:0:0:
423,107,72735,2,0,P|370:58|342:46,1,80
244,74,73095,5,2,0:0:0:0:
244,74,73185,1,0,0:0:0:0:
244,74,73274,1,0,0:0:0:0:
322,175,73454,1,2,0:0:0:0:
172,74,73813,5,0,0:0:0:0:
296,137,73993,2,0,L|382:182,1,80,6|0,0:0|0:0,0:0:0:0:
209,238,74352,1,0,0:0:0:0:
352,256,74532,2,0,L|439:267,1,80,2|0,0:0|0:0,0:0:0:0:
420,157,74891,1,2,0:0:0:0:
352,301,75071,1,0,0:0:0:0:
497,284,75250,1,2,0:0:0:0:
416,175,75610,6,0,L|397:275,1,80,0|2,0:0|0:0,0:0:0:0:
304,139,75969,2,0,L|337:220,1,80
191,164,76328,2,0,L|265:217,1,80,0|4,0:0|0:0,0:0:0:0:
335,146,76867,6,0,P|334:97|325:61,1,80,6|0,0:0|0:0,0:0:0:0:
157,113,77226,1,0,0:0:0:0:
157,113,77406,2,0,P|164:160|187:194,1,80,0|2,0:0|0:0,0:0:0:0:
318,238,77765,1,0,0:0:0:0:
318,238,77945,2,0,P|292:191|256:165,1,80
198,294,78304,1,6,0:0:0:0:
198,294,78484,2,0,P|230:324|290:340,1,80
375,313,78843,5,2,0:0:0:0:
375,313,78933,1,0,0:0:0:0:
375,313,79023,1,0,0:0:0:0:
183,297,79202,1,2,0:0:0:0:
323,213,79562,5,0,0:0:0:0:
155,174,79741,2,0,L|134:260,1,80,6|0,0:0|0:0,0:0:0:0:
260,157,80101,1,0,0:0:0:0:
182,324,80280,2,0,L|266:366,1,80,2|0,0:0|0:0,0:0:0:0:
248,228,80640,1,2,0:0:0:0:
372,302,80819,1,0,0:0:0:0:
377,161,80999,1,2,0:0:0:0:
277,134,81358,6,0,L|334:198,1,80,0|2,0:0|0:0,0:0:0:0:
177,121,81717,2,0,L|218:197,1,80
83,83,82077,2,0,L|100:165,1,80,0|4,0:0|0:0,0:0:0:0:
71,251,82616,6,0,P|128:230|183:234,1,80,6|0,0:0|0:0,0:0:0:0:
235,256,82975,1,0,0:0:0:0:
308,117,83155,2,0,P|296:166|303:209,1,80,0|2,0:0|0:0,0:0:0:0:
304,326,83514,1,0,0:0:0:0:
490,291,83694,2,0,P|435:288|402:298,1,80
372,190,84053,1,6,0:0:0:0:
372,190,84232,2,0,P|344:240|329:280,1,80
304,342,84592,5,2,0:0:0:0:
304,342,84682,1,0,0:0:0:0:
304,342,84771,1,0,0:0:0:0:
150,256,84951,1,2,0:0:0:0:
316,252,85310,5,0,0:0:0:0:
119,225,85490,2,0,L|107:129,1,80,6|0,0:0|0:0,0:0:0:0:
291,182,85849,1,0,0:0:0:0:
233,284,86029,2,0,L|162:209,1,80,2|0,0:0|0:0,0:0:0:0:
242,129,86388,1,0,0:0:0:0:
327,233,86568,1,2,0:0:0:0:
143,212,86747,1,0,0:0:0:0:
235,129,86927,6,0,L|257:216,1,80,2|0,0:0|0:0,0:0:0:0:
351,184,87286,2,0,L|334:276,1,80
319,354,87646,1,6,0:0:0:0:
295,352,87735,1,0,0:0:0:0:
273,340,87825,1,0,0:0:0:0:
256,322,87915,1,0,0:0:0:0:
242,301,88005,1,2,0:0:0:0:
256,192,88364,12,0,91059,0:0:0:0:
243,111,99682,5,0,0:0:0:0:
243,111,99861,2,0,P|287:83|321:73,1,80,10|0,0:0|0:0,0:0:0:0:
329,165,100220,2,0,P|376:161|409:168,1,80
493,242,100580,2,0,P|443:241|403:254,1,80,6|0,0:0|0:0,0:0:0:0:
349,181,100939,2,0,P|336:232|344:285,1,80
436,281,101298,6,0,P|393:320|346:340,1,80,10|0,0:0|0:0,0:0:0:0:
263,304,101658,2,0,P|218:273|206:233,1,80,0|2,0:0|0:0,0:0:0:0:
217,157,102017,2,0,P|270:166|293:183,1,80,4|0,0:0|0:0,0:0:0:0:
253,271,102376,2,0,P|321:269|359:249,1,80,2|0,0:0|0:0,0:0:0:0:
370,128,102735,5,10,0:0:0:0:
370,128,102915,2,0,L|412:215,1,80
227,159,103274,1,0,0:0:0:0:
227,159,103454,2,0,L|316:193,1,80,6|0,0:0|0:0,0:0:0:0:
137,262,103813,5,0,0:0:0:0:
137,262,103993,2,0,L|242:245,1,80,0|10,0:0|0:0,0:0:0:0:
335,233,104352,1,0,0:0:0:0:
335,233,104532,2,0,L|271:175,1,80,0|2,0:0|0:0,0:0:0:0:
189,108,104891,1,4,0:0:0:0:
245,205,105071,1,0,0:0:0:0:
270,45,105250,1,2,0:0:0:0:
242,202,105430,1,0,0:0:0:0:
185,288,105610,6,0,P|136:240|126:202,1,80,10|0,0:0|0:0,0:0:0:0:
159,129,105969,2,0,P|201:169|224:194,1,80
101,207,106328,2,0,P|89:158|91:119,1,80,6|0,0:0|0:0,0:0:0:0:
199,54,106688,2,0,P|191:108|170:145,1,80
56,173,107047,6,0,P|92:204|123:210,1,80,10|0,0:0|0:0,0:0:0:0:
207,143,107406,2,0,P|228:197|226:244,1,80,0|2,0:0|0:0,0:0:0:0:
136,275,107765,2,0,P|195:307|233:311,1,80,4|0,0:0|0:0,0:0:0:0:
298,238,108125,2,0,P|290:298|291:336,1,80,2|0,0:0|0:0,0:0:0:0:
397,258,108484,5,10,0:0:0:0:
397,258,108664,2,0,P|418:206|412:169,1,80
316,172,109023,1,2,0:0:0:0:
316,172,109202,2,0,P|293:116|261:93,1,80,4|0,0:0|0:0,0:0:0:0:
113,143,109562,5,2,0:0:0:0:
113,143,109741,2,0,P|168:167|205:164,1,80,0|10,0:0|0:0,0:0:0:0:
296,164,110101,1,0,0:0:0:0:
296,164,110280,1,0,0:0:0:0:
296,164,110460,1,2,0:0:0:0:
108,156,110819,6,0,P|167:142|201:122,2,80
296,179,111358,5,10,0:0:0:0:
234,274,111538,2,0,L|289:342,1,80
243,140,111897,1,0,0:0:0:0:
281,235,112077,2,0,L|212:298,1,80,6|0,0:0|0:0,0:0:0:0:
179,184,112436,1,0,0:0:0:0:
179,184,112616,2,0,P|209:132|252:94,1,80,0|10,0:0|0:0,0:0:0:0:
349,86,112975,1,0,0:0:0:0:
349,86,113155,2,0,P|315:144|281:165,1,80,0|2,0:0|0:0,0:0:0:0:
171,126,113514,5,4,0:0:0:0:
171,126,113694,2,0,P|217:101|256:88,1,80,0|2,0:0|0:0,0:0:0:0:
262,212,114053,1,0,0:0:0:0:
262,212,114232,2,0,P|316:190|349:166,1,80,10|0,0:0|0:0,0:0:0:0:
401,115,114592,2,0,P|428:172|428:219,1,80
242,299,114951,2,0,P|305:279|340:280,1,80,6|0,0:0|0:0,0:0:0:0:
431,287,115310,2,0,P|401:332|373:352,1,80
322,272,115670,6,0,P|269:267|231:257,1,80,10|0,0:0|0:0,0:0:0:0:
171,167,116029,2,0,P|147:209|133:256,2,80,0|2|4,0:0|0:0|0:0,0:0:0:0:
254,116,116568,1,0,0:0:0:0:
254,116,116747,2,0,L|260:213,1,80,2|0,0:0|0:0,0:0:0:0:
354,248,117107,2,0,L|350:161,1,80,10|0,0:0|0:0,0:0:0:0:
184,78,117466,2,0,L|188:161,1,80
333,206,117825,2,0,L|328:121,1,80,6|0,0:0|0:0,0:0:0:0:
169,77,118185,1,0,0:0:0:0:
179,205,118364,1,0,0:0:0:0:
294,122,118544,1,10,0:0:0:0:
150,74,118723,5,0,0:0:0:0:
251,27,118903,1,0,0:0:0:0:
214,180,119083,1,2,0:0:0:0:
336,149,119262,5,4,0:0:0:0:
336,149,119442,2,0,L|359:258,1,80,0|2,0:0|0:0,0:0:0:0:
205,210,119801,1,0,0:0:0:0:
205,210,119981,2,0,L|288:275,1,80,10|0,0:0|0:0,0:0:0:0:
169,329,120340,1,0,0:0:0:0:
169,329,120520,2,0,L|275:354,1,80,2|4,0:0|0:0,0:0:0:0:
340,296,120879,1,0,0:0:0:0:
340,296,121059,2,0,P|312:236|309:205,1,80,2|0,0:0|0:0,0:0:0:0:
367,104,121418,6,0,P|408:154|414:190,2,80,10|0|0,0:0|0:0|0:0,0:0:0:0:
260,93,121957,1,2,0:0:0:0:
351,184,122137,1,4,0:0:0:0:
351,184,122226,1,0,0:0:0:0:
351,184,122316,1,0,0:0:0:0:
288,62,122496,1,0,0:0:0:0:
283,244,122676,1,0,0:0:0:0:
191,143,122855,6,0,P|240:112|270:108,1,80,10|0,0:0|0:0,0:0:0:0:
300,214,123214,2,0,P|351:194|386:189,1,80
475,178,123574,1,4,0:0:0:0:
416,293,123933,6,0,P|401:243|369:221,1,80
281,187,124292,2,0,P|270:239|277:280,1,80,10|0,0:0|0:0,0:0:0:0:
397,181,124652,2,0,P|342:106|265:94,1,160,0|4,0:0|0:0,0:0:0:0:
132,141,125370,5,0,0:0:0:0:
132,141,125550,2,0,P|187:114|223:109,1,80,0|10,0:0|0:0,0:0:0:0:
216,202,125909,2,0,P|254:232|279:278,1,80
274,357,126448,1,4,0:0:0:0:
314,279,126807,6,0,P|311:231|321:196,1,80
396,224,127167,2,0,P|421:178|449:159,1,80,10|0,0:0|0:0,0:0:0:0:
436,58,127526,2,0,P|518:112|535:192,1,160,0|4,0:0|0:0,0:0:0:0:
485,260,128065,1,0,0:0:0:0:
485,260,128244,1,0,0:0:0:0:
485,260,128424,1,0,0:0:0:0:
410,158,128604,6,0,P|368:188|342:229,1,80,10|0,0:0|0:0,0:0:0:0:
270,163,128963,2,0,P|269:217|286:261,1,80
312,340,129322,2,0,P|203:313|176:255,1,160,4|0,0:0|0:0,0:0:0:0:
214,98,130041,6,0,P|233:156|244:179,1,80,10|0,0:0|0:0,0:0:0:0:
348,157,130400,2,0,P|314:206|301:249,1,80
272,319,130759,1,4,0:0:0:0:
160,251,131119,5,0,0:0:0:0:
160,251,131298,2,0,L|182:163,1,80,0|10,0:0|0:0,0:0:0:0:
278,215,131658,1,0,0:0:0:0:
278,215,131837,2,0,L|253:130,1,80
368,128,132197,1,4,0:0:0:0:
368,128,132376,2,0,L|295:66,1,80
199,75,132735,1,0,0:0:0:0:
101,133,132915,2,0,P|183:188|250:173,2,160,10|0|4,0:0|0:0|0:0,0:0:0:0:
63,55,133813,5,0,0:0:0:0:
63,55,133903,1,0,0:0:0:0:
63,55,133993,1,0,0:0:0:0:
79,210,134173,1,0,0:0:0:0:
202,121,134352,2,0,P|206:171|223:209,1,80,10|0,0:0|0:0,0:0:0:0:
299,171,134711,2,0,P|304:229|283:261,1,80
204,298,135071,5,4,0:0:0:0:
204,298,135250,2,0,P|149:302|113:275,1,80
70,154,135610,1,0,0:0:0:0:
70,154,135789,2,0,P|129:157|161:183,1,80,10|0,0:0|0:0,0:0:0:0:
146,268,136149,2,0,P|197:239|231:234,1,80
252,125,136508,2,0,P|293:170|314:207,1,80,4|0,0:0|0:0,0:0:0:0:
314,309,136867,2,0,P|340:260|367:235,1,80
425,192,137226,5,10,0:0:0:0:
447,268,137406,1,0,0:0:0:0:
494,137,137586,1,0,0:0:0:0:
354,194,137765,1,0,0:0:0:0:
486,204,137945,1,4,0:0:0:0:
300,118,138125,1,0,0:0:0:0:
403,247,138304,1,0,0:0:0:0:
422,91,138484,1,0,0:0:0:0:
360,271,138843,5,0,0:0:0:0:
381,95,139023,1,4,0:0:0:0:
284,325,139382,5,0,0:0:0:0:
315,145,139562,2,0,L|333:56,1,80
185,95,140101,6,0,P|173:139|186:182,1,80,6|0,0:0|0:0,0:0:0:0:
301,238,140460,1,0,0:0:0:0:
301,238,140640,2,0,P|313:175|305:140,1,80,0|2,0:0|0:0,0:0:0:0:
159,221,140999,1,0,0:0:0:0:
159,221,141179,2,0,P|154:271|160:314,1,80
295,271,141538,1,6,0:0:0:0:
295,271,141717,2,0,P|341:262|388:273,1,80
461,302,142077,5,2,0:0:0:0:
461,302,142167,1,0,0:0:0:0:
461,302,142256,1,0,0:0:0:0:
412,142,142436,1,2,0:0:0:0:
479,253,142795,5,0,0:0:0:0:
327,116,142975,2,0,L|279:197,1,80,6|0,0:0|0:0,0:0:0:0:
468,58,143334,1,0,0:0:0:0:
348,195,143514,2,0,L|379:283,1,80,2|0,0:0|0:0,0:0:0:0:
440,168,143873,1,2,0:0:0:0:
274,227,144053,1,0,0:0:0:0:
414,326,144232,1,2,0:0:0:0:
424,180,144592,6,0,L|342:224,1,80,0|2,0:0|0:0,0:0:0:0:
280,123,144951,2,0,L|246:218,1,80
125,169,145310,2,0,L|172:243,1,80,0|4,0:0|0:0,0:0:0:0:
265,292,145849,6,0,P|256:244|263:205,1,80,6|0,0:0|0:0,0:0:0:0:
374,122,146208,1,0,0:0:0:0:
374,122,146388,2,0,P|383:187|378:228,1,80,0|2,0:0|0:0,0:0:0:0:
190,171,146747,1,0,0:0:0:0:
190,171,146927,2,0,P|257:164|284:176,1,80
319,319,147286,1,6,0:0:0:0:
319,319,147466,2,0,P|365:328|405:318,1,80
459,243,147825,5,2,0:0:0:0:
459,243,147915,1,0,0:0:0:0:
459,243,148005,1,0,0:0:0:0:
227,216,148185,1,2,0:0:0:0:
260,72,148544,5,0,0:0:0:0:
142,169,148723,2,0,P|156:210|189:237,1,80,6|0,0:0|0:0,0:0:0:0:
308,211,149083,1,0,0:0:0:0:
114,271,149262,2,0,P|142:310|186:333,1,80,2|0,0:0|0:0,0:0:0:0:
292,332,149622,1,2,0:0:0:0:
180,222,149801,1,0,0:0:0:0:
349,175,149981,1,2,0:0:0:0:
205,131,150340,6,0,L|260:70,1,80,0|2,0:0|0:0,0:0:0:0:
263,241,150699,2,0,L|269:155,1,80
369,277,151059,2,0,L|329:199,1,80,0|4,0:0|0:0,0:0:0:0:
264,75,151598,6,0,P|215:117|206:151,1,80,6|0,0:0|0:0,0:0:0:0:
160,243,151957,1,0,0:0:0:0:
160,243,152137,2,0,P|231:260|257:251,1,80,0|2,0:0|0:0,0:0:0:0:
198,92,152496,1,0,0:0:0:0:
198,92,152676,2,0,P|133:102|110:115,1,80
305,215,153035,1,6,0:0:0:0:
305,215,153214,2,0,P|336:152|327:118,1,80
270,59,153574,5,2,0:0:0:0:
270,59,153664,1,0,0:0:0:0:
270,59,153753,1,0,0:0:0:0:
391,159,153933,1,2,0:0:0:0:
229,125,154292,5,0,0:0:0:0:
350,218,154472,2,0,P|314:257|275:264,1,80,6|0,0:0|0:0,0:0:0:0:
310,70,154831,1,0,0:0:0:0:
266,213,155011,2,0,P|205:201|177:181,1,80,2|0,0:0|0:0,0:0:0:0:
223,83,155370,1,2,0:0:0:0:
339,162,155550,1,0,0:0:0:0:
192,224,155729,1,2,0:0:0:0:
218,102,156089,6,0,L|297:171,1,80,0|2,0:0|0:0,0:0:0:0:
211,227,156448,2,0,L|297:240,1,80
287,335,156807,2,0,L|362:290,1,80,0|4,0:0|0:0,0:0:0:0:
357,147,157346,6,0,P|370:198|399:225,1,80,6|0,0:0|0:0,0:0:0:0:
474,129,157705,1,0,0:0:0:0:
474,129,157885,2,0,P|419:104|371:107,1,80,0|2,0:0|0:0,0:0:0:0:
265,226,158244,1,0,0:0:0:0:
265,226,158424,2,0,P|315:231|351:212,1,80
275,73,158783,1,6,0:0:0:0:
275,73,158963,2,0,P|222:107|199:138,1,80
293,219,159322,5,2,0:0:0:0:
293,219,159412,1,0,0:0:0:0:
293,219,159502,1,0,0:0:0:0:
338,47,159682,1,2,0:0:0:0:
234,226,160041,5,0,0:0:0:0:
175,108,160220,2,0,P|216:83|257:70,1,80,6|0,0:0|0:0,0:0:0:0:
250,313,160580,1,0,0:0:0:0:
129,227,160759,2,0,P|169:186|206:165,1,80,2|0,0:0|0:0,0:0:0:0:
316,334,161119,1,0,0:0:0:0:
316,162,161298,1,2,0:0:0:0:
156,278,161478,1,0,0:0:0:0:
209,151,161658,5,2,0:0:0:0:
320,233,161837,1,0,0:0:0:0:
265,75,162017,1,0,0:0:0:0:
305,187,162197,1,0,0:0:0:0:
370,78,162376,1,6,0:0:0:0:
393,83,162466,1,0,0:0:0:0:
409,100,162556,1,0,0:0:0:0:
420,121,162646,1,0,0:0:0:0:
423,144,162735,1,2,0:0:0:0:
256,192,163095,12,0,165969,0:0:0:0:
125,144,186089,6,0,P|128:208|154:272,1,120.000004577637,2|0,0:0|0:0,0:0:0:0:
196,161,187526,2,0,P|206:235|219:289,1,120.000004577637,2|0,0:0|0:0,0:0:0:0:
273,198,188963,2,0,L|288:325,1,120.000004577637,2|0,0:0|0:0,0:0:0:0:
309,98,190400,6,0,P|329:170|361:208,1,120.000004577637,2|0,0:0|0:0,0:0:0:0:
435,214,190939,1,0,0:0:0:0:
379,140,191119,2,0,P|342:170|333:201,1,60.0000022888184,2|0,0:0|0:0,0:0:0:0:
298,263,191478,1,0,0:0:0:0:
262,110,191837,6,0,P|208:154|144:153,1,120.000004577637,2|0,0:0|0:0,0:0:0:0:
82,99,192915,1,0,0:0:0:0:
82,99,193274,2,0,P|57:170|74:221,1,120.000004577637,2|0,0:0|0:0,0:0:0:0:
174,126,194352,1,0,0:0:0:0:
174,126,194711,2,0,P|242:125|299:137,1,120.000004577637,2|0,0:0|0:0,0:0:0:0:
397,105,195250,6,0,L|351:234,1,120.000004577637
249,222,195789,2,0,P|255:271|268:293,1,60.0000022888184
346,335,196149,6,0,P|365:257|364:206,1,120.000004577637,2|0,0:0|0:0,0:0:0:0:
292,244,196867,2,0,P|274:165|246:123,1,120.000004577637
151,87,197586,5,2,0:0:0:0:
291,104,197945,1,0,0:0:0:0:
152,85,198304,1,0,0:0:0:0:
206,166,198664,6,0,P|257:167|272:171,4,60.0000022888184,4|0|12|0|8,0:0|0:0|0:0|0:0|0:0,0:0:0:0:
98,186,199741,1,0,0:0:0:0:
276,151,200460,6,0,P|245:222|232:269,1,120.000004577637,2|0,0:0|0:0,0:0:0:0:
356,259,201179,1,0,0:0:0:0:
333,83,201538,2,0,P|350:118|350:147,4,60.0000022888184,4|0|12|0|8,0:0|0:0|0:0|0:0|0:0,0:0:0:0:
228,46,202616,1,0,0:0:0:0:
251,130,203334,5,2,0:0:0:0:
365,146,203694,1,0,0:0:0:0:
483,162,204053,1,0,0:0:0:0:
281,227,204412,6,0,L|340:245,4,60.0000022888184,4|0|12|0|8,0:0|0:0|0:0|0:0|0:0,0:0:0:0:
399,132,205490,2,0,P|427:215|430:273,1,120.000004577637,2|0,0:0|0:0,0:0:0:0:
323,317,206029,5,0,0:0:0:0:
303,172,206209,2,0,L|196:256,1,120.000004577637,10|0,0:0|0:0,0:0:0:0:
322,250,206747,1,0,0:0:0:0:
296,95,206927,2,0,L|399:178,1,120.000004577637,12|0,0:0|0:0,0:0:0:0:
258,172,207466,1,0,0:0:0:0:
199,64,207646,6,0,P|156:77|135:96,2,60.0000022888184,12|0|8,0:0|0:0|0:0,0:0:0:0:
80,136,208364,5,0,0:0:0:0:
152,226,208544,1,0,0:0:0:0:
256,53,208723,1,0,0:0:0:0:
272,175,209083,5,6,0:0:0:0:
272,175,209173,1,0,0:0:0:0:
272,175,209262,1,0,0:0:0:0:
351,97,209442,1,0,0:0:0:0:
351,97,209622,2,0,P|387:161|393:190,1,80,0|2,0:0|0:0,0:0:0:0:
232,223,209981,1,0,0:0:0:0:
232,223,210161,2,0,P|249:279|272:298,1,80
427,189,210520,1,6,0:0:0:0:
427,189,210699,2,0,P|414:121|396:98,1,80
238,82,211059,5,2,0:0:0:0:
337,203,211238,1,0,0:0:0:0:
403,62,211418,1,2,0:0:0:0:
218,137,211777,5,0,0:0:0:0:
347,245,211957,2,0,P|355:176|369:145,1,80,6|0,0:0|0:0,0:0:0:0:
241,295,212316,1,0,0:0:0:0:
425,280,212496,2,0,P|391:236|379:197,1,80,2|0,0:0|0:0,0:0:0:0:
328,112,212855,2,0,P|376:103|418:114,2,80,2|0|2,0:0|0:0|0:0,0:0:0:0:
332,233,213394,1,4,0:0:0:0:
332,233,213484,1,0,0:0:0:0:
332,233,213574,1,0,0:0:0:0:
311,91,213753,1,2,0:0:0:0:
437,157,213933,1,0,0:0:0:0:
187,143,214113,6,0,P|236:151|272:172,2,80,0|0|4,0:0|0:0|0:0,0:0:0:0:
65,139,214831,5,6,0:0:0:0:
65,139,214921,1,0,0:0:0:0:
65,139,215011,1,0,0:0:0:0:
154,272,215191,1,0,0:0:0:0:
154,272,215370,2,0,P|212:260|242:240,1,80,0|2,0:0|0:0,0:0:0:0:
270,84,215729,1,0,0:0:0:0:
270,84,215909,2,0,P|213:97|188:111,1,80
302,270,216268,1,6,0:0:0:0:
302,270,216448,2,0,P|370:254|396:231,1,80
378,119,216807,5,2,0:0:0:0:
260,240,216987,1,0,0:0:0:0:
425,278,217167,1,2,0:0:0:0:
369,124,217526,5,0,0:0:0:0:
228,156,217705,2,0,P|242:199|271:223,1,80,6|0,0:0|0:0,0:0:0:0:
350,60,218065,1,0,0:0:0:0:
352,250,218244,2,0,P|406:248|436:226,1,80,2|0,0:0|0:0,0:0:0:0:
476,79,218604,2,0,P|484:128|474:168,2,80,2|0|2,0:0|0:0|0:0,0:0:0:0:
341,121,219143,1,4,0:0:0:0:
341,121,219232,1,0,0:0:0:0:
341,121,219322,1,0,0:0:0:0:
357,256,219502,1,2,0:0:0:0:
458,158,219682,1,0,0:0:0:0:
265,211,219861,6,0,L|243:300,2,80,0|0|4,0:0|0:0|0:0,0:0:0:0:
287,94,220580,5,6,0:0:0:0:
287,94,220670,1,0,0:0:0:0:
287,94,220759,1,0,0:0:0:0:
139,186,220939,1,0,0:0:0:0:
139,186,221119,2,0,P|203:183|232:188,1,80,0|2,0:0|0:0,0:0:0:0:
199,323,221478,1,0,0:0:0:0:
199,323,221658,2,0,P|146:333|104:320,1,80
210,168,222017,1,6,0:0:0:0:
210,168,222197,2,0,P|258:161|303:170,1,80
343,260,222556,5,2,0:0:0:0:
188,228,222735,1,0,0:0:0:0:
303,117,222915,1,2,0:0:0:0:
358,258,223274,5,0,0:0:0:0:
282,110,223454,2,0,P|331:105|365:84,1,80,6|0,0:0|0:0,0:0:0:0:
389,201,223813,1,0,0:0:0:0:
247,274,223993,2,0,P|247:216|219:188,1,80,2|0,0:0|0:0,0:0:0:0:
99,117,224352,2,0,P|144:115|177:141,2,80,2|0|2,0:0|0:0|0:0,0:0:0:0:
28,215,224891,1,4,0:0:0:0:
28,215,224981,1,0,0:0:0:0:
28,215,225071,1,0,0:0:0:0:
139,113,225250,1,2,0:0:0:0:
174,257,225430,1,0,0:0:0:0:
286,162,225610,6,0,P|330:149|367:154,2,80,0|0|4,0:0|0:0|0:0,0:0:0:0:
185,275,226328,6,0,P|224:297|263:300,1,80,6|0,0:0|0:0,0:0:0:0:
352,277,226688,1,0,0:0:0:0:
352,277,226867,2,0,P|332:228|334:178,1,80,0|2,0:0|0:0,0:0:0:0:
431,191,227226,1,0,0:0:0:0:
431,191,227406,2,0,P|422:136|410:101,1,80
283,62,227765,1,6,0:0:0:0:
283,62,227945,2,0,P|229:79|201:95,1,80
199,217,228304,5,6,0:0:0:0:
199,217,228394,1,0,0:0:0:0:
199,217,228484,1,0,0:0:0:0:
127,52,228664,1,2,0:0:0:0:
238,268,229023,5,0,0:0:0:0:
195,99,229202,2,0,P|237:83|280:80,1,80,6|0,0:0|0:0,0:0:0:0:
400,49,229562,1,0,0:0:0:0:
342,221,229741,2,0,P|280:215|246:201,1,80,2|0,0:0|0:0,0:0:0:0:
172,107,230101,1,2,0:0:0:0:
331,98,230280,1,0,0:0:0:0:
253,246,230460,1,2,0:0:0:0:
189,109,230640,5,2,0:0:0:0:
188,269,230819,1,0,0:0:0:0:
265,146,230999,1,0,0:0:0:0:
359,283,231179,1,0,0:0:0:0:
146,206,231358,1,6,0:0:0:0:
160,186,231448,1,0,0:0:0:0:
179,172,231538,1,0,0:0:0:0:
200,161,231628,1,0,0:0:0:0:
223,155,231717,1,6,0:0:0:0:
256,192,232077,12,0,234951,0:0:0:0:
