osu file format v14

[General]
AudioFilename: audio.mp3
AudioLeadIn: 0
PreviewTime: 139292
Countdown: 0
SampleSet: Soft
StackLeniency: 0.5
Mode: 0
LetterboxInBreaks: 0
WidescreenStoryboard: 0

[Editor]
Bookmarks: 111358,122855,186089,196957
DistanceSpacing: 1.3
BeatDivisor: 4
GridSize: 4
TimelineZoom: 2.2

[Metadata]
Title:GLORIOUS DAYS
TitleUnicode:GLORIOUS DAYS
Artist:yuiko
ArtistUnicode:yuiko
Creator:Garden
Version:Kalibe's Hard
Source:恋×シンアイ彼女
Tags:Kalibe full version koikake koi kakeru shinai kanojo us:track Primary SHUTTER*GIRL meis clauson yuikonnu visual novel galge eroge
BeatmapID:1194485
BeatmapSetID:557022

[Difficulty]
HPDrainRate:5
CircleSize:3.8
OverallDifficulty:6
ApproachRate:7.5
SliderMultiplier:1.45
SliderTickRate:1

[Events]
//Background and Video events
0,0,"BG.jpg",0,0
//Break Periods
2,186289,196042
//Storyboard Layer 0 (Background)
//Storyboard Layer 1 (Fail)
//Storyboard Layer 2 (Pass)
//Storyboard Layer 3 (Foreground)
//Storyboard Sound Samples

[TimingPoints]
700,359.281437125748,4,2,1,40,1,0
700,-133.333333333333,4,2,1,40,0,0
1059,-133.333333333333,4,2,1,25,0,0
1238,-133.333333333333,4,2,1,35,0,0
1598,-133.333333333333,4,2,1,40,0,0
2137,-133.333333333333,4,2,1,40,0,0
2496,-133.333333333333,4,2,1,25,0,0
2676,-133.333333333333,4,2,1,35,0,0
3035,-133.333333333333,4,2,1,40,0,0
3574,-133.333333333333,4,2,1,40,0,0
3933,-133.333333333333,4,2,1,25,0,0
4113,-133.333333333333,4,2,1,35,0,0
4472,-133.333333333333,4,2,1,40,0,0
5011,-133.333333333333,4,2,1,40,0,0
5370,-133.333333333333,4,2,1,25,0,0
5729,-133.333333333333,4,2,1,40,0,0
6089,-133.333333333333,4,2,1,25,0,0
6448,-133.333333333333,4,2,1,40,0,0
6807,-133.333333333333,4,2,1,25,0,0
6987,-133.333333333333,4,2,1,35,0,0
7346,-200,4,2,1,40,0,0
7885,-133.333333333333,4,2,1,40,0,0
8244,-133.333333333333,4,2,1,25,0,0
8424,-133.333333333333,4,2,1,35,0,0
9322,-133.333333333333,4,2,1,40,0,0
10220,-133.333333333333,4,2,1,40,0,0
10580,-133.333333333333,4,2,1,25,0,0
10759,-200,4,2,1,30,0,0
11119,-200,4,2,1,40,0,0
11478,-200,4,2,1,50,0,0
11837,-200,4,2,1,60,0,0
13454,-100,4,2,1,45,0,0
13634,-100,4,2,1,70,0,0
14981,-100,4,2,1,5,0,0
15071,-100,4,2,1,70,0,0
16418,-100,4,2,1,5,0,0
16508,-100,4,2,1,70,0,0
20729,-100,4,2,1,5,0,0
20819,-100,4,2,1,70,0,0
22167,-100,4,2,1,5,0,0
22256,-100,4,2,1,70,0,0
25041,-100,4,2,1,5,0,0
25131,-133.333333333333,4,2,1,60,0,0
36089,-133.333333333333,4,2,1,70,0,0
36268,-83.3333333333333,4,2,1,70,0,0
36538,-83.3333333333333,4,2,1,5,0,0
36628,-100,4,2,1,70,0,0
48125,-133.333333333333,4,2,1,70,0,0
58723,-100,4,2,1,70,0,0
58993,-100,4,2,1,5,0,0
59083,-100,4,2,1,70,0,0
59622,-100,4,2,1,70,0,0
64023,-100,4,2,1,5,0,0
64113,-100,4,2,1,70,0,0
64652,-133.333333333333,4,2,1,50,0,0
65370,-95.2380952380952,4,2,1,80,0,1
70310,-90.9090909090909,4,2,1,5,0,1
70400,-90.9090909090909,4,2,1,80,0,1
80370,-90.9090909090909,4,2,1,5,0,1
80460,-90.9090909090909,4,2,1,80,0,1
81089,-90.9090909090909,4,2,1,5,0,1
81179,-90.9090909090909,4,2,1,80,0,1
81807,-90.9090909090909,4,2,1,5,0,1
81897,-90.9090909090909,4,2,1,80,0,1
82616,-90.9090909090909,4,2,1,80,0,1
88005,-133.333333333333,4,2,1,80,0,1
88274,-133.333333333333,4,2,1,5,0,1
88364,-100,4,2,1,70,0,0
89711,-100,4,2,1,5,0,0
89801,-100,4,2,1,70,0,0
91149,-100,4,2,1,5,0,0
91238,-100,4,2,1,70,0,0
95460,-100,4,2,1,5,0,0
95550,-100,4,2,1,70,0,0
96897,-100,4,2,1,5,0,0
96987,-100,4,2,1,70,0,0
99771,-100,4,2,1,5,0,0
99861,-111.111111111111,4,2,1,70,0,0
109921,-133.333333333333,4,2,1,50,0,0
110819,-133.333333333333,4,2,1,60,0,0
110999,-111.111111111111,4,2,1,70,0,0
111268,-111.111111111111,4,2,1,5,0,0
111358,-100,4,2,1,70,0,0
122855,-133.333333333333,4,2,1,70,0,0
133454,-100,4,2,1,70,0,0
133723,-100,4,2,1,5,0,0
133813,-100,4,2,1,70,0,0
134352,-100,4,2,1,70,0,0
138753,-100,4,2,1,5,0,0
138843,-100,4,2,1,70,0,0
139382,-133.333333333333,4,2,1,50,0,0
140101,-90.9090909090909,4,2,1,80,0,1
145041,-90.9090909090909,4,2,1,5,0,1
145131,-90.9090909090909,4,2,1,80,0,1
154831,-90.9090909090909,4,2,1,80,0,1
155101,-90.9090909090909,4,2,1,5,0,1
155191,-90.9090909090909,4,2,1,80,0,1
155819,-90.9090909090909,4,2,1,5,0,1
155909,-90.9090909090909,4,2,1,80,0,1
156538,-90.9090909090909,4,2,1,5,0,1
156628,-90.9090909090909,4,2,1,80,0,1
157346,-90.9090909090909,4,2,1,80,0,1
162735,-133.333333333333,4,2,1,80,0,1
163005,-133.333333333333,4,2,1,5,0,1
163095,-100,4,2,1,75,0,0
168035,-100,4,2,1,5,0,0
168125,-100,4,2,1,75,0,0
168843,-83.3333333333333,4,2,1,75,0,0
169113,-83.3333333333333,4,2,1,5,0,0
169202,-100,4,2,1,75,0,0
171987,-100,4,2,1,5,0,0
172077,-100,4,2,1,75,0,0
179532,-100,4,2,1,5,0,0
179622,-100,4,2,1,75,0,0
180340,-83.3333333333333,4,2,1,75,0,0
180610,-100,4,2,1,5,0,0
180699,-100,4,2,1,75,0,0
185370,-117.647058823529,4,2,1,75,0,0
196867,-133.333333333333,4,2,1,50,0,0
197137,-133.333333333333,4,2,1,5,0,0
197226,-133.333333333333,4,2,1,60,0,0
197496,-133.333333333333,4,2,1,5,0,0
197586,-133.333333333333,4,2,1,60,0,0
203244,-133.333333333333,4,2,1,5,0,0
203334,-133.333333333333,4,2,1,60,0,0
208364,-133.333333333333,4,2,1,50,0,0
208993,-133.333333333333,4,2,1,5,0,0
209083,-90.9090909090909,4,2,1,80,0,1
214023,-90.9090909090909,4,2,1,5,0,1
214113,-90.9090909090909,4,2,1,80,0,1
223813,-90.9090909090909,4,2,1,80,0,1
224083,-90.9090909090909,4,2,1,5,0,1
224173,-90.9090909090909,4,2,1,80,0,1
224801,-90.9090909090909,4,2,1,5,0,1
224891,-90.9090909090909,4,2,1,80,0,1
225520,-90.9090909090909,4,2,1,5,0,1
225610,-90.9090909090909,4,2,1,80,0,1
226328,-90.9090909090909,4,2,1,80,0,1
231717,-133.333333333333,4,2,1,80,0,1
231987,-133.333333333333,4,2,1,5,0,1
232077,-100,4,2,1,70,0,0
233424,-100,4,2,1,5,0,0
233514,-100,4,2,1,70,0,0
234861,-100,4,2,1,5,0,0
234951,-100,4,2,1,70,0,0
239173,-100,4,2,1,5,0,0
239262,-100,4,2,1,70,0,0
240610,-100,4,2,1,5,0,0
240699,-100,4,2,1,70,0,0
243214,-100,4,2,1,60,0,0
243664,-100,4,2,1,50,0,0
245011,-100,4,2,1,35,0,0
246448,-100,4,2,1,20,0,0
247885,-100,4,2,1,10,0,0
249322,-100,4,2,1,5,0,0

[Colours]
Combo1 : 255,255,155
Combo2 : 255,38,255
Combo3 : 255,146,94
Combo4 : 255,159,255

[HitObjects]
48,336,700,6,0,P|105:325|164:312,1,108.750004148483,2|0,0:0|0:0,0:0:0:0:
116,224,1238,2,0,P|169:234|222:245,1,108.750004148483,0|2,0:0|0:0,0:0:0:0:
329,267,2137,6,0,P|271:256|213:243,1,108.750004148483,2|0,0:0|0:0,0:0:0:0:
154,314,2675,2,0,P|100:324|47:335,1,108.750004148483,0|2,0:0|0:0,0:0:0:0:
47,335,3574,6,0,P|54:280|64:210,1,108.750004148483,2|0,0:0|0:0,0:0:0:0:
147,179,4113,2,0,P|139:125|132:71,1,108.750004148483,0|2,0:0|0:0,0:0:0:0:
132,71,5011,6,0,P|195:54|239:56,1,108.750004148483,2|0,0:0|0:0,0:0:0:0:
386,183,5729,2,0,P|331:183|279:167,1,108.750004148483,2|0,0:0|0:0,0:0:0:0:
92,224,6448,6,0,P|84:277|77:331,1,108.750004148483,2|0,0:0|0:0,0:0:0:0:
168,372,6987,2,0,P|175:318|182:264,1,108.750004148483,0|2,0:0|0:0,0:0:0:0:
181,264,7885,6,0,P|240:254|300:250,1,108.750004148483,2|0,0:0|0:0,0:0:0:0:
343,168,8424,2,0,P|288:163|235:154,1,108.750004148483,2|2,0:0|0:0,0:0:0:0:
259,381,9322,5,2,0:0:0:0:
259,381,10220,2,0,B|256:344|276:316|276:316|264:268,1,108.750004148483,2|0,0:0|0:0,0:0:0:0:
288,192,10759,5,2,0:0:0:0:
173,212,11119,1,2,0:0:0:0:
216,88,11478,1,2,0:0:0:0:
266,277,11837,1,2,0:0:0:0:
425,209,13454,5,0,1:0:0:0:
425,209,13544,1,0,1:0:0:0:
425,209,13634,2,0,B|359:163|350:231|287:191,1,145,4|0,1:2|1:0,0:0:0:0:
208,127,14173,2,0,L|161:133,2,36.25,0|0|2,3:0|3:0|3:2,0:0:0:0:
278,54,14532,2,0,P|239:49|201:43,1,72.5,4|2,0:3|1:2,0:0:0:0:
113,84,14891,1,0,0:0:0:0:
20,20,15071,6,0,P|2:66|1:101,1,72.5,2|2,3:2|3:2,0:0:0:0:
40,188,15430,2,0,P|108:209|169:163,1,145,0|2,1:0|3:2,0:0:0:0:
94,116,15969,1,4,0:3:0:0:
28,208,16149,2,0,P|16:272|36:320,1,108.75,2|0,1:2|0:0,0:0:0:0:
53,340,16508,6,0,P|137:332|229:328,1,145,2|0,3:2|1:0,0:0:0:0:
291,367,17047,1,0,0:0:0:0:
291,367,17226,2,0,P|338:364|362:353,1,72.5,2|4,3:2|0:3,0:0:0:0:
460,373,17586,2,0,P|460:336|447:303,1,72.5,2|0,1:2|0:0,0:0:0:0:
356,257,17945,6,0,L|278:242,1,72.5,2|2,3:2|3:2,0:0:0:0:
198,296,18304,1,0,1:0:0:0:
198,296,18484,1,0,0:0:0:0:
131,219,18664,2,0,L|203:206,1,72.5,2|4,3:2|0:3,0:0:0:0:
292,144,19023,2,0,P|224:128|172:116,1,108.75,2|0,1:2|1:0,0:0:0:0:
150,80,19382,6,0,B|109:149|169:149|129:221,1,145,4|0,3:2|1:0,0:0:0:0:
29,203,19921,1,0,0:0:0:0:
29,203,20101,2,0,P|37:238|46:273,1,72.5,2|4,3:2|0:3,0:0:0:0:
200,235,20460,2,0,P|164:226|129:217,1,72.5,2|0,1:2|0:0,0:0:0:0:
180,335,20819,6,0,P|225:334|264:317,1,72.5,2|2,3:2|3:2,0:0:0:0:
340,268,21179,2,0,P|415:278|462:287,1,108.75,0|0,1:0|3:0,0:0:0:0:
480,296,21538,1,2,3:2:0:0:
398,356,21717,1,4,0:3:0:0:
340,268,21897,2,0,P|322:201|311:155,1,108.75,2|0,1:2|0:0,0:0:0:0:
341,120,22256,6,0,P|253:134|211:102,1,145,2|0,3:2|1:0,0:0:0:0:
155,18,22795,1,0,0:0:0:0:
69,73,22975,2,0,P|26:63|-9:55,2,72.5,2|4|2,3:2|0:3|1:2,0:0:0:0:
146,138,23514,1,0,0:0:0:0:
74,210,23694,6,0,P|28:219|-14:226,1,72.5,2|2,3:2|3:2,0:0:0:0:
75,294,24053,2,0,P|118:285|158:277,1,72.5,4|0,1:2|3:0,0:0:0:0:
176,276,24322,1,0,3:0:0:0:
176,276,24412,1,2,1:2:0:0:
269,317,24592,2,0,P|279:271|270:239,1,72.5,4|2,0:3|1:0,0:0:0:0:
223,166,24951,1,0,0:0:0:0:
300,120,25131,6,0,P|355:128|422:138,2,108.750004148483,4|0|0,3:2|3:0|3:0,0:0:0:0:
172,20,26208,1,0,3:0:0:0:
20,80,26568,2,0,P|-8:136|4:184,1,108.750004148483,2|0,3:2|3:0,0:0:0:0:
108,300,27286,1,0,3:0:0:0:
168,244,27466,2,0,P|112:216|64:228,1,108.750004148483,2|0,0:0|0:0,0:0:0:0:
20,292,28005,6,0,L|36:352,1,54.3750020742417,2|0,3:2|0:0,0:0:0:0:
108,300,28364,2,0,L|124:360,1,54.3750020742417,0|0,3:0|0:0,0:0:0:0:
196,320,28723,2,0,P|256:328|316:336,1,108.750004148483,0|0,3:0|3:0,0:0:0:0:
376,292,29262,1,0,0:0:0:0:
444,356,29442,6,0,P|457:294|472:236,1,108.750004148483,2|0,3:2|3:0,0:0:0:0:
404,200,29981,2,0,P|399:171|392:128,1,54.3750020742417,0|0,0:0|3:0,0:0:0:0:
474,127,30340,1,2,0:0:0:0:
474,127,30520,2,0,P|482:99|490:63,1,54.3750020742417,0|0,3:0|0:0,0:0:0:0:
419,29,30879,6,0,P|356:36|301:44,1,108.750004148483,2|0,3:2|3:0,0:0:0:0:
170,125,31598,1,0,3:0:0:0:
205,52,31777,1,2,0:0:0:0:
258,114,31957,2,0,L|318:126,1,54.3750020742417,0|0,3:0|0:0,0:0:0:0:
424,190,32316,6,0,P|358:198|317:206,1,108.750004148483,2|0,3:2|3:0,0:0:0:0:
252,264,32855,2,0,P|187:257|139:245,1,108.750004148483,2|0,0:0|0:0,0:0:0:0:
72,284,33394,2,0,P|65:256|60:216,1,54.3750020742417,0|0,3:0|0:0,0:0:0:0:
12,165,33753,6,0,P|21:138|38:108,1,54.3750020742417,2|0,3:2|0:0,0:0:0:0:
102,159,34113,2,0,P|153:164|204:130,1,108.750004148483,2|0,3:2|3:0,0:0:0:0:
134,85,34652,1,0,0:0:0:0:
207,50,34831,2,0,L|268:62,1,54.3750020742417,2|0,3:2|0:0,0:0:0:0:
336,120,35191,6,0,P|326:172|316:232,1,108.750004148483,2|0,3:2|3:0,0:0:0:0:
240,272,35729,2,0,P|234:246|224:204,1,54.3750020742417,2|0,0:0|0:0,0:0:0:0:
102,159,36089,1,0,1:0:0:0:
84,276,36268,1,0,1:0:0:0:
79,307,36628,6,0,P|157:324|221:343,1,145,4|0,3:2|1:0,0:0:0:0:
280,270,37167,1,0,0:0:0:0:
357,323,37346,2,0,P|366:282|374:245,1,72.5,0|4,3:0|3:0,0:0:0:0:
264,199,37705,2,0,P|271:234|279:269,1,72.5,0|0,1:0|0:0,0:0:0:0:
352,344,38065,6,0,P|414:361|489:316,1,145,0|0,3:0|1:0,0:0:0:0:
509,234,38604,2,0,B|473:213|438:232|438:232|407:249|370:231,1,145,0|2,0:0|0:0,0:0:0:0:
286,187,39143,1,0,1:0:0:0:
227,260,39322,1,0,0:0:0:0:
149,206,39502,6,0,P|101:197|63:191,1,72.5,0|0,3:0|0:0,0:0:0:0:
14,123,39861,2,0,P|55:114|88:109,1,72.5,0|0,1:0|0:0,0:0:0:0:
134,28,40220,2,0,P|94:22|59:16,2,72.5,0|4|0,3:0|3:0|1:0,0:0:0:0:
195,99,40759,1,0,0:0:0:0:
280,59,40939,6,0,B|380:39|380:39|416:61,1,145,0|0,3:0|1:0,0:0:0:0:
480,132,41478,2,0,P|415:161|352:132,1,145,0|2,0:0|0:0,0:0:0:0:
268,88,42017,2,0,L|254:169,1,72.5,0|0,1:0|0:0,0:0:0:0:
240,256,42376,5,0,3:0:0:0:
240,256,42735,2,0,B|324:228|300:296|389:263,1,145,0|0,1:0|3:0,0:0:0:0:
444,184,43274,1,4,3:0:0:0:
510,250,43454,2,0,L|495:322,1,72.5,0|0,1:0|0:0,0:0:0:0:
416,380,43813,6,0,P|326:354|274:339,1,145,0|0,3:0|1:0,0:0:0:0:
168,372,44352,2,0,P|134:297|168:239,1,145,0|2,0:0|0:0,0:0:0:0:
224,168,44891,2,0,L|242:244,1,72.5,0|0,1:0|0:0,0:0:0:0:
265,331,45250,5,0,3:0:0:0:
344,280,45430,1,0,0:0:0:0:
344,280,45610,2,0,P|351:197|363:132,1,145,0|0,1:0|3:0,0:0:0:0:
268,155,46149,2,0,P|257:113|241:74,1,72.5,4|0,3:0|1:0,0:0:0:0:
187,12,46508,1,0,0:0:0:0:
89,53,46688,6,0,P|57:149|65:198,1,145,0|0,3:0|1:0,0:0:0:0:
17,272,47226,1,2,3:2:0:0:
17,272,47316,1,0,3:0:0:0:
17,272,47406,2,0,P|43:284|96:278,1,72.5,0|2,1:0|3:2,0:0:0:0:
169,237,47765,2,0,P|195:225|248:231,1,72.5,0|4,1:0|0:3,0:0:0:0:
320,276,48125,6,0,P|310:336|302:397,2,108.750004148483,4|0|0,3:2|3:0|1:0,0:0:0:0:
243,127,49202,1,2,0:3:0:0:
305,179,49382,2,0,L|332:176,2,27.1875010371209,0|0|0,0:0|0:0|3:0,0:0:0:0:
238,226,49741,6,0,L|168:211,1,54.3750020742417,0|0,0:0|3:0,0:0:0:0:
105,194,50101,1,0,0:0:0:0:
92,276,50280,2,0,L|202:301,1,108.750004148483,0|2,1:0|0:3,0:0:0:0:
265,346,50819,1,0,0:0:0:0:
265,346,50999,6,0,P|318:339|398:332,1,108.750004148483,0|0,3:0|3:0,0:0:0:0:
448,365,51538,1,0,0:0:0:0:
467,285,51717,2,0,L|490:163,1,108.750004148483,0|2,1:0|0:3,0:0:0:0:
447,106,52256,2,0,L|441:60,2,27.1875010371209,0|0|0,3:0|3:0|1:0,0:0:0:0:
377,150,52616,6,0,L|370:94,1,54.3750020742417,4|0,0:3|3:0,0:0:0:0:
358,15,52975,1,0,0:0:0:0:
284,50,53155,2,0,P|213:37|171:33,1,108.750004148483,0|2,1:0|0:3,0:0:0:0:
97,54,53694,1,0,0:0:0:0:
97,54,53873,6,0,L|78:110,1,54.3750020742417,0|0,3:0|0:0,0:0:0:0:
2,131,54232,2,0,L|17:197,1,54.3750020742417,0|0,3:0|0:0,0:0:0:0:
2,265,54592,2,0,P|38:290|109:276,1,108.750004148483,0|2,1:0|0:3,0:0:0:0:
143,213,55131,2,0,L|140:183,2,27.1875010371209,0|0|0,0:0|0:0|3:0,0:0:0:0:
193,278,55490,6,0,P|213:281|259:290,1,54.3750020742417,0|0,0:0|3:0,0:0:0:0:
322,318,55849,1,0,0:0:0:0:
394,280,56029,2,0,P|402:236|372:176,1,108.750004148483,0|2,1:0|0:3,0:0:0:0:
313,127,56568,1,0,3:0:0:0:
248,184,56747,6,0,P|180:171|125:161,1,108.750004148483,0|0,3:0|3:0,0:0:0:0:
62,186,57286,1,0,0:0:0:0:
88,264,57466,2,0,P|152:276|196:248,1,108.750004148483,0|2,1:0|0:3,0:0:0:0:
272,292,58005,5,0,3:0:0:0:
272,292,58095,1,0,3:0:0:0:
272,292,58185,2,0,L|260:352,2,54.3750020742417,0|4|4,1:0|0:3|3:0,0:0:0:0:
344,211,58723,6,0,P|356:263|368:323,1,108.75,4|0,1:2|0:0,0:0:0:0:
372,352,59083,1,0,1:0:0:0:
464,320,59262,2,0,L|459:359,2,36.25,0|0|0,1:0|1:0|3:0,0:0:0:0:
482,220,59622,6,0,P|428:234|334:204,1,145,4|0,3:2|1:0,0:0:0:0:
263,160,60161,2,0,P|214:166|184:179,1,72.5,0|0,0:0|3:0,0:0:0:0:
188,268,60520,2,0,P|222:279|258:282,1,72.5,4|0,3:0|1:0,0:0:0:0:
348,244,60879,1,0,0:0:0:0:
424,336,61059,6,0,P|332:328|284:356,1,145,0|0,3:0|1:0,0:0:0:0:
204,308,61598,1,0,0:0:0:0:
129,364,61777,2,0,B|91:368|91:368|46:350,1,72.5,0|4,3:0|3:0,0:0:0:0:
8,275,62137,2,0,B|40:263|40:263|78:267,1,72.5,0|0,1:0|0:0,0:0:0:0:
129,187,62496,6,0,L|47:178,1,72.5,6|4,3:2|0:3,0:0:0:0:
0,104,62855,1,0,1:0:0:0:
72,36,63035,2,0,P|113:28|158:24,1,72.5,2|0,1:2|1:0,0:0:0:0:
224,92,63394,1,2,3:2:0:0:
224,92,63574,1,0,1:0:0:0:
148,208,63753,6,0,P|201:189|251:203,1,108.75,4|0,1:2|0:0,0:0:0:0:
276,219,64113,1,0,1:0:0:0:
376,196,64292,1,0,1:0:0:0:
376,196,65011,5,2,0:0:0:0:
501,349,65370,6,0,P|407:305|346:300,1,152.249995353699,4|0,1:0|1:0,0:0:0:0:
273,251,65909,1,0,3:0:0:0:
273,251,65999,1,0,3:0:0:0:
273,251,66089,2,0,P|246:261|194:256,1,76.1249976768494,2|0,3:2|0:0,0:0:0:0:
154,169,66448,2,0,P|191:164|227:176,1,76.1249976768494,0|0,1:0|0:0,0:0:0:0:
116,312,66807,6,0,P|96:264|144:173,1,152.249995353699,2|0,3:2|1:0,0:0:0:0:
229,146,67346,1,2,0:0:0:0:
148,88,67526,2,0,L|72:102,2,76.1249976768494,0|4|0,3:0|3:0|1:0,0:0:0:0:
212,12,68065,1,0,0:0:0:0:
286,76,68244,6,0,B|343:59|386:102|386:102|424:88|403:63,1,152.249995353699,2|0,3:2|1:0,0:0:0:0:
320,148,68783,2,0,P|300:240|320:304,1,152.249995353699,2|4,0:0|3:0,0:0:0:0:
383,223,69322,1,0,1:0:0:0:
460,313,69502,6,0,B|384:273|384:336|310:291,1,152.249995353699,0|4,0:0|3:0,0:0:0:0:
220,224,70041,2,0,L|204:340,1,114.187496515274,0|0,1:0|0:0,0:0:0:0:
200,368,70400,1,2,3:2:0:0:
113,310,70580,1,4,3:0:0:0:
22,359,70759,2,0,L|8:275,1,79.7500024337769,0|0,1:0|3:0,0:0:0:0:
4,244,71029,1,0,3:0:0:0:
4,244,71119,6,0,P|99:257|141:217,1,159.500004867554,2|0,3:2|1:0,0:0:0:0:
227,134,71658,2,0,P|164:179|90:160,1,159.500004867554,0|4,0:0|3:0,0:0:0:0:
8,96,72197,2,0,P|44:88|96:76,1,79.7500024337769,0|0,1:0|0:0,0:0:0:0:
176,24,72556,6,0,B|260:4|240:68|336:32,1,159.500004867554,2|0,3:2|1:0,0:0:0:0:
432,12,73095,1,2,0:0:0:0:
432,12,73185,1,0,3:0:0:0:
432,12,73274,2,0,L|408:100,1,79.7500024337769,0|4,3:0|3:0,0:0:0:0:
476,172,73634,2,0,L|500:92,1,79.7500024337769,0|0,1:0|0:0,0:0:0:0:
329,34,73993,6,0,P|340:164|344:200,1,159.500004867554,2|0,3:2|1:0,0:0:0:0:
404,280,74532,2,0,P|328:232|268:252,1,159.500004867554,0|0,3:0|0:0,0:0:0:0:
188,316,75071,1,0,1:0:0:0:
88,284,75250,1,0,0:0:0:0:
164,212,75430,6,0,L|184:296,1,79.7500024337769,2|4,3:2|3:0,0:0:0:0:
249,370,75789,2,0,P|258:307|269:242,1,119.625003650665,4|0,1:2|0:0,0:0:0:0:
272,216,76149,6,0,L|262:163,2,39.8750012168885,2|0|0,1:2|3:0|3:0,0:0:0:0:
392,244,76508,2,0,L|404:204,2,39.8750012168885,2|0|0,1:2|3:0|3:0,0:0:0:0:
332,356,76867,6,0,B|264:324|244:384|176:344,1,159.500004867554,4|0,1:0|1:0,0:0:0:0:
86,296,77406,1,0,3:0:0:0:
86,296,77496,1,0,3:0:0:0:
86,296,77586,2,0,P|79:265|92:215,1,79.7500024337769,2|4,3:2|3:0,0:0:0:0:
182,172,77945,2,0,P|192:210|185:249,1,79.7500024337769,0|0,1:0|0:0,0:0:0:0:
92,128,78304,6,0,L|260:112,1,159.500004867554,2|0,3:2|1:0,0:0:0:0:
326,41,78843,1,0,3:0:0:0:
326,41,79023,2,0,L|244:28,2,79.7500024337769,2|4|0,3:2|3:0|1:0,0:0:0:0:
417,90,79562,1,0,0:0:0:0:
344,163,79741,6,0,P|299:147|256:142,1,79.7500024337769,2|4,3:2|3:0,0:0:0:0:
229,242,80101,2,0,B|313:213|301:277|385:244,1,159.500004867554,4|2,1:2|3:2,0:0:0:0:
458,172,80640,5,4,3:0:0:0:
511,265,80819,2,0,P|439:293|379:233,1,159.500004867554,4|2,1:2|3:2,0:0:0:0:
331,334,81358,5,4,3:0:0:0:
242,279,81538,2,0,B|135:254|135:254|95:292,1,159.500004867554,4|2,1:2|3:2,0:0:0:0:
37,204,82077,5,4,3:0:0:0:
133,167,82256,2,0,L|250:194,1,119.625003650665,4|0,1:2|3:0,0:0:0:0:
288,204,82616,6,0,B|264:132|328:128|284:40,1,159.500004867554,4|0,3:2|1:0,0:0:0:0:
200,96,83155,1,0,3:0:0:0:
200,96,83334,2,0,L|121:79,1,79.7500024337769,2|4,3:2|3:0,0:0:0:0:
53,174,83694,2,0,P|90:170|144:179,1,79.7500024337769,0|0,1:0|0:0,0:0:0:0:
176,276,84053,6,0,P|72:256|12:272,1,159.500004867554,2|0,3:2|1:0,0:0:0:0:
104,344,84592,2,0,P|208:324|268:340,1,159.500004867554,0|4,0:0|3:0,0:0:0:0:
352,379,85131,1,0,1:0:0:0:
370,281,85310,1,0,0:0:0:0:
370,281,85490,6,0,P|446:302|515:251,1,159.500004867554,2|0,3:2|1:0,0:0:0:0:
502,156,86029,1,0,3:0:0:0:
502,156,86208,2,0,L|413:173,1,79.7500024337769,2|4,3:2|3:0,0:0:0:0:
354,249,86568,2,0,L|260:236,1,79.7500024337769,0|0,1:0|0:0,0:0:0:0:
182,189,86927,5,2,3:2:0:0:
257,260,87107,1,4,1:3:0:0:
177,325,87286,2,0,P|137:327|97:311,1,79.7500024337769,6|4,1:2|3:0,0:0:0:0:
64,210,87646,2,0,P|120:200|200:185,1,119.625003650665,2|4,1:2|3:0,0:0:0:0:
212,180,88005,6,0,P|220:136|204:96,1,81.5625031113626,4|0,1:2|0:0,0:0:0:0:
188,72,88364,6,0,P|272:92|324:56,1,145,4|0,1:2|1:0,0:0:0:0:
400,16,88903,1,0,3:0:0:0:
400,16,88993,1,0,3:0:0:0:
400,16,89083,2,0,L|410:101,1,72.5,2|4,3:2|0:3,0:0:0:0:
443,175,89442,2,0,P|378:162|329:153,1,108.75,2|0,1:2|0:0,0:0:0:0:
296,160,89801,6,0,P|268:244|296:292,1,145,2|0,3:2|1:0,0:0:0:0:
384,264,90340,1,0,0:0:0:0:
433,344,90520,2,0,P|393:343|353:353,1,72.5,2|4,3:2|0:3,0:0:0:0:
269,379,90879,2,0,P|203:376|160:346,1,108.75,2|0,1:2|0:0,0:0:0:0:
144,328,91238,6,0,L|163:183,1,145,2|0,3:2|1:0,0:0:0:0:
78,227,91777,1,0,0:0:0:0:
16,155,91957,1,2,3:2:0:0:
16,155,92137,1,4,0:3:0:0:
102,118,92316,2,0,P|133:120|175:135,1,72.5,2|0,1:2|0:0,0:0:0:0:
250,187,92676,6,0,P|281:185|323:170,1,72.5,2|2,3:2|3:2,0:0:0:0:
168,224,93035,2,0,P|139:317|152:372,1,145,0|2,1:0|3:2,0:0:0:0:
232,292,93574,1,4,0:3:0:0:
308,348,93753,2,0,L|387:341,1,72.5,2|0,1:2|3:0,0:0:0:0:
420,352,94023,1,0,1:0:0:0:
420,352,94113,6,0,B|415:301|415:301|429:266|429:266|422:205,1,145,4|0,3:2|1:0,0:0:0:0:
487,142,94652,2,0,B|432:162|432:162|342:136,1,145,0|4,0:0|0:3,0:0:0:0:
266,183,95191,2,0,P|250:128|268:82,1,108.75,2|0,1:2|0:0,0:0:0:0:
292,60,95550,6,0,P|328:48|372:48,1,72.5,2|2,3:2|3:2,0:0:0:0:
419,159,95909,2,0,L|344:136,1,72.5,0|0,1:0|3:0,0:0:0:0:
328,138,96179,1,0,3:0:0:0:
328,138,96268,2,0,L|339:214,1,72.5,2|4,3:2|0:3,0:0:0:0:
290,291,96628,2,0,P|225:276|167:265,1,108.75,2|0,1:2|0:0,0:0:0:0:
155,263,96987,5,2,3:2:0:0:
63,287,97167,1,2,3:2:0:0:
2,215,97346,2,0,P|30:208|85:193,1,72.5,0|0,1:0|0:0,0:0:0:0:
142,134,97705,2,0,P|98:123|56:114,1,72.5,2|4,3:2|0:3,0:0:0:0:
9,45,98065,2,0,P|51:38|106:31,1,72.5,2|0,1:2|0:0,0:0:0:0:
174,23,98424,5,2,3:2:0:0:
174,23,98604,1,2,3:2:0:0:
233,95,98783,2,0,L|221:169,1,72.5,4|0,1:2|3:0,0:0:0:0:
228,193,99053,1,0,3:0:0:0:
228,193,99143,1,2,1:2:0:0:
310,147,99322,1,4,0:3:0:0:
388,212,99502,2,0,P|444:231|505:204,1,108.75,2|0,1:0|0:0,0:0:0:0:
512,200,99861,6,0,L|491:341,2,130.499996017456,4|0|2,3:2|1:0|3:2,0:0:0:0:
456,39,100939,1,0,1:0:0:0:
297,98,101298,2,0,P|211:92|164:73,1,130.499996017456,2|0,3:2|1:0,0:0:0:0:
105,20,101837,2,0,P|125:81|126:146,1,130.499996017456,2|2,0:0|0:0,0:0:0:0:
67,208,102376,2,0,P|26:221|-11:227,1,65.2499980087281,0|0,1:0|0:0,0:0:0:0:
60,288,102735,6,0,P|95:296|124:306,1,65.2499980087281,2|0,3:2|0:0,0:0:0:0:
189,358,103095,2,0,P|224:357|262:353,1,65.2499980087281,0|0,1:0|0:0,0:0:0:0:
331,320,103454,2,0,P|339:248|302:200,1,130.499996017456,2|0,3:2|1:0,0:0:0:0:
236,154,103993,1,0,0:0:0:0:
191,227,104173,6,0,P|256:238|310:198,1,130.499996017456,2|0,3:2|1:0,0:0:0:0:
354,133,104711,2,0,L|494:154,1,130.499996017456,0|0,0:0|0:0,0:0:0:0:
459,70,105250,2,0,L|392:60,1,65.2499980087281,0|0,1:0|0:0,0:0:0:0:
309,52,105610,5,2,3:2:0:0:
288,222,105969,1,0,1:0:0:0:
191,82,106328,2,0,P|186:112|180:153,1,65.2499980087281,2|0,3:2|0:0,0:0:0:0:
101,178,106688,2,0,P|109:218|117:254,1,65.2499980087281,2|0,1:2|0:0,0:0:0:0:
149,319,107047,6,0,P|222:344|279:328,1,130.499996017456,2|0,3:2|1:0,0:0:0:0:
338,279,107586,2,0,P|411:254|468:270,1,130.499996017456,2|0,0:0|0:0,0:0:0:0:
506,337,108125,1,2,1:2:0:0:
429,373,108304,1,0,0:0:0:0:
349,342,108484,6,0,P|340:310|338:263,1,65.2499980087281,2|0,3:2|0:0,0:0:0:0:
388,210,108843,2,0,P|308:195|251:186,1,130.499996017456,2|0,1:2|3:0,0:0:0:0:
183,149,109382,1,0,0:0:0:0:
113,198,109562,2,0,L|127:272,1,65.2499980087281,2|0,1:2|0:0,0:0:0:0:
235,293,109921,6,0,L|259:185,1,108.750004148483,2|0,3:0|0:0,0:0:0:0:
275,106,110460,1,2,0:0:0:0:
351,250,110819,5,0,1:0:0:0:
434,198,110999,2,0,L|444:295,1,97.8749970130921,0|0,1:0|0:0,0:0:0:0:
444,328,111358,6,0,P|394:338|358:351,1,72.5,4|0,3:2|0:0,0:0:0:0:
288,304,111717,2,0,P|205:274|155:293,1,145,0|0,1:0|3:0,0:0:0:0:
63,316,112256,1,4,3:0:0:0:
63,316,112436,2,0,P|64:271|82:232,1,72.5,0|0,1:0|0:0,0:0:0:0:
172,176,112795,6,0,P|88:160|12:148,1,145,0|0,3:0|1:0,0:0:0:0:
49,58,113334,2,0,P|120:69|191:83,1,145,0|2,0:0|0:0,0:0:0:0:
279,117,113873,1,0,1:0:0:0:
359,67,114053,1,0,0:0:0:0:
358,175,114232,6,0,P|350:210|341:245,1,72.5,0|0,3:0|0:0,0:0:0:0:
262,187,114592,2,0,P|269:151|278:116,1,72.5,0|0,1:0|0:0,0:0:0:0:
184,129,114951,2,0,P|175:164|167:199,2,72.5,0|4|0,3:0|3:0|1:0,0:0:0:0:
278,116,115490,1,0,0:0:0:0:
215,45,115670,6,0,B|152:18|132:73|66:37,1,145,0|0,3:0|1:0,0:0:0:0:
12,111,116208,2,0,L|27:258,1,145,0|2,0:0|0:0,0:0:0:0:
103,309,116747,2,0,P|109:273|116:228,1,72.5,0|0,1:0|0:0,0:0:0:0:
131,143,117107,5,0,3:0:0:0:
131,143,117466,2,0,P|211:171|275:153,1,145,0|0,1:0|3:0,0:0:0:0:
338,95,118005,1,4,3:0:0:0:
394,170,118185,2,0,P|386:213|379:256,1,72.5,0|0,1:0|0:0,0:0:0:0:
293,299,118544,6,0,P|276:214|264:142,1,145,0|0,3:0|1:0,0:0:0:0:
319,78,119083,2,0,P|227:65|166:57,1,145,0|2,0:0|0:0,0:0:0:0:
102,118,119622,1,0,1:0:0:0:
102,118,119801,1,0,0:0:0:0:
153,196,119981,6,0,P|141:237|132:275,1,72.5,0|0,3:0|0:0,0:0:0:0:
64,329,120340,2,0,P|139:303|200:319,1,145,0|0,1:0|3:0,0:0:0:0:
278,371,120879,1,4,3:0:0:0:
278,371,121059,2,0,L|357:381,1,72.5,0|0,1:0|0:0,0:0:0:0:
431,303,121418,6,0,L|286:284,1,145,0|0,3:0|1:0,0:0:0:0:
204,238,121957,1,2,3:2:0:0:
204,238,122047,1,0,3:0:0:0:
204,238,122137,2,0,B|196:201|196:201|210:162,1,72.5,0|2,1:0|3:2,0:0:0:0:
297,197,122496,2,0,B|305:160|305:160|293:127,1,72.5,0|4,1:0|0:3,0:0:0:0:
224,76,122855,6,0,P|156:66|113:60,2,108.750004148483,4|0|0,3:2|3:0|1:0,0:0:0:0:
386,96,123933,1,2,0:3:0:0:
451,144,124113,2,0,L|490:138,2,27.1875010371209,0|0|0,0:0|0:0|3:0,0:0:0:0:
388,197,124472,6,0,L|329:186,1,54.3750020742417,0|0,3:0|3:0,0:0:0:0:
271,134,124831,1,0,0:0:0:0:
192,170,125011,2,0,P|174:226|190:272,1,108.750004148483,0|2,1:0|0:3,0:0:0:0:
254,222,125550,1,0,0:0:0:0:
320,269,125729,6,0,P|312:326|303:389,1,108.750004148483,0|0,3:0|3:0,0:0:0:0:
231,341,126268,1,0,0:0:0:0:
231,341,126448,2,0,P|164:352|119:358,1,108.750004148483,0|2,1:0|0:3,0:0:0:0:
60,305,126987,2,0,L|19:300,2,27.1875010371209,0|0|0,3:0|3:0|1:0,0:0:0:0:
111,241,127346,6,0,L|57:230,1,54.3750020742417,4|0,0:3|3:0,0:0:0:0:
16,159,127705,1,0,0:0:0:0:
16,159,127885,2,0,P|63:154|143:146,1,108.750004148483,0|2,1:0|0:3,0:0:0:0:
196,109,128424,1,0,0:0:0:0:
131,59,128604,6,0,P|93:51|76:50,1,54.3750020742417,0|0,3:0|0:0,0:0:0:0:
196,109,128963,2,0,P|245:105|272:98,1,54.3750020742417,0|0,3:0|0:0,0:0:0:0:
124,147,129322,2,0,P|99:201|102:252,1,108.750004148483,0|2,1:0|0:3,0:0:0:0:
138,322,129861,2,0,L|133:366,2,27.1875010371209,0|0|0,0:0|0:0|3:0,0:0:0:0:
213,291,130220,6,0,P|233:288|281:284,1,54.3750020742417,0|0,0:0|3:0,0:0:0:0:
331,235,130580,1,0,0:0:0:0:
366,309,130759,2,0,P|325:315|261:277,1,108.750004148483,0|2,1:0|0:3,0:0:0:0:
230,211,131298,1,0,3:0:0:0:
286,152,131478,6,0,L|406:142,1,108.750004148483,0|0,3:0|3:0,0:0:0:0:
461,96,132017,1,0,0:0:0:0:
389,57,132197,2,0,P|336:68|287:40,1,108.750004148483,0|2,1:0|0:3,0:0:0:0:
216,8,132735,5,0,3:0:0:0:
216,8,132825,1,0,3:0:0:0:
216,8,132915,2,0,L|205:74,2,54.3750020742417,0|4|4,1:0|0:3|3:0,0:0:0:0:
108,28,133454,6,0,P|116:88|124:140,1,108.75,4|0,1:2|0:0,0:0:0:0:
128,168,133813,1,0,1:0:0:0:
36,224,133993,2,0,L|40:176,2,36.25,0|0|0,1:0|1:0|3:0,0:0:0:0:
76,324,134352,6,0,P|164:352|216:320,1,145,4|0,3:2|1:0,0:0:0:0:
287,281,134891,2,0,P|327:288|379:303,1,72.5,0|0,0:0|3:0,0:0:0:0:
450,276,135250,2,0,P|430:325|425:358,2,72.5,4|0|0,3:0|1:0|0:0,0:0:0:0:
508,201,135789,6,0,P|435:233|372:212,1,145,0|0,3:0|1:0,0:0:0:0:
299,159,136328,1,0,0:0:0:0:
299,159,136508,2,0,L|311:77,1,72.5,0|4,3:0|3:0,0:0:0:0:
398,55,136867,2,0,L|411:133,1,72.5,0|0,1:0|0:0,0:0:0:0:
375,214,137226,5,6,3:2:0:0:
299,159,137406,1,4,0:3:0:0:
278,251,137586,1,0,1:0:0:0:
191,214,137765,2,0,B|158:277|220:303|181:360,1,145,2|2,1:2|3:2,0:0:0:0:
95,322,138304,1,0,1:0:0:0:
89,224,138484,6,0,P|149:234|196:207,1,108.75,4|0,1:2|0:0,0:0:0:0:
210,193,138843,1,0,1:0:0:0:
129,143,139023,1,0,1:0:0:0:
129,143,139741,5,2,0:0:0:0:
212,334,140101,6,0,B|231:223|231:223|211:199|181:217,1,159.500004867554,4|0,1:0|1:0,0:0:0:0:
138,308,140640,1,0,3:0:0:0:
138,308,140729,1,0,3:0:0:0:
138,308,140819,2,0,P|177:330|219:332,1,79.7500024337769,2|0,3:2|0:0,0:0:0:0:
302,282,141179,2,0,L|314:195,1,79.7500024337769,0|0,1:0|0:0,0:0:0:0:
392,284,141538,6,0,P|403:205|413:126,1,159.500004867554,2|0,3:2|1:0,0:0:0:0:
357,38,142077,1,2,0:0:0:0:
300,124,142256,2,0,P|306:164|313:208,2,79.7500024337769,0|4|0,3:0|3:0|1:0,0:0:0:0:
226,51,142795,1,0,0:0:0:0:
149,124,142975,6,0,P|47:127|-5:98,1,159.500004867554,2|0,3:2|1:0,0:0:0:0:
50,10,143514,2,0,L|138:24,1,79.7500024337769,2|0,0:0|3:0,0:0:0:0:
226,51,143873,1,4,3:0:0:0:
149,124,144053,2,0,P|139:145|130:212,1,79.7500024337769,0|0,1:0|0:0,0:0:0:0:
192,283,144412,5,2,3:2:0:0:
129,200,144592,1,4,3:0:0:0:
28,224,144771,2,0,P|8:295|22:336,1,119.625003650665,0|0,1:0|0:0,0:0:0:0:
36,364,145131,1,2,3:2:0:0:
113,295,145310,1,4,3:0:0:0:
193,360,145490,2,0,P|242:366|284:370,1,79.7500024337769,0|0,1:0|3:0,0:0:0:0:
308,376,145759,1,0,3:0:0:0:
308,376,145849,6,0,B|321:321|321:321|301:284|301:284|315:222,1,159.500004867554,2|0,3:2|1:0,0:0:0:0:
404,173,146388,2,0,B|444:172|444:172|493:185,2,79.7500024337769,0|2|4,0:0|3:2|3:0,0:0:0:0:
314,224,146927,1,0,1:0:0:0:
400,281,147107,1,0,0:0:0:0:
317,342,147286,6,0,P|266:331|224:320,1,79.7500024337769,2|0,3:2|0:0,0:0:0:0:
156,260,147646,1,0,1:0:0:0:
65,309,147825,1,2,0:0:0:0:
65,309,147915,1,0,3:0:0:0:
65,309,148005,2,0,P|49:262|54:232,1,79.7500024337769,0|4,3:0|3:0,0:0:0:0:
128,160,148364,2,0,P|179:166|231:174,1,79.7500024337769,0|0,1:0|0:0,0:0:0:0:
313,233,148723,6,0,P|240:242|152:260,1,159.500004867554,2|0,3:2|1:0,0:0:0:0:
53,233,149262,1,0,3:0:0:0:
128,160,149442,2,0,P|120:120|112:77,1,79.7500024337769,2|0,3:2|0:0,0:0:0:0:
12,136,149801,2,0,P|19:96|28:53,1,79.7500024337769,0|0,1:0|0:0,0:0:0:0:
116,3,150161,6,0,P|162:6|194:19,1,79.7500024337769,2|4,3:2|3:0,0:0:0:0:
206,121,150520,2,0,P|265:110|331:98,1,119.625003650665,4|0,1:2|0:0,0:0:0:0:
360,92,150879,6,0,P|354:60|348:40,2,39.8750012168885,2|0|0,1:2|3:0|3:0,0:0:0:0:
480,124,151238,2,0,P|487:99|493:81,2,39.8750012168885,2|2|2,1:2|3:2|3:2,0:0:0:0:
420,232,151598,6,0,P|336:252|273:216,1,159.500004867554,4|0,1:0|1:0,0:0:0:0:
206,144,152137,1,0,3:0:0:0:
206,144,152226,1,0,3:0:0:0:
206,144,152316,2,0,P|151:145|115:158,1,79.7500024337769,2|4,3:2|3:0,0:0:0:0:
36,216,152676,2,0,P|91:217|127:230,1,79.7500024337769,0|0,1:0|0:0,0:0:0:0:
72,319,153035,6,0,P|143:309|237:298,1,159.500004867554,2|0,3:2|1:0,0:0:0:0:
320,349,153574,1,0,3:0:0:0:
320,349,153753,2,0,P|366:361|407:367,2,79.7500024337769,2|4|0,3:2|3:0|1:0,0:0:0:0:
230,298,154292,1,0,0:0:0:0:
303,225,154472,6,0,P|349:206|381:208,1,79.7500024337769,2|4,3:2|3:0,0:0:0:0:
457,276,154831,2,0,P|428:186|461:136,1,159.500004867554,4|2,1:2|3:2,0:0:0:0:
357,120,155370,5,4,3:0:0:0:
434,50,155550,2,0,P|343:77|282:48,1,159.500004867554,4|2,1:2|3:2,0:0:0:0:
197,0,156089,5,4,3:0:0:0:
216,101,156268,2,0,B|116:67|116:67|59:80,1,159.500004867554,4|2,1:2|3:2,0:0:0:0:
119,166,156807,5,4,3:0:0:0:
70,257,156987,2,0,P|141:271|188:242,1,119.625003650665,4|0,1:2|3:0,0:0:0:0:
212,224,157346,6,0,B|176:300|244:300|204:380,1,159.500004867554,4|0,3:2|1:0,0:0:0:0:
301,339,157885,1,0,3:0:0:0:
301,339,158065,2,0,L|389:356,1,79.7500024337769,2|4,3:2|3:0,0:0:0:0:
463,293,158424,2,0,L|375:276,1,79.7500024337769,0|0,1:0|0:0,0:0:0:0:
295,224,158783,6,0,P|394:239|449:195,1,159.500004867554,2|0,3:2|1:0,0:0:0:0:
504,127,159322,1,0,0:0:0:0:
504,127,159502,2,0,P|457:117|408:108,1,79.7500024337769,2|4,3:2|3:0,0:0:0:0:
345,45,159861,2,0,P|384:37|423:29,1,79.7500024337769,0|0,1:0|0:0,0:0:0:0:
344,128,160220,6,0,P|248:132|196:102,1,159.500004867554,2|0,3:2|1:0,0:0:0:0:
112,163,160759,1,0,3:0:0:0:
112,163,160939,2,0,P|61:167|32:155,1,79.7500024337769,2|4,3:2|3:0,0:0:0:0:
101,76,161298,2,0,P|152:72|181:84,1,79.7500024337769,0|0,1:0|0:0,0:0:0:0:
251,156,161658,5,2,3:2:0:0:
177,82,161837,1,4,1:3:0:0:
112,163,162017,2,0,P|97:209|86:245,1,79.7500024337769,6|4,1:2|3:0,0:0:0:0:
122,336,162376,2,0,P|162:328|246:320,1,119.625003650665,2|4,1:2|3:0,0:0:0:0:
274,329,162735,6,0,P|263:280|275:247,1,81.5625031113626,4|0,1:2|0:0,0:0:0:0:
296,228,163095,6,0,B|370:203|359:263|448:229,1,145,4|0,1:2|1:0,0:0:0:0:
489,155,163634,1,0,3:0:0:0:
489,155,163723,1,0,3:0:0:0:
489,155,163813,2,0,P|450:155|406:137,1,72.5,2|4,3:2|3:0,0:0:0:0:
360,59,164173,2,0,P|394:48|431:50,1,72.5,2|0,1:2|0:0,0:0:0:0:
283,115,164532,6,0,P|193:97|135:86,1,145,2|0,3:2|1:0,0:0:0:0:
59,39,165071,1,2,0:0:0:0:
59,39,165250,2,0,L|42:112,1,72.5,0|4,3:0|3:0,0:0:0:0:
140,87,165610,2,0,L|125:161,1,72.5,0|0,1:0|0:0,0:0:0:0:
46,209,165969,6,0,P|112:192|172:234,1,145,2|2,3:2|1:2,0:0:0:0:
244,173,166508,1,0,0:0:0:0:
244,173,166688,2,0,P|294:181|335:189,1,72.5,0|4,3:0|3:0,0:0:0:0:
394,133,167047,2,0,P|400:168|406:204,1,72.5,2|0,1:2|0:0,0:0:0:0:
419,297,167406,6,0,P|381:278|340:275,1,72.5,2|4,3:2|3:0,0:0:0:0:
276,332,167765,2,0,P|203:340|167:320,1,108.75,2|0,1:2|0:0,0:0:0:0:
148,308,168125,1,2,3:2:0:0:
227,258,168304,1,4,3:0:0:0:
157,194,168484,2,0,P|88:184|36:176,1,108.75,2|0,1:2|3:0,0:0:0:0:
24,164,168843,6,0,B|0:104|0:104|28:40,1,130.499996017456,4|0,1:2|0:0,0:0:0:0:
48,20,169202,6,0,B|104:48|152:0|152:0|143:47,1,145,2|2,1:2|3:2,0:0:0:0:
94,108,169741,2,0,L|174:117,1,72.5,6|0,3:0|1:0,0:0:0:0:
242,60,170101,1,0,0:0:0:0:
325,102,170280,6,0,B|422:90|422:90|469:134,1,145,2|0,3:2|1:0,0:0:0:0:
491,209,170819,1,0,3:0:0:0:
491,209,170909,1,0,3:0:0:0:
491,209,170999,2,0,P|450:199|409:192,1,72.5,2|4,3:2|3:0,0:0:0:0:
327,210,171358,2,0,P|319:248|312:286,1,72.5,2|0,1:2|0:0,0:0:0:0:
392,332,171717,6,0,P|404:274|416:212,1,108.75,2|0,3:2|0:0,0:0:0:0:
420,193,172077,2,0,B|424:154|424:154|409:113,1,72.5,0|2,1:0|0:0,0:0:0:0:
352,50,172436,2,0,B|320:38|320:38|281:42,1,72.5,4|2,3:0|3:2,0:0:0:0:
187,79,172795,2,0,B|129:87|129:87|75:59,1,108.75,0|0,1:0|0:0,0:0:0:0:
60,37,173155,6,0,P|53:72|41:130,1,72.5,4|0,1:2|0:0,0:0:0:0:
112,174,173514,1,0,1:0:0:0:
34,227,173694,2,0,L|-11:215,2,36.25,0|0|2,3:0|3:0|3:2,0:0:0:0:
63,316,174053,1,0,0:0:0:0:
63,316,174232,2,0,P|93:312|151:304,1,72.5,0|0,1:0|3:0,0:0:0:0:
244,261,174592,6,0,P|161:264|112:223,1,145,4|0,3:2|1:0,0:0:0:0:
84,138,175131,1,0,0:0:0:0:
84,138,175220,1,0,3:0:0:0:
84,138,175310,2,0,L|158:124,1,72.5,0|4,3:0|3:0,0:0:0:0:
136,31,175670,2,0,L|210:45,1,72.5,0|0,1:0|0:0,0:0:0:0:
287,95,176029,6,0,P|295:53|302:21,1,72.5,2|0,3:1|0:0,0:0:0:0:
394,10,176388,2,0,P|386:45|379:81,1,72.5,0|0,1:0|0:0,0:0:0:0:
363,174,176747,1,2,3:1:0:0:
363,174,176927,1,4,3:0:0:0:
450,137,177107,2,0,P|457:178|464:215,1,72.5,2|0,1:0|0:0,0:0:0:0:
475,301,177466,6,0,B|421:284|421:284|383:299|383:299|331:285,1,145,2|0,3:1|1:0,0:0:0:0:
266,223,178005,2,0,P|250:273|241:306,1,72.5,0|0,0:0|3:0,0:0:0:0:
166,346,178364,1,4,3:0:0:0:
121,262,178544,1,2,1:0:0:0:
196,203,178723,6,0,L|272:224,1,72.5,0|2,0:0|3:1,0:0:0:0:
324,300,179083,1,4,3:0:0:0:
424,284,179262,2,0,P|438:232|419:182,1,108.75,2|0,1:0|0:0,0:0:0:0:
392,176,179622,2,0,L|316:160,1,72.5,2|4,3:1|3:0,0:0:0:0:
327,266,179981,2,0,L|256:251,1,72.5,0|0,1:0|3:0,0:0:0:0:
228,244,180250,1,0,3:0:0:0:
228,244,180340,6,0,B|210:183|210:183|242:121,1,130.499996017456,4|0,1:2|0:0,0:0:0:0:
260,100,180699,6,0,P|336:144|396:120,1,145,2|0,1:0|3:0,0:0:0:0:
456,66,181238,1,4,3:0:0:0:
502,148,181418,2,0,P|493:192|487:224,1,72.5,2|0,1:0|0:0,0:0:0:0:
407,271,181777,6,0,P|395:192|385:127,1,145,2|0,3:1|1:0,0:0:0:0:
308,183,182316,2,0,L|314:232,2,36.25,0|0|0,3:0|3:0|3:0,0:0:0:0:
293,89,182676,1,4,3:0:0:0:
219,147,182855,2,0,P|177:138|141:131,1,72.5,2|0,1:0|0:0,0:0:0:0:
55,115,183214,6,0,P|63:156|71:193,1,72.5,2|2,3:1|0:1,0:0:0:0:
2,253,183574,2,0,L|80:269,1,72.5,2|2,1:0|0:1,0:0:0:0:
98,358,183933,1,0,3:0:0:0:
98,358,184113,2,0,P|133:350|169:343,1,72.5,4|0,3:0|1:0,0:0:0:0:
214,261,184472,1,0,0:0:0:0:
282,326,184652,6,0,P|336:344|365:342,1,72.5,2|4,3:1|3:0,0:0:0:0:
437,306,185011,2,0,P|455:252|453:223,1,72.5,4|0,1:2|3:0,0:0:0:0:
443,202,185280,1,4,3:0:0:0:
443,202,185370,6,0,L|364:188,1,61.6250011754036,0|0,1:0|0:0,0:0:0:0:
344,116,185729,2,0,L|283:127,1,61.6250011754036,0|4,3:0|3:0,0:0:0:0:
212,184,186089,5,4,0:1:0:0:
424,340,196867,6,0,P|463:338|436:309,1,81.5625031113626,8|0,0:3|0:0,0:0:0:0:
435,290,197226,2,0,P|440:255|405:260,1,81.5625031113626,0|0,1:0|0:0,0:0:0:0:
382,275,197586,6,0,L|262:282,1,108.750004148483,4|0,0:1|3:0,0:0:0:0:
224,172,198304,1,0,1:0:0:0:
116,220,198664,1,2,0:3:0:0:
116,220,199023,6,0,P|104:152|128:112,1,108.750004148483,0|0,3:0|3:0,0:0:0:0:
188,72,199562,2,0,L|256:84,1,54.3750020742417,0|0,0:0|1:0,0:0:0:0:
220,160,199921,2,0,P|269:153|352:144,1,108.750004148483,0|0,0:0|0:0,0:0:0:0:
389,93,200460,6,0,P|448:103|506:113,1,108.750004148483,0|0,3:0|3:0,0:0:0:0:
461,185,200999,2,0,P|427:178|395:173,1,54.3750020742417,0|0,0:0|1:0,0:0:0:0:
328,195,201358,1,0,0:0:0:0:
328,195,201538,2,0,P|314:218|304:249,1,54.3750020742417,2|0,0:3|0:0,0:0:0:0:
336,319,201897,6,0,P|291:289|228:290,1,108.750004148483,0|0,3:0|3:0,0:0:0:0:
86,348,202616,2,0,P|76:317|67:285,1,54.3750020742417,0|0,1:0|0:0,0:0:0:0:
129,240,202975,2,0,P|140:183|147:151,1,81.5625031113626,10|0,0:3|0:0,0:0:0:0:
152,134,203334,6,0,P|84:142|47:122,1,108.750004148483,4|0,0:1|3:0,0:0:0:0:
105,64,203873,1,0,0:0:0:0:
152,134,204053,2,0,P|220:142|257:122,1,108.750004148483,0|2,1:0|0:3,0:0:0:0:
309,64,204592,1,0,0:0:0:0:
355,130,204771,6,0,P|344:183|332:247,1,108.750004148483,0|0,3:0|3:0,0:0:0:0:
283,301,205310,2,0,P|247:286|222:275,1,54.3750020742417,0|0,0:0|1:0,0:0:0:0:
225,198,205670,2,0,P|189:213|164:224,1,54.3750020742417,0|2,0:0|0:3,0:0:0:0:
113,273,206029,1,0,0:0:0:0:
39,238,206208,6,0,P|23:180|48:128,1,108.750004148483,0|0,3:0|3:0,0:0:0:0:
92,72,206747,2,0,L|163:86,1,54.3750020742417,0|0,0:0|1:0,0:0:0:0:
200,16,207107,1,0,0:0:0:0:
200,16,207286,2,0,L|256:29,1,54.3750020742417,2|0,0:3|3:0,0:0:0:0:
344,68,207646,5,0,1:0:0:0:
316,157,207825,1,0,1:0:0:0:
288,245,208005,1,0,1:0:0:0:
288,245,208364,6,0,L|356:260,1,54.3750020742417,2|0,0:0|0:0,0:0:0:0:
380,352,208723,2,2,L|284:332,1,81.5625031113626,2|0,0:0|0:0,0:0:0:0:
282,358,209083,6,0,P|183:361|138:324,1,159.500004867554,4|0,1:0|1:0,0:0:0:0:
38,350,209622,1,0,3:0:0:0:
38,350,209711,1,0,3:0:0:0:
38,350,209801,2,0,P|35:305|52:269,1,79.7500024337769,2|0,3:2|0:0,0:0:0:0:
138,215,210161,2,0,L|60:195,1,79.7500024337769,0|0,1:0|0:0,0:0:0:0:
2,111,210520,6,0,P|93:104|186:94,1,159.500004867554,2|0,3:2|1:0,0:0:0:0:
105,8,211059,1,2,0:0:0:0:
105,8,211238,2,0,P|150:15|184:20,1,79.7500024337769,0|4,3:0|3:0,0:0:0:0:
154,120,211598,2,0,P|199:113|233:108,1,79.7500024337769,0|0,1:0|0:0,0:0:0:0:
320,51,211957,6,0,P|244:67|181:15,1,159.500004867554,2|0,3:2|1:0,0:0:0:0:
154,120,212496,2,0,P|176:168|152:270,1,159.500004867554,2|4,0:0|3:0,0:0:0:0:
75,199,213035,1,0,1:0:0:0:
15,285,213214,1,0,0:0:0:0:
81,365,213394,6,0,P|127:360|175:354,1,79.7500024337769,2|4,3:2|3:0,0:0:0:0:
239,288,213753,2,0,P|296:316|359:299,1,119.625003650665,0|0,1:0|0:0,0:0:0:0:
372,292,214113,2,0,L|388:376,1,79.7500024337769,2|4,3:2|3:0,0:0:0:0:
473,313,214472,2,0,L|457:229,1,79.7500024337769,0|0,1:0|3:0,0:0:0:0:
452,200,214741,1,0,3:0:0:0:
452,200,214831,6,0,B|388:208|388:208|352:188|352:188|296:196,1,159.500004867554,2|0,3:2|1:0,0:0:0:0:
219,128,215370,2,0,L|307:115,1,79.7500024337769,0|2,0:0|3:2,0:0:0:0:
384,48,215729,1,4,3:0:0:0:
384,48,215909,2,0,L|293:34,1,79.7500024337769,0|0,1:0|0:0,0:0:0:0:
192,56,216268,6,0,B|152:126|220:140|180:214,1,159.500004867554,2|0,3:2|1:0,0:0:0:0:
85,174,216807,1,2,0:0:0:0:
85,174,216897,1,0,3:0:0:0:
85,174,216987,2,0,P|72:227|81:261,1,79.7500024337769,0|4,3:0|3:0,0:0:0:0:
136,340,217346,2,0,L|225:330,1,79.7500024337769,0|0,1:0|0:0,0:0:0:0:
164,235,217705,6,0,B|271:226|271:226|314:265,1,159.500004867554,2|0,3:2|1:0,0:0:0:0:
367,174,218244,1,0,3:0:0:0:
419,265,218424,2,0,P|458:271|508:279,1,79.7500024337769,2|0,3:2|0:0,0:0:0:0:
446,187,218783,2,0,P|406:180|357:173,1,79.7500024337769,0|0,1:0|0:0,0:0:0:0:
289,105,219143,5,2,3:2:0:0:
367,174,219322,1,4,3:0:0:0:
309,261,219502,2,0,P|238:243|182:230,1,119.625003650665,4|0,1:2|0:0,0:0:0:0:
156,224,219861,6,0,L|165:279,2,39.8750012168885,2|0|0,1:2|3:0|3:0,0:0:0:0:
36,204,220220,2,0,L|24:244,2,39.8750012168885,2|0|0,1:2|3:0|3:0,0:0:0:0:
88,92,220580,6,0,P|180:128|236:100,1,159.500004867554,4|0,1:0|1:0,0:0:0:0:
316,46,221119,1,0,3:0:0:0:
316,46,221208,1,0,3:0:0:0:
316,46,221298,2,0,P|371:52|428:70,1,79.7500024337769,2|4,3:2|3:0,0:0:0:0:
472,127,221658,2,0,P|416:133|360:151,1,79.7500024337769,0|0,1:0|0:0,0:0:0:0:
304,193,222017,6,0,B|271:262|340:279|295:352,1,159.500004867554,2|0,3:2|1:0,0:0:0:0:
217,281,222556,1,0,3:0:0:0:
134,342,222735,2,0,P|75:326|41:316,1,79.7500024337769,2|4,3:2|3:0,0:0:0:0:
2,231,223095,1,0,1:0:0:0:
2,231,223274,1,0,0:0:0:0:
103,210,223454,6,0,P|145:204|188:198,1,79.7500024337769,2|4,3:2|3:0,0:0:0:0:
307,240,223813,2,0,B|253:218|206:243|206:243|172:228|184:186,1,159.500004867554,4|2,1:2|3:2,0:0:0:0:
265,137,224352,5,4,3:0:0:0:
175,83,224532,2,0,P|268:108|316:70,1,159.500004867554,4|2,1:2|3:2,0:0:0:0:
354,169,225071,5,4,3:0:0:0:
440,112,225250,2,0,B|458:230|458:230|420:265,1,159.500004867554,4|2,1:2|3:2,0:0:0:0:
325,247,225789,5,4,3:0:0:0:
366,342,225969,2,0,P|302:350|250:316,1,119.625003650665,4|0,1:2|3:0,0:0:0:0:
232,292,226328,6,0,B|164:254|146:326|76:278,1,159.500004867554,4|0,3:2|1:0,0:0:0:0:
0,216,226867,1,0,3:0:0:0:
92,166,227047,2,0,P|120:155|180:158,1,79.7500024337769,2|4,3:2|3:0,0:0:0:0:
257,209,227406,1,0,1:0:0:0:
169,154,227586,1,0,0:0:0:0:
257,100,227765,6,0,L|343:84,1,79.7500024337769,2|0,3:2|0:0,0:0:0:0:
438,65,228125,1,0,1:0:0:0:
438,65,228304,2,0,L|422:151,1,79.7500024337769,0|2,0:0|3:2,0:0:0:0:
397,244,228664,2,0,L|324:194,1,79.7500024337769,4|0,3:0|1:0,0:0:0:0:
246,139,229023,1,0,0:0:0:0:
229,241,229202,6,0,B|158:208|139:271|73:234,1,159.500004867554,2|0,3:2|1:0,0:0:0:0:
2,160,229741,1,0,3:0:0:0:
2,160,229921,2,0,P|52:164|92:149,1,79.7500024337769,2|4,3:2|3:0,0:0:0:0:
159,89,230280,2,0,P|168:50|163:11,1,79.7500024337769,0|0,1:0|0:0,0:0:0:0:
67,52,230640,5,2,3:2:0:0:
79,155,230819,1,4,1:3:0:0:
177,122,230999,1,6,1:2:0:0:
177,122,231179,1,4,3:0:0:0:
201,222,231358,2,0,P|263:249|319:227,1,119.625003650665,2|4,1:2|3:0,0:0:0:0:
344,228,231717,6,0,L|327:317,1,81.5625031113626,4|0,1:2|0:0,0:0:0:0:
320,336,232077,6,0,B|268:324|268:324|224:336|224:336|172:324,1,145,4|0,1:2|1:0,0:0:0:0:
92,362,232616,1,0,3:0:0:0:
92,362,232705,1,0,3:0:0:0:
92,362,232795,2,0,P|84:314|96:282,1,72.5,2|4,3:2|0:3,0:0:0:0:
155,222,233155,2,0,P|94:207|21:190,1,108.75,2|0,1:2|0:0,0:0:0:0:
16,188,233514,5,2,3:2:0:0:
86,125,233694,2,0,L|172:145,1,72.5,2|0,3:2|1:0,0:0:0:0:
126,51,234053,1,0,0:0:0:0:
126,51,234232,2,0,L|216:73,1,72.5,2|4,3:2|0:3,0:0:0:0:
252,144,234592,2,0,P|299:137|377:124,1,108.75,2|0,1:2|0:0,0:0:0:0:
396,120,234951,6,0,P|424:208|396:256,1,145,2|0,3:2|1:0,0:0:0:0:
322,301,235490,2,0,P|317:343|314:375,2,72.5,0|2|4,0:0|3:2|0:3,0:0:0:0:
261,228,236029,1,2,1:2:0:0:
172,260,236208,1,0,0:0:0:0:
90,211,236388,6,0,P|80:157|75:108,1,72.5,2|2,3:2|3:2,0:0:0:0:
25,61,236747,2,0,P|97:104|158:84,1,145,0|2,1:0|3:2,0:0:0:0:
220,24,237286,1,4,0:3:0:0:
291,86,237466,2,0,B|303:121|303:121|289:161,1,72.5,2|0,1:2|3:0,0:0:0:0:
276,188,237735,1,0,1:0:0:0:
276,188,237825,6,0,P|360:168|420:176,1,145,4|0,3:2|1:0,0:0:0:0:
486,239,238364,2,0,L|465:324,1,72.5,0|2,0:0|3:2,0:0:0:0:
391,254,238723,1,4,0:3:0:0:
324,320,238903,2,0,P|256:306|207:297,1,108.75,2|0,1:2|0:0,0:0:0:0:
188,292,239262,6,0,P|172:340|164:372,1,72.5,2|2,3:2|3:2,0:0:0:0:
89,306,239622,2,0,P|98:271|110:236,1,72.5,0|0,1:0|3:0,0:0:0:0:
120,212,239891,1,0,3:0:0:0:
120,212,239981,1,2,3:2:0:0:
38,163,240161,1,4,0:3:0:0:
114,108,240340,2,0,P|174:122|224:99,1,108.75,2|0,1:2|0:0,0:0:0:0:
240,80,240699,6,0,P|320:92|396:104,1,145,2|0,3:2|1:0,0:0:0:0:
475,80,241238,2,0,P|468:119|462:159,1,72.5,0|2,0:0|3:2,0:0:0:0:
383,101,241598,2,0,P|374:136|366:171,1,72.5,4|2,0:3|1:2,0:0:0:0:
432,239,241957,1,0,0:0:0:0:
365,305,242137,6,0,P|313:287|279:283,1,72.5,2|2,3:2|3:2,0:0:0:0:
218,338,242496,2,0,P|166:356|132:360,1,72.5,4|0,1:2|3:0,0:0:0:0:
120,368,242765,1,0,3:0:0:0:
120,368,242855,1,2,1:2:0:0:
72,286,243035,1,8,0:3:0:0:
141,223,243214,2,0,P|184:229|217:239,1,72.5,2|4,1:0|0:3,0:0:0:0:
295,284,243574,5,4,0:0:0:0:
256,192,243664,12,0,249322,0:0:0:0:
