osu file format v14

[General]
AudioFilename: audio.mp3
AudioLeadIn: 0
PreviewTime: 53823
Countdown: 0
SampleSet: Soft
StackLeniency: 0.7
Mode: 0
LetterboxInBreaks: 0
WidescreenStoryboard: 1

[Editor]
DistanceSpacing: 1
BeatDivisor: 4
GridSize: 16
TimelineZoom: 1.9

[Metadata]
Title:Freezing RosE
TitleUnicode:Freezing RosE
Artist:yuiko
ArtistUnicode:yuiko
Creator:Lasse
Version:Normal
Source:
Tags:solfa yuikonnu ゆいこんぬ CHOCOHOLIC Yukihiro Ibuki
BeatmapID:1769978
BeatmapSetID:845865

[Difficulty]
HPDrainRate:4
CircleSize:3.4
OverallDifficulty:5
ApproachRate:6
SliderMultiplier:1.8
SliderTickRate:1

[Events]
//Background and Video events
0,0,"0.jpg",0,0
//Break Periods
2,43398,46815
2,48731,51815
2,99398,102815
2,104564,107815
2,131398,135037
//Storyboard Layer 0 (Background)
//Storyboard Layer 1 (Fail)
//Storyboard Layer 2 (Pass)
//Storyboard Layer 3 (Foreground)
//Storyboard Sound Samples

[TimingPoints]
532,666.666666666667,4,2,1,44,1,0
21865,-133.333333333333,4,2,1,44,0,0
29198,-133.333333333333,4,2,1,38,0,0
29865,-133.333333333333,4,2,1,44,0,0
32532,-111.111111111111,4,2,2,52,0,0
32698,-111.111111111111,4,2,1,52,0,0
35198,-111.111111111111,4,2,3,52,0,0
35365,-111.111111111111,4,2,1,52,0,0
36532,-111.111111111111,4,2,3,52,0,0
36615,-111.111111111111,4,2,1,52,0,0
37865,-111.111111111111,4,2,2,52,0,0
37948,-111.111111111111,4,2,1,52,0,0
40532,-111.111111111111,4,2,3,52,0,0
40615,-111.111111111111,4,2,1,52,0,0
41865,-111.111111111111,4,2,3,52,0,0
41948,-111.111111111111,4,2,1,52,0,0
43198,-111.111111111111,4,2,1,44,0,0
47865,-111.111111111111,4,2,1,44,0,0
49198,-111.111111111111,4,2,1,44,0,0
52865,-100,4,2,1,50,0,0
53198,-100,4,2,1,55,0,0
53698,-100,4,2,1,40,0,0
53865,-90.9090909090909,4,2,2,60,0,1
53976,-90.9090909090909,4,2,1,60,0,1
55032,-90.9090909090909,4,2,3,60,0,1
55198,-90.9090909090909,4,2,3,52,0,1
55365,-90.9090909090909,4,2,1,60,0,1
56532,-90.9090909090909,4,2,3,60,0,1
56698,-90.9090909090909,4,2,1,60,0,1
57698,-90.9090909090909,4,2,3,60,0,1
57865,-90.9090909090909,4,2,1,60,0,1
58865,-90.9090909090909,4,2,1,50,0,1
59198,-90.9090909090909,4,2,2,60,0,1
59365,-90.9090909090909,4,2,1,60,0,1
60365,-90.9090909090909,4,2,3,60,0,1
60532,-90.9090909090909,4,2,3,52,0,1
60699,-90.9090909090909,4,2,1,60,0,1
61865,-90.9090909090909,4,2,3,60,0,1
62032,-90.9090909090909,4,2,1,60,0,1
63032,-90.9090909090909,4,2,3,60,0,1
63199,-90.9090909090909,4,2,1,60,0,1
64198,-90.9090909090909,4,2,1,60,0,1
64240,-90.9090909090909,4,2,1,5,0,0
64532,-90.9090909090909,4,2,2,60,0,1
64698,-90.9090909090909,4,2,1,60,0,1
65698,-90.9090909090909,4,2,3,60,0,1
65865,-90.9090909090909,4,2,3,52,0,1
66032,-90.9090909090909,4,2,1,60,0,1
67198,-90.9090909090909,4,2,3,60,0,1
67365,-90.9090909090909,4,2,1,60,0,1
68365,-90.9090909090909,4,2,3,60,0,1
68532,-90.9090909090909,4,2,3,60,0,1
68698,-90.9090909090909,4,2,1,60,0,1
69865,-90.9090909090909,4,2,2,60,0,1
70032,-90.9090909090909,4,2,1,60,0,1
71032,-90.9090909090909,4,2,3,60,0,1
71199,-90.9090909090909,4,2,1,60,0,1
72532,-111.111111111111,4,2,2,50,0,0
72698,-111.111111111111,4,2,1,50,0,0
75198,-100,4,2,2,60,0,1
75365,-100,4,2,1,60,0,1
77865,-133.333333333333,4,2,2,50,0,0
78032,-133.333333333333,4,2,1,50,0,0
87920,-133.333333333333,4,2,1,5,0,0
88087,-133.333333333333,4,2,1,50,0,0
88143,-133.333333333333,4,2,1,5,0,0
88309,-133.333333333333,4,2,1,50,0,0
88365,-133.333333333333,4,2,1,5,0,0
88532,-111.111111111111,4,2,1,55,0,0
91198,-111.111111111111,4,2,3,55,0,0
91365,-111.111111111111,4,2,1,55,0,0
92532,-111.111111111111,4,2,3,55,0,0
92698,-111.111111111111,4,2,1,55,0,0
93865,-111.111111111111,4,2,2,55,0,0
94032,-111.111111111111,4,2,1,55,0,0
96532,-111.111111111111,4,2,3,55,0,0
96698,-111.111111111111,4,2,1,55,0,0
97865,-111.111111111111,4,2,3,55,0,0
98032,-111.111111111111,4,2,1,55,0,0
99198,-111.111111111111,4,2,1,45,0,0
108532,-100,4,2,1,50,0,0
109198,-100,4,2,1,55,0,0
109698,-100,4,2,1,50,0,0
109865,-90.9090909090909,4,2,2,60,0,1
110032,-90.9090909090909,4,2,1,60,0,1
111032,-90.9090909090909,4,2,3,60,0,1
111198,-90.9090909090909,4,2,3,52,0,1
111365,-90.9090909090909,4,2,1,60,0,1
112532,-90.9090909090909,4,2,3,60,0,1
112698,-90.9090909090909,4,2,1,60,0,1
113698,-90.9090909090909,4,2,3,60,0,1
113865,-90.9090909090909,4,2,1,60,0,1
114865,-90.9090909090909,4,2,1,50,0,1
115198,-90.9090909090909,4,2,2,60,0,1
115365,-90.9090909090909,4,2,1,60,0,1
116365,-90.9090909090909,4,2,3,60,0,1
116532,-90.9090909090909,4,2,3,52,0,1
116699,-90.9090909090909,4,2,1,60,0,1
117865,-90.9090909090909,4,2,3,60,0,1
118032,-90.9090909090909,4,2,1,60,0,1
119032,-90.9090909090909,4,2,3,60,0,1
119199,-90.9090909090909,4,2,1,60,0,1
120198,-90.9090909090909,4,2,1,60,0,0
120532,-90.9090909090909,4,2,2,60,0,1
120698,-90.9090909090909,4,2,1,60,0,1
120865,-90.9090909090909,4,2,1,65,0,1
121365,-90.9090909090909,4,2,1,60,0,1
121865,-90.9090909090909,4,2,1,65,0,1
122532,-90.9090909090909,4,2,1,64,0,1
122698,-90.9090909090909,4,2,1,62,0,1
122865,-90.9090909090909,4,2,1,60,0,1
123032,-90.9090909090909,4,2,1,58,0,1
123198,-90.9090909090909,4,2,3,60,0,1
123365,-90.9090909090909,4,2,1,60,0,1
124365,-90.9090909090909,4,2,3,60,0,1
124532,-90.9090909090909,4,2,3,60,0,1
124698,-90.9090909090909,4,2,1,60,0,1
125865,-90.9090909090909,4,2,2,60,0,1
126032,-90.9090909090909,4,2,1,60,0,1
127032,-90.9090909090909,4,2,3,60,0,1
127199,-90.9090909090909,4,2,1,60,0,1
128532,-111.111111111111,4,2,1,50,0,0
131198,-111.111111111111,4,2,1,44,0,0
133865,-111.111111111111,4,2,1,36,0,0
136087,-111.111111111111,4,2,1,42,0,0
136532,-111.111111111111,4,2,2,46,0,0
136698,-111.111111111111,4,2,1,46,0,0
141198,-111.111111111111,4,2,1,48,0,0
141865,-111.111111111111,4,2,3,50,0,0
142087,-111.111111111111,4,2,1,50,0,0
147198,-111.111111111111,4,2,2,52,0,0
147309,-111.111111111111,4,2,1,52,0,0
149754,-111.111111111111,4,2,1,44,0,0
149865,-100,4,2,1,48,0,0
149948,-100,4,2,1,49,0,0
150032,-100,4,2,1,50,0,0
150115,-100,4,2,1,51,0,0
150198,-100,4,2,1,52,0,0
150282,-100,4,2,1,53,0,0
150365,-100,4,2,1,54,0,0
150448,-100,4,2,1,55,0,0
150532,-100,4,2,1,56,0,0
150615,-100,4,2,1,57,0,0
150698,-100,4,2,1,58,0,0
150782,-100,4,2,1,59,0,0
150865,-100,4,2,1,60,0,0
150948,-100,4,2,1,61,0,0
151032,-100,4,2,1,62,0,0
151115,-100,4,2,1,63,0,0
151198,-100,4,2,1,65,0,0
152532,-90.9090909090909,4,2,2,65,0,1
152698,-90.9090909090909,4,2,1,65,0,1
153698,-90.9090909090909,4,2,3,65,0,1
153865,-90.9090909090909,4,2,3,55,0,1
154032,-90.9090909090909,4,2,1,65,0,1
155198,-90.9090909090909,4,2,3,65,0,1
155365,-90.9090909090909,4,2,1,65,0,1
156365,-90.9090909090909,4,2,3,65,0,1
156532,-90.9090909090909,4,2,1,65,0,1
157532,-90.9090909090909,4,2,1,50,0,1
157865,-90.9090909090909,4,2,2,65,0,1
158032,-90.9090909090909,4,2,1,65,0,1
159032,-90.9090909090909,4,2,3,65,0,1
159198,-90.9090909090909,4,2,3,55,0,1
159365,-90.9090909090909,4,2,1,65,0,1
160532,-90.9090909090909,4,2,3,65,0,1
160698,-90.9090909090909,4,2,1,65,0,1
161698,-90.9090909090909,4,2,3,65,0,1
161865,-90.9090909090909,4,2,1,65,0,1
162865,-90.9090909090909,4,2,1,65,0,0
162907,-90.9090909090909,4,2,1,5,0,0
163198,-90.9090909090909,4,2,2,65,0,1
163365,-90.9090909090909,4,2,1,65,0,1
164365,-90.9090909090909,4,2,3,65,0,1
164532,-90.9090909090909,4,2,3,55,0,1
164698,-90.9090909090909,4,2,1,65,0,1
165865,-90.9090909090909,4,2,3,65,0,1
166032,-90.9090909090909,4,2,1,65,0,1
167032,-90.9090909090909,4,2,3,65,0,1
167198,-90.9090909090909,4,2,3,65,0,1
167365,-90.9090909090909,4,2,1,65,0,1
168532,-90.9090909090909,4,2,2,65,0,1
168698,-90.9090909090909,4,2,1,65,0,1
169698,-90.9090909090909,4,2,3,65,0,1
169865,-90.9090909090909,4,2,1,65,0,1
171198,-111.111111111111,4,2,2,50,0,0
171365,-111.111111111111,4,2,1,50,0,0
173865,-100,4,2,2,62,0,1
174032,-100,4,2,1,62,0,1
176198,-100,4,2,1,60,0,0
176532,-100,4,2,2,64,0,1
176698,-100,4,2,1,64,0,1
179198,-125,4,2,1,50,0,0
179532,-125,4,2,1,46,0,0
180198,-125,4,2,1,44,0,0
180698,-125,4,2,1,42,0,0
181865,-125,4,2,1,40,0,0
182198,-125,4,2,1,38,0,0
182865,-125,4,2,1,36,0,0
183365,-125,4,2,1,34,0,0
183865,-125,4,2,1,32,0,0

[Colours]
Combo1 : 210,190,220
Combo2 : 170,210,210
Combo3 : 170,185,215
Combo4 : 230,170,165

[HitObjects]
53,283,21865,6,0,B|62:140,1,135.000005149842,6|0,3:2|1:0,0:0:0:0:
101,77,22865,1,2,3:2:0:0:
101,77,23032,2,0,L|177:64,1,67.5000025749208,0|0,1:0|1:0,0:0:0:0:
247,157,23865,1,2,1:2:0:0:
410,147,24532,6,0,P|424:180|428:228,1,67.5000025749208,2|0,3:2|3:0,0:0:0:0:
406,292,25198,1,2,1:2:0:0:
406,292,25365,2,0,L|337:309,1,67.5000025749208,2|0,3:2|1:0,0:0:0:0:
316,340,25865,2,0,L|171:322,1,135.000005149842,2|2,0:0|1:2,0:0:0:0:
26,368,27198,6,0,L|20:228,1,135.000005149842,2|2,3:2|1:2,0:0:0:0:
45,114,28365,2,0,P|79:99|126:101,1,67.5000025749208,2|2,2:2|1:2,0:0:0:0:
212,161,29198,1,2,1:2:0:0:
323,123,29698,1,2,1:2:0:0:
323,123,29865,2,0,P|333:75|248:29,1,135.000005149842,2|2,3:2|1:2,0:0:0:0:
201,63,30865,1,2,0:0:0:0:
201,63,31032,2,0,L|192:138,1,67.5000025749208,2|2,1:2|1:2,0:0:0:0:
457,344,32532,6,0,L|462:151,1,161.999995056153,14|8,0:0|0:0,0:0:0:0:
419,103,33532,1,6,0:3:0:0:
419,103,33698,2,0,L|316:80,1,80.9999975280763,8|8,0:0|0:0,0:0:0:0:
313,49,34198,1,4,0:3:0:0:
244,105,34532,2,0,L|249:189,1,80.9999975280763,10|6,0:0|0:3,0:0:0:0:
248,230,35032,1,10,0:0:0:0:
248,230,35198,6,0,P|223:251|171:256,1,80.9999975280763,14|2,0:0|0:0,0:0:0:0:
96,217,35865,2,0,B|89:108,1,80.9999975280763,10|4,0:0|0:3,0:0:0:0:
96,91,36365,1,8,0:0:0:0:
96,91,36532,2,0,P|121:70|173:65,1,80.9999975280763,14|2,0:2|0:0,0:0:0:0:
254,107,37198,2,0,L|268:203,1,80.9999975280763,10|6,0:0|0:3,0:0:0:0:
276,232,37698,1,10,0:0:0:0:
276,232,37865,6,0,P|302:261|366:273,1,80.9999975280763,14|2,0:2|0:0,0:0:0:0:
426,228,38532,2,0,L|437:127,1,80.9999975280763,10|4,0:0|0:3,0:0:0:0:
473,117,39032,1,10,3:2:0:0:
435,30,39365,1,10,0:0:0:0:
350,57,39698,2,0,L|266:47,1,80.9999975280763,6|2,0:3|0:0,0:0:0:0:
186,21,40365,1,10,0:0:0:0:
186,21,40532,6,0,L|199:201,1,161.999995056153,14|8,0:2|0:0,0:0:0:0:
172,273,41532,1,6,0:3:0:0:
172,273,41698,1,8,0:0:0:0:
172,273,41865,2,0,P|128:298|76:288,1,80.9999975280763,14|6,0:2|0:3,0:0:0:0:
10,225,42532,2,0,L|6:177,1,40.4999987640381,10|10,1:2|1:2,0:0:0:0:
42,140,42865,2,0,L|43:98,1,40.4999987640381,10|10,1:2|1:2,0:0:0:0:
16,49,43198,5,6,3:2:0:0:
226,199,47865,6,2,B|222:164|222:164|196:137|196:137|185:92|185:92|168:147,1,161.999995056153,2|2,1:2|3:2,0:1:0:0:
0,306,52865,5,6,0:3:0:0:
73,254,53198,2,0,L|84:162,1,90,10|0,0:0|0:0,0:0:0:0:
113,59,53865,6,0,B|173:29|173:29|234:72|309:67,1,198.000006042481,14|8,2:2|0:0,0:0:0:0:
388,32,54865,1,2,0:0:0:0:
388,32,55032,2,0,L|376:135,1,99.0000030212403,12|8,0:1|0:0,0:0:0:0:
409,166,55532,1,4,0:3:0:0:
491,221,55865,2,0,L|480:340,1,99.0000030212403,8|2,0:0|0:0,0:0:0:0:
385,362,56532,5,14,0:2:0:0:
385,362,56698,2,0,P|348:326|238:323,1,148.50000453186,6|8,0:3|0:0,0:0:0:0:
162,350,57532,1,6,0:3:0:0:
162,349,57698,2,0,P|112:351|65:331,1,99.0000030212403,14|8,0:1|0:0,0:0:0:0:
10,257,58365,1,4,0:3:0:0:
10,257,58532,2,0,L|4:149,1,99.0000030212403,10|2,0:0|0:0,0:0:0:0:
84,84,59198,6,0,B|197:104|133:170|228:202,1,198.000006042481,14|8,2:2|0:0,0:0:0:0:
377,220,60365,2,0,L|480:187,1,99.0000030212403,12|8,0:1|0:0,0:0:0:0:
494,146,60865,1,4,0:3:0:0:
429,71,61198,2,0,L|305:37,1,99.0000030212403,8|2,0:0|0:0,0:0:0:0:
232,20,61865,5,14,0:2:0:0:
232,20,62032,1,6,0:3:0:0:
235,118,62365,1,2,0:0:0:0:
238,216,62698,1,2,0:0:0:0:
241,314,63032,2,0,P|196:342|133:332,1,99.0000030212403,14|8,0:1|0:0,0:0:0:0:
102,331,63532,1,2,0:0:0:0:
23,270,63865,2,0,L|16:166,1,99.0000030212403,10|8,0:0|0:0,0:0:0:0:
93,91,64532,6,0,B|160:56|160:56|185:193,1,198.000006042481,14|8,0:2|0:0,0:0:0:0:
234,267,65532,1,2,0:0:0:0:
234,267,65698,2,0,L|342:279,1,99.0000030212403,12|8,0:1|0:0,0:0:0:0:
366,313,66198,1,4,0:3:0:0:
459,277,66532,2,0,P|479:242|472:174,1,99.0000030212403,8|2,0:0|0:0,0:0:0:0:
421,96,67198,5,14,0:2:0:0:
421,96,67365,2,0,B|373:78|373:78|323:93|323:93|265:72,1,148.50000453186,6|8,0:3|0:0,0:0:0:0:
193,38,68198,1,2,0:0:0:0:
193,38,68365,2,0,B|142:29|142:29|89:48,1,99.0000030212403,12|8,0:1|0:0,0:0:0:0:
55,70,68865,1,4,0:3:0:0:
21,163,69198,2,0,L|34:268,1,99.0000030212403,10|2,0:0|0:0,0:0:0:0:
131,308,69865,5,14,0:2:0:0:
131,308,70032,2,0,B|168:285|168:285|162:226|196:183,1,148.50000453186,6|8,0:3|0:0,0:0:0:0:
308,92,71032,2,0,L|418:82,1,99.0000030212403,14|8,0:1|0:0,0:0:0:0:
446,53,71532,1,4,0:3:0:0:
498,137,71865,2,0,L|490:198,1,49.5000015106202,8|4,0:0|0:3,0:0:0:0:
502,325,72532,6,0,B|457:309|457:309|400:334|400:334|350:318,1,161.999995056153,14|2,2:2|0:0,0:0:0:0:
272,274,73532,2,0,L|265:218,1,40.4999987640381,8|8,0:0|0:0,0:0:0:0:
225,152,74032,2,0,P|181:121|123:124,1,80.9999975280763,8|8,0:3|0:3,0:0:0:0:
71,134,74698,1,8,0:3:0:0:
71,134,74865,1,4,0:3:0:0:
21,219,75198,6,0,L|7:321,2,90,14|6|6,1:2|1:3|1:3,0:0:0:0:
61,128,76198,2,0,P|88:115|124:116,1,45,6|6,1:3|1:3,0:0:0:0:
173,183,76698,2,0,P|193:209|220:231,1,45,6|6,1:3|1:3,0:0:0:0:
302,255,77198,1,10,1:2:0:0:
302,255,77365,1,10,1:2:0:0:
302,255,77532,1,10,1:1:0:0:
396,214,77865,6,0,L|403:62,1,135.000005149842,14|8,0:2|0:0,0:0:0:0:
336,31,78865,1,2,0:0:0:0:
336,31,79032,2,0,P|304:51|237:44,1,101.250003862381,4|0,0:3|1:0,0:0:0:0:
165,20,79865,1,10,0:0:0:0:
46,129,80532,6,0,L|60:275,1,135.000005149842,6|8,0:3|0:0,0:0:0:0:
111,324,81532,1,2,0:0:0:0:
168,267,81865,2,0,L|180:132,1,135.000005149842,2|8,0:0|0:0,0:0:0:0:
309,33,83198,6,0,P|342:31|375:39,1,67.5000025749208,6|2,0:3|0:0,0:0:0:0:
444,92,83865,1,10,0:0:0:0:
444,92,84032,2,0,B|446:165,2,67.5000025749208,2|2|2,0:0|1:2|0:0,0:0:0:0:
339,30,85198,2,0,B|318:25|318:25|293:32|293:32|261:29,1,67.5000025749208,10|2,0:0|0:0,0:0:0:0:
248,62,85698,1,2,0:0:0:0:
248,62,85865,6,0,L|252:223,1,135.000005149842,2|10,1:2|0:0,0:0:0:0:
204,264,86865,1,2,0:0:0:0:
204,264,87032,2,0,P|172:279|99:272,1,101.250003862381,6|2,0:3|1:2,0:0:0:0:
39,230,87865,2,0,B|33:207|33:207|26:201|26:201|14:173|29:134,1,90.0000034332277,2|2,1:1|1:0,0:0:0:0:
69,105,88532,6,0,L|242:92,1,161.999995056153,14|8,0:2|0:0,0:0:0:0:
306,43,89532,1,6,0:3:0:0:
306,43,89698,2,0,L|409:66,1,80.9999975280763,8|8,0:0|0:0,0:0:0:0:
421,34,90198,1,4,0:3:0:0:
482,99,90532,2,0,L|490:183,1,80.9999975280763,10|6,0:0|2:3,0:0:0:0:
494,224,91032,1,10,2:2:0:0:
494,224,91198,6,0,P|474:262|436:285,1,80.9999975280763,14|2,0:0|0:0,0:0:0:0:
354,291,91865,2,0,B|252:282,1,80.9999975280763,8|4,0:0|0:3,0:0:0:0:
242,316,92365,1,8,0:0:0:0:
242,316,92532,2,0,L|206:353,1,40.4999987640381,14|8,3:2|3:2,0:0:0:0:
125,360,93032,1,4,3:3:0:0:
125,360,93198,2,0,L|111:264,1,80.9999975280763,10|10,1:2|1:2,0:0:0:0:
81,258,93698,1,10,1:2:0:0:
81,258,93865,6,0,L|95:154,1,80.9999975280763,14|2,0:0|0:0,0:0:0:0:
153,113,94532,2,0,P|188:109|247:137,1,80.9999975280763,10|4,0:0|0:3,0:0:0:0:
256,159,95032,1,10,0:0:0:0:
244,247,95365,1,10,0:0:0:0:
294,320,95698,2,0,P|331:333|371:330,1,80.9999975280763,6|2,0:3|0:0,0:0:0:0:
450,285,96365,1,10,2:2:0:0:
450,285,96532,6,0,L|454:102,1,161.999995056153,14|8,0:0|0:0,0:0:0:0:
429,49,97532,1,6,0:3:0:0:
429,49,97698,1,8,0:0:0:0:
429,49,97865,2,0,P|396:39|373:44,1,40.4999987640381,14|10,3:2|3:2,0:0:0:0:
276,109,98532,2,0,L|283:158,1,40.4999987640381,10|10,1:2|1:2,0:0:0:0:
304,187,98865,2,0,L|300:231,1,40.4999987640381,10|10,1:2|1:2,0:0:0:0:
317,268,99198,5,6,3:2:0:0:
174,208,103865,6,0,L|171:160,1,40.4999987640381,2|2,1:1|1:2,0:0:0:0:
189,131,104198,2,0,L|186:83,1,40.4999987640381,2|2,1:2|1:2,0:0:0:0:
0,93,108865,5,4,2:3:0:0:
37,174,109198,2,0,P|74:193|138:190,1,90,8|0,0:0|0:0,0:0:0:0:
197,114,109865,6,0,B|305:42|305:42|388:82,1,198.000006042481,14|8,2:2|0:0,0:0:0:0:
450,135,110865,1,2,0:0:0:0:
450,135,111032,2,0,L|438:238,1,99.0000030212403,12|8,0:1|0:0,0:0:0:0:
468,272,111532,1,4,0:3:0:0:
409,351,111865,2,0,P|364:354|289:325,1,99.0000030212403,8|2,0:0|0:0,0:0:0:0:
261,247,112532,5,14,0:2:0:0:
261,247,112698,2,0,L|250:80,1,148.50000453186,6|8,0:3|0:0,0:0:0:0:
168,37,113532,1,6,0:3:0:0:
168,37,113698,2,0,P|119:27|68:41,1,99.0000030212403,14|8,0:1|0:0,0:0:0:0:
14,120,114365,1,4,0:3:0:0:
14,120,114532,2,0,L|18:226,1,99.0000030212403,10|2,0:0|0:0,0:0:0:0:
95,294,115198,6,0,B|163:294|163:294|190:328|190:328|275:353,1,198.000006042481,14|8,2:2|0:0,0:0:0:0:
413,303,116365,2,0,L|426:198,1,99.0000030212403,12|8,0:1|0:0,0:0:0:0:
467,179,116865,1,4,0:3:0:0:
450,81,117198,2,0,P|412:48|356:39,1,99.0000030212403,8|2,0:0|0:0,0:0:0:0:
265,74,117865,5,14,0:2:0:0:
265,74,118032,1,6,0:3:0:0:
237,168,118365,1,2,0:0:0:0:
210,262,118698,1,2,0:0:0:0:
182,356,119032,2,0,B|130:370|130:370|73:339,1,99.0000030212403,14|8,0:1|0:0,0:0:0:0:
51,317,119532,1,2,0:0:0:0:
24,221,119865,2,0,B|36:189|36:189|33:159|33:159|43:117,1,99.0000030212403,10|8,0:0|0:0,0:0:0:0:
127,53,120532,6,0,B|164:45|164:45|207:51|207:51|256:49,1,99.0000030212403,14|8,0:0|0:0,0:0:0:0:
270,30,121032,1,8,0:0:0:0:
361,67,121365,2,0,L|379:190,1,99.0000030212403,8|8,0:3|0:3,0:0:0:0:
412,196,121865,2,0,B|422:227|422:227|415:248|415:248|420:271|420:271|412:294,1,99.0000030212403,8|4,0:0|0:3,0:0:0:0:
330,345,122532,2,0,L|230:330,1,99.0000030212403,8|8,0:0|0:3,0:0:0:0:
187,237,123198,5,14,0:2:0:0:
187,237,123365,2,0,B|205:189|205:189|190:152|190:152|202:78,1,148.50000453186,6|8,0:3|0:0,0:0:0:0:
126,27,124198,1,2,0:0:0:0:
126,27,124365,2,0,P|66:21|23:43,1,99.0000030212403,12|8,0:1|0:0,0:0:0:0:
4,77,124865,1,4,0:3:0:0:
38,170,125198,2,0,L|51:275,1,99.0000030212403,10|2,0:0|2:3,0:0:0:0:
143,337,125865,5,14,0:2:0:0:
143,337,126032,2,0,B|194:325|194:325|231:351|231:351|292:340,1,148.50000453186,6|8,0:3|0:0,0:0:0:0:
427,368,127032,2,0,L|439:265,1,99.0000030212403,14|8,0:1|0:0,0:0:0:0:
476,237,127532,1,4,0:3:0:0:
443,143,127865,2,0,L|431:81,1,49.5000015106202,8|4,0:0|0:3,0:0:0:0:
324,17,128532,6,0,B|281:38|281:38|259:96|259:96|213:121,1,161.999995056153,14|2,2:2|0:0,0:0:0:0:
132,85,129532,2,0,B|115:72|115:72|80:67,1,40.4999987640381,8|8,0:0|0:0,0:0:0:0:
32,131,130032,2,0,L|45:236,1,80.9999975280763,8|8,0:3|0:3,0:0:0:0:
16,299,130698,1,8,0:3:0:0:
16,299,130865,1,4,0:3:0:0:
70,369,131198,5,6,0:2:0:0:
215,145,136087,6,0,B|219:103|246:75|246:75|227:51,1,107.999996704102,8|12,0:0|0:0,0:0:0:0:
17,196,137865,1,8,0:0:0:0:
309,334,139198,6,0,L|372:330,1,53.9999983520508,8|4,0:0|0:3,0:0:0:0:
469,309,139865,2,0,L|475:241,1,53.9999983520508,8|4,0:0|0:3,0:0:0:0:
423,191,140420,2,0,L|404:75,1,107.999996704102,8|8,0:0|0:0,0:0:0:0:
339,35,141198,2,0,P|285:33|265:93,1,107.999996704102,0|0,1:0|1:0,0:0:0:0:
259,129,141865,6,0,L|271:194,1,53.9999983520508,14|8,0:2|0:0,0:0:0:0:
214,275,142532,1,8,0:0:0:0:
94,212,143087,2,0,L|82:110,1,80.9999975280763,4|8,0:3|0:0,0:0:0:0:
108,53,143754,2,0,P|147:34|197:41,1,80.9999975280763,4|8,0:3|0:0,0:0:0:0:
279,86,144532,6,0,P|302:97|347:101,1,53.9999983520508,4|8,0:3|0:0,0:0:0:0:
427,55,145198,1,8,0:0:0:0:
484,177,145754,2,0,L|475:296,1,107.999996704102,8|8,0:0|0:0,0:0:0:0:
414,337,146532,6,0,B|397:333|397:333|387:327|387:327|363:336|363:336|340:325|340:325|325:334|325:334|303:324|303:324|288:333|288:333|252:328,1,161.999995056153,4|12,1:3|0:2,0:0:0:0:
131,350,147754,2,0,B|132:332|132:332|121:315|121:315|109:182,1,161.999995056153,8|8,0:0|0:0,0:0:0:0:
168,135,148754,2,0,B|182:114|182:114|202:121|202:121|225:106|278:109,1,107.999996704102,8|8,0:0|0:0,0:0:0:0:
429,44,149865,6,0,B|417:61|417:61|424:84|424:84|411:103|411:103|417:125|417:125|405:144|405:144|416:163|416:163|405:182|405:182|412:202|412:202|397:221|397:221|404:242|404:242|393:260|393:260|400:282|400:282|387:302|387:302|391:325|391:325|381:341|381:341|380:372,1,360,4|4,3:3|1:3,0:0:0:0:
79,371,152532,6,0,L|71:164,1,198.000006042481,14|8,2:2|0:0,0:0:0:0:
107,80,153532,1,2,0:0:0:0:
107,80,153698,2,0,P|144:62|230:69,1,99.0000030212403,12|8,0:1|0:0,0:0:0:0:
245,81,154198,1,4,0:3:0:0:
300,163,154532,2,0,L|289:282,1,99.0000030212403,8|2,0:0|0:0,0:0:0:0:
358,355,155198,5,14,0:2:0:0:
358,355,155365,2,0,B|453:364|453:364|495:319,1,148.50000453186,6|8,0:3|0:0,0:0:0:0:
470,227,156198,1,6,0:3:0:0:
470,227,156365,2,0,L|479:129,1,99.0000030212403,14|8,0:1|0:0,0:0:0:0:
417,50,157032,1,4,0:3:0:0:
417,50,157198,2,0,P|374:35|305:51,1,99.0000030212403,10|2,0:0|0:0,0:0:0:0:
262,133,157865,6,0,B|244:272|244:272|159:296,1,198.000006042481,14|8,2:2|0:0,0:0:0:0:
45,244,159032,2,0,L|42:144,1,99.0000030212403,12|8,0:1|0:0,0:0:0:0:
22,99,159532,1,4,0:3:0:0:
97,35,159865,2,0,P|143:22|219:33,1,99.0000030212403,8|2,0:0|0:0,0:0:0:0:
298,75,160532,5,14,0:2:0:0:
298,75,160698,1,6,0:3:0:0:
315,171,161032,1,2,0:0:0:0:
332,267,161365,1,2,0:0:0:0:
350,364,161698,2,0,P|399:382|459:359,1,99.0000030212403,14|8,0:1|0:0,0:0:0:0:
480,338,162198,1,2,0:0:0:0:
480,239,162532,2,0,L|473:135,1,99.0000030212403,10|8,0:0|0:0,0:0:0:0:
400,60,163198,6,0,B|351:29|351:29|283:73|308:162,1,198.000006042481,14|8,0:2|0:0,0:0:0:0:
360,242,164198,1,2,0:0:0:0:
360,242,164365,2,0,B|368:302|368:302|337:342,1,99.0000030212403,12|8,0:1|0:0,0:0:0:0:
300,357,164865,1,4,0:3:0:0:
223,294,165198,2,0,L|219:194,1,99.0000030212403,8|0,0:0|0:0,0:0:0:0:
171,100,165865,5,14,0:2:0:0:
171,100,166032,2,0,B|113:55|113:55|30:109,1,148.50000453186,6|8,0:3|0:0,0:0:0:0:
4,186,166865,1,2,0:0:0:0:
4,186,167032,2,0,B|16:297,1,99.0000030212403,12|8,0:1|0:0,0:0:0:0:
6,333,167532,1,4,0:3:0:0:
102,355,167865,2,0,B|135:345|135:345|160:354|160:354|207:349,1,99.0000030212403,10|2,0:0|0:0,0:0:0:0:
276,272,168532,5,14,0:2:0:0:
276,272,168698,2,0,B|261:225|261:225|285:119,1,148.50000453186,6|8,0:3|0:0,0:0:0:0:
400,37,169698,2,0,B|463:25|463:25|508:56,1,99.0000030212403,14|8,0:1|0:0,0:0:0:0:
506,91,170198,1,4,0:3:0:0:
464,180,170532,2,0,L|457:240,1,49.5000015106202,8|4,0:0|0:3,0:0:0:0:
375,334,171198,6,0,B|276:349|276:349|246:344|226:308,1,161.999995056153,14|2,2:2|0:0,0:0:0:0:
245,225,172198,2,0,P|251:198|248:173,1,40.4999987640381,8|8,0:0|0:0,0:0:0:0:
223,100,172698,2,0,P|179:69|121:72,1,80.9999975280763,8|8,0:3|0:3,0:0:0:0:
66,84,173365,1,8,0:3:0:0:
66,84,173532,1,4,0:3:0:0:
20,171,173865,6,0,L|6:273,2,90,14|6|6,1:2|1:3|1:3,0:0:0:0:
66,84,174865,2,0,L|132:78,1,45,6|6,1:3|1:3,0:0:0:0:
192,136,175365,2,0,L|264:147,1,45,6|6,1:3|1:3,0:0:0:0:
327,98,175865,1,10,1:2:0:0:
327,98,176032,1,10,1:2:0:0:
422,212,176532,6,0,L|433:313,2,90,14|6|6,1:2|1:3|1:3,0:0:0:0:
384,120,177532,2,0,P|357:107|321:108,1,45,6|6,1:3|1:3,0:0:0:0:
264,166,178032,2,0,P|244:174|191:181,1,45,6|6,1:3|1:3,0:0:0:0:
148,128,178532,1,10,1:2:0:0:
148,128,178698,1,10,1:2:0:0:
148,128,178865,1,10,1:1:0:0:
88,191,179198,6,0,L|72:288,2,72,4|0|0,3:2|3:2|3:2,0:0:0:0:
148,128,180198,2,0,P|166:123|187:122,1,36,0|0,3:2|3:2,0:0:0:0:
256,167,180698,2,0,P|274:172|295:173,1,36,0|0,3:2|3:2,0:0:0:0:
474,121,181865,6,0,L|483:40,2,72,2|0|0,3:0|3:2|3:2,0:0:0:0:
500,203,182865,2,0,L|488:252,1,36,0|0,3:2|3:2,0:0:0:0:
441,308,183365,2,0,L|403:324,1,36,0|0,3:2|3:2,0:0:0:0:
321,327,183865,2,0,L|274:303,1,36,0|0,3:2|3:2,0:0:0:0:
