osu file format v14

[General]
AudioFilename: audio.mp3
AudioLeadIn: 0
PreviewTime: 57069
Countdown: 0
SampleSet: Soft
StackLeniency: 0.3
Mode: 0
LetterboxInBreaks: 0
WidescreenStoryboard: 1

[Editor]
DistanceSpacing: 1.4
BeatDivisor: 4
GridSize: 32
TimelineZoom: 1.8

[Metadata]
Title:Chiisana Amai Koi
TitleUnicode:小さな甘い恋
Artist:yuiko
ArtistUnicode:yuiko
Creator:Lasse
Version:Hard
Source:あなたに恋する恋愛ルセット
Tags:yuikonnu ゆいこんぬ Meis Clauson anata ni koisuru ren'ai recette visual novel eroge ending short version Mir
BeatmapID:1343974
BeatmapSetID:632358

[Difficulty]
HPDrainRate:5
CircleSize:3.8
OverallDifficulty:6
ApproachRate:7.5
SliderMultiplier:2.79999990463257
SliderTickRate:1

[Events]
//Background and Video events
0,0,"bg03.jpg",0,0
//Break Periods
//Storyboard Layer 0 (Background)
Sprite,Background,Centre,"bg03.jpg",320,240 F,0,-1430,687,1 S,0,0,,0.4444444
//Storyboard Layer 1 (Fail)
//Storyboard Layer 2 (Pass)
//Storyboard Layer 3 (Foreground)
Sprite,Foreground,TopLeft,"SB\C0.jpg",320,240 S,0,0,,0,0.67 F,0,0,687,0,1 M,0,0,100240,-107,0,-107,-6360 F,0,12422,,1,0
Sprite,Foreground,TopLeft,"SB\C1.jpg",320,240 F,0,0,,1,0 S,0,0,,0,0.67 M,0,0,100240,-107,686,-107,-5674 F,0,2680,,0,1 F,0,23275,,1,0
Sprite,Foreground,TopLeft,"SB\C2.jpg",320,240 F,0,0,,1,0 S,0,0,,0,0.67 M,0,0,100240,-107,1372,-107,-4988 F,0,14034,,0,1 F,0,33687,,1,0
Sprite,Foreground,TopLeft,"SB\C3.jpg",320,240 F,0,0,,1,0 S,0,0,,0,0.67 M,0,0,100240,-107,2058,-107,-4302 F,0,24334,,0,1 F,0,46110,,1,0
Sprite,Foreground,TopLeft,"SB\C4.jpg",320,240 F,0,0,,1,0 S,0,0,,0,0.67 M,0,0,100240,-107,2744,-107,-3616 F,0,34082,,0,1 F,0,55658,,1,0
Sprite,Foreground,TopLeft,"SB\C5.jpg",320,240 F,0,0,,1,0 S,0,0,,0,0.67 M,0,0,100240,-107,3430,-107,-2930 F,0,45952,,0,1 F,0,66511,,1,0
Sprite,Foreground,TopLeft,"SB\C6.jpg",320,240 F,0,0,,1,0 S,0,0,,0,0.67 M,0,0,100240,-107,4116,-107,-2244 F,0,56717,,0,1 F,0,77275,,1,0
Sprite,Foreground,TopLeft,"SB\C7.jpg",320,240 F,0,0,,1,0 S,0,0,,0,0.67 M,0,0,100240,-107,4802,-107,-1558 F,0,67569,,0,1 F,0,88128,,1,0
Sprite,Foreground,TopLeft,"SB\C8.jpg",320,240 F,0,0,,1,0 S,0,0,,0,0.67 M,0,0,100240,-107,5488,-107,-872 F,0,78334,,0,1 F,0,98981,,1,0
Sprite,Foreground,TopLeft,"SB\C9.jpg",320,240 F,0,0,,1,0 S,0,0,,0,0.67 M,0,0,100240,-107,6174,-107,-186 F,0,89187,,0,1 F,0,97658,98275,1,0
//Storyboard Sound Samples

[TimingPoints]
-1430,705.882352941176,4,2,43,35,1,0
687,-125,4,2,43,35,0,0
697,-125,4,2,1,20,0,0
952,-125,4,2,43,5,0,0
1040,-125,4,2,43,35,0,0
1050,-125,4,2,1,20,0,0
1305,-125,4,2,43,5,0,0
1393,-200,4,2,43,30,0,0
6334,-125,4,2,43,35,0,0
6344,-125,4,2,1,20,0,0
6599,-125,4,2,43,5,0,0
6687,-125,4,2,43,35,0,0
6697,-125,4,2,1,20,0,0
6952,-125,4,2,43,5,0,0
7040,-200,4,2,43,30,0,0
11099,-142.857142857143,4,2,1,40,0,0
11452,-142.857142857143,4,2,56,40,0,0
11805,-125,4,2,1,50,0,0
12687,-111.111111111111,4,2,1,55,0,0
12952,-111.111111111111,4,2,43,5,0,0
13040,-111.111111111111,4,2,1,55,0,0
17628,-111.111111111111,4,2,1,55,0,0
17638,-111.111111111111,4,2,43,40,0,0
17893,-111.111111111111,4,2,43,5,0,0
17981,-111.111111111111,4,2,1,55,0,0
17991,-111.111111111111,4,2,43,40,0,0
18246,-111.111111111111,4,2,43,5,0,0
18334,-111.111111111111,4,2,1,55,0,0
18599,-111.111111111111,4,2,43,5,0,0
18687,-111.111111111111,4,2,1,55,0,0
23981,-133.333333333333,4,2,1,50,0,0
24334,-133.333333333333,4,2,1,46,0,0
34569,-133.333333333333,4,2,1,50,0,0
34922,-133.333333333333,4,2,56,50,0,0
35275,-133.333333333333,4,2,1,46,0,0
45158,-111.111111111111,4,2,1,50,0,0
45511,-111.111111111111,4,2,1,52,0,0
45864,-111.111111111111,4,2,1,54,0,0
46217,-111.111111111111,4,2,1,56,0,0
46569,-125,4,2,1,50,0,0
55040,-125,4,2,1,52,0,0
55305,-125,4,2,43,5,0,0
55393,-125,4,2,1,52,0,0
55658,-125,4,2,43,5,0,0
55746,-125,4,2,1,52,0,0
56011,-125,4,2,43,5,0,0
56099,-125,4,2,1,52,0,0
56364,-125,4,2,43,5,0,0
56452,-125,4,2,1,52,0,0
56628,-125,4,2,43,20,0,0
57158,-153.846153846154,4,2,43,40,0,0
57687,-153.846153846154,4,2,43,20,0,0
57775,-153.846153846154,4,2,99,5,0,0
57864,-90.9090909090909,4,2,1,70,0,1
58128,-90.9090909090909,4,2,43,5,0,1
58217,-90.9090909090909,4,2,1,70,0,1
64128,-90.9090909090909,4,2,43,5,0,1
64217,-90.9090909090909,4,2,1,70,0,1
66246,-90.9090909090909,4,2,1,30,0,1
66334,-90.9090909090909,4,2,1,70,0,1
68452,-90.9090909090909,4,2,1,74,0,1
68805,-90.9090909090909,4,2,56,74,0,1
69158,-90.9090909090909,4,2,1,70,0,1
69422,-90.9090909090909,4,2,43,5,0,1
69511,-90.9090909090909,4,2,1,70,0,1
75422,-90.9090909090909,4,2,43,5,0,1
75511,-90.9090909090909,4,2,1,70,0,1
77099,-90.9090909090909,4,2,56,66,0,1
77275,-90.9090909090909,4,2,56,64,0,1
77452,-90.9090909090909,4,2,56,62,0,1
77628,-111.111111111111,4,2,1,55,0,0
77893,-111.111111111111,4,2,43,5,0,0
77981,-111.111111111111,4,2,1,55,0,0
82569,-111.111111111111,4,2,1,55,0,0
82579,-111.111111111111,4,2,43,40,0,0
82834,-111.111111111111,4,2,43,5,0,0
82922,-111.111111111111,4,2,1,55,0,0
82932,-111.111111111111,4,2,43,40,0,0
83187,-111.111111111111,4,2,43,5,0,0
83275,-111.111111111111,4,2,1,55,0,0
83540,-111.111111111111,4,2,43,5,0,0
83628,-111.111111111111,4,2,1,55,0,0
88922,-111.111111111111,4,2,1,54,0,0
89628,-111.111111111111,4,2,1,40,0,0
90334,-111.111111111111,4,2,1,30,0,0
91040,-111.111111111111,4,2,1,20,0,0
91746,-111.111111111111,4,2,1,10,0,0
93158,-111.111111111111,4,2,43,5,0,0

[Colours]
Combo1 : 160,220,240
Combo2 : 255,170,170
Combo3 : 160,230,180
Combo4 : 250,220,150

[HitObjects]
1,82,687,6,2,P|53:75|74:123,1,111.999992370606,2|2,0:1|0:1,0:1:0:0:
74,123,1393,6,0,L|156:118,1,69.9999952316285,2|2,0:1|0:0,0:0:0:0:
234,157,2099,1,2,0:1:0:0:
319,108,2452,2,0,L|323:38,1,69.9999952316285,2|2,0:0|0:1,0:0:0:0:
419,59,3158,2,0,P|453:53|493:33,2,69.9999952316285,2|2|2,0:0|0:1|0:0,0:0:0:0:
319,108,4217,6,0,P|287:93|252:87,1,69.9999952316285,2|2,0:1|0:0,0:0:0:0:
155,101,4922,2,0,P|126:121|104:147,1,69.9999952316285,2|2,0:1|0:0,0:0:0:0:
66,239,5628,1,2,0:1:0:0:
6,161,5981,1,2,0:0:0:0:
82,260,6334,6,2,P|133:265|153:217,1,111.999992370606,2|2,0:1|0:1,0:1:0:0:
153,215,7040,6,0,L|235:210,1,69.9999952316285,2|2,0:1|0:0,0:0:0:0:
305,264,7746,1,2,0:1:0:0:
388,317,8099,2,0,L|470:312,1,69.9999952316285,2|2,0:0|0:1,0:0:0:0:
509,229,8805,2,0,P|475:217|440:217,2,69.9999952316285,2|2|2,0:0|0:1|0:0,0:0:0:0:
388,317,9864,6,0,L|457:312,1,69.9999952316285,2|2,0:1|0:0,0:0:0:0:
441,217,10569,2,0,L|372:222,1,69.9999952316285,2|2,0:1|0:0,0:0:0:0:
291,243,11099,5,8,0:0:0:0:
283,251,11187,1,8,0:0:0:0:
275,259,11275,2,0,L|271:205,2,48.9999951667788,10|8|4,0:0|0:3|0:3,0:0:0:0:
212,331,11805,5,10,0:3:0:0:
135,268,11981,2,0,P|108:264|80:264,1,55.9999961853028,10|8,0:0|0:3,0:0:0:0:
6,208,12334,1,8,0:0:0:0:
6,208,12511,1,8,0:0:0:0:
115,139,12687,6,0,P|134:83|112:6,1,125.999987571717,4|2,0:0|0:0,0:0:0:0:
120,19,13393,2,0,L|213:13,1,62.9999937858584,10|0,0:2|0:0,0:0:0:0:
273,59,13746,2,0,L|405:67,1,125.999987571717,2|8,0:0|0:3,0:0:0:0:
506,237,14452,5,10,0:3:0:0:
399,67,14805,2,0,P|409:100|412:140,1,62.9999937858584,10|0,0:0|0:0,0:0:0:0:
340,199,15158,2,0,L|208:191,1,125.999987571717,2|8,0:0|0:3,0:0:0:0:
214,191,15864,6,0,P|204:224|201:264,1,62.9999937858584,2|0,0:0|0:0,0:0:0:0:
113,303,16217,2,0,P|80:293|40:290,1,62.9999937858584,10|0,0:0|0:0,0:0:0:0:
3,201,16569,1,2,0:0:0:0:
155,72,16922,1,10,0:3:0:0:
155,72,17099,2,0,P|123:68|93:58,1,62.9999937858584,8|8,0:0|0:3,0:0:0:0:
51,289,17628,6,2,P|82:293|113:303,1,62.9999937858584,10|0,0:0|0:0,0:1:0:0:
200,252,17981,2,2,P|204:221|214:191,1,62.9999937858584,10|0,0:3|0:0,0:1:0:0:
316,138,18334,6,0,P|369:163|448:151,1,125.999987571717,4|2,0:0|0:0,0:0:0:0:
435,158,19040,2,0,L|444:250,1,62.9999937858584,10|0,0:2|0:0,0:0:0:0:
395,311,19393,2,0,P|342:284|262:295,1,125.999987571717,2|8,0:0|0:3,0:0:0:0:
86,356,20099,5,10,0:3:0:0:
277,289,20452,2,0,L|285:214,1,62.9999937858584,10|0,0:0|0:0,0:0:0:0:
319,131,20805,2,0,P|374:103|436:109,1,125.999987571717,2|8,0:0|0:3,0:0:0:0:
283,226,21511,6,0,L|220:218,1,62.9999937858584,2|0,0:0|0:0,0:0:0:0:
256,123,21864,2,0,L|345:133,1,62.9999937858584,10|0,0:0|0:0,0:0:0:0:
384,209,22217,1,2,0:0:0:0:
204,299,22569,5,8,0:3:0:0:
220,218,22746,1,8,0:0:0:0:
142,245,22922,2,0,L|53:235,1,62.9999937858584,10|0,0:3|0:0,0:0:0:0:
8,165,23275,6,0,P|26:130|39:93,1,62.9999937858584,10|10,0:0|0:3,0:0:0:0:
84,24,23628,1,10,0:0:0:0:
84,24,23805,1,8,0:0:0:0:
166,81,23981,6,0,P|218:80|270:76,1,104.999996852875,12|2,0:3|0:0,0:0:0:0:
456,36,24687,2,0,P|404:37|352:41,1,104.999996852875,8|2,0:0|0:0,0:0:0:0:
274,79,25217,1,2,0:0:0:0:
274,79,25393,2,0,P|270:131|264:183,2,104.999996852875,2|8|8,0:0|0:3|0:0,0:0:0:0:
274,79,26452,1,2,0:0:0:0:
313,242,26805,6,0,P|260:237|208:236,2,104.999996852875,2|2|8,0:0|0:0|0:0,0:0:0:0:
313,242,27864,1,2,0:0:0:0:
182,347,28217,6,0,P|129:345|77:341,1,104.999996852875,2|8,0:0|0:3,0:0:0:0:
14,186,28922,1,8,0:0:0:0:
14,186,29275,1,2,0:0:0:0:
184,120,29628,6,0,P|194:68|201:16,1,104.999996852875,8|2,0:3|0:0,0:0:0:0:
280,164,30334,2,0,P|312:122|347:83,1,104.999996852875,8|2,0:0|0:0,0:0:0:0:
433,86,30864,1,2,0:0:0:0:
433,86,31040,2,0,P|468:125|500:166,2,104.999996852875,2|8|8,0:0|0:3|0:0,0:0:0:0:
433,86,32099,1,2,0:0:0:0:
280,164,32452,6,0,P|269:215|262:267,2,104.999996852875,10|2|8,0:3|0:0|0:0,0:0:0:0:
280,164,33511,1,2,0:0:0:0:
334,316,33864,1,2,0:0:0:0:
175,286,34217,1,8,0:3:0:0:
284,168,34569,5,8,0:0:0:0:
284,168,34746,1,8,0:0:0:0:
263,255,34922,1,12,0:3:0:0:
94,176,35275,6,0,P|146:183|198:193,1,104.999996852875,12|2,0:3|0:0,0:0:0:0:
366,238,35981,2,0,P|313:244|262:254,1,104.999996852875,8|2,0:0|0:0,0:0:0:0:
202,197,36511,1,2,0:0:0:0:
202,197,36687,2,0,P|222:148|239:99,2,104.999996852875,2|8|8,0:0|0:3|0:0,0:0:0:0:
202,197,37746,1,2,0:0:0:0:
322,79,38099,6,0,P|375:84|427:85,2,104.999996852875,2|2|8,0:0|0:0|0:0,0:0:0:0:
322,79,39158,1,2,0:0:0:0:
154,70,39511,2,0,P|101:72|49:76,1,104.999996852875,2|8,0:0|0:3,0:0:0:0:
3,237,40217,1,8,0:0:0:0:
3,237,40569,1,2,0:0:0:0:
170,332,40922,6,0,P|180:280|187:228,1,104.999996852875,8|2,0:3|0:0,0:0:0:0:
342,332,41628,2,0,P|332:280|325:228,1,104.999996852875,8|2,0:0|0:0,0:0:0:0:
344,146,42158,1,2,0:0:0:0:
344,146,42334,2,0,P|353:94|360:42,2,104.999996852875,2|8|8,0:0|0:3|0:0,0:0:0:0:
344,146,43393,1,2,0:0:0:0:
168,146,43746,6,0,P|158:94|151:42,2,104.999996852875,10|2|8,0:3|0:0|0:0,0:0:0:0:
168,146,44805,1,2,0:0:0:0:
256,304,45158,6,0,L|256:240,1,62.9999937858584,10|0,0:3|0:0,0:0:0:0:
256,222,45422,1,8,0:0:0:0:
256,202,45511,2,0,P|266:163|286:131,1,62.9999937858584,10|8,0:0|0:3,0:0:0:0:
370,155,45864,2,0,P|399:164|431:166,1,62.9999937858584,8|8,0:0|0:3,0:0:0:0:
508,111,46217,1,10,0:0:0:0:
508,111,46393,1,8,0:0:0:0:
422,43,46569,6,0,B|386:37|386:37|342:46|342:46|311:41,2,111.999992370606,6|2|8,0:3|0:0|0:0,0:0:0:0:
422,43,47628,1,2,0:0:0:0:
469,215,47981,1,8,0:3:0:0:
301,174,48334,1,8,0:3:0:0:
301,174,48511,2,0,P|270:174|243:166,1,55.9999961853028,8|8,0:3|0:0,0:0:0:0:
179,106,48864,2,0,L|175:35,2,55.9999961853028,8|2|8,0:3|0:0|0:3,0:0:0:0:
116,189,49393,6,0,P|97:136|69:87,2,111.999992370606,10|2|8,0:3|0:0|0:0,0:0:0:0:
116,189,50452,1,2,0:0:0:0:
67,310,50805,1,8,0:3:0:0:
6,259,50981,1,8,0:0:0:0:
36,185,51158,1,8,0:3:0:0:
135,266,51511,2,0,B|186:289|186:289|242:264,1,111.999992370606,10|0,0:0|0:0,0:0:0:0:
194,40,52217,6,0,B|188:76|188:76|197:120|197:120|192:151,2,111.999992370606,6|2|8,0:3|0:0|0:0,0:0:0:0:
194,40,53275,1,2,0:0:0:0:
337,147,53628,1,8,0:3:0:0:
486,33,53981,1,8,0:3:0:0:
486,33,54158,2,0,B|473:62|473:62|470:95,1,55.9999961853028,8|8,0:3|0:0,0:0:0:0:
445,172,54511,2,0,B|458:201|458:201|461:234,2,55.9999961853028,8|2|8,0:3|0:0|0:3,0:0:0:0:
337,147,55040,5,10,0:3:0:0:
257,332,55393,1,10,0:3:0:0:
175,147,55746,1,10,0:3:0:0:
366,272,56099,5,10,0:3:0:0:
146,272,56452,1,10,0:0:0:0:
256,32,57158,5,2,0:1:0:0:
256,32,57334,2,0,L|256:123,1,90.9999896354681,2|0,0:0|0:0,0:0:0:0:
285,226,57864,6,0,P|241:167|167:170,2,153.99999420929,14|8|8,0:3|0:3|0:0,0:0:0:0:
96,330,58922,5,10,0:3:0:0:
159,246,59099,2,0,P|167:208|167:170,1,76.9999971046448,10|2,0:3|0:0,0:0:0:0:
81,112,59452,1,8,0:0:0:0:
81,112,59628,2,0,P|72:74|72:36,1,76.9999971046448,2|8,0:0|0:3,0:0:0:0:
203,65,59981,5,10,0:0:0:0:
167,170,60158,1,2,0:0:0:0:
275,150,60334,2,0,L|363:144,1,76.9999971046448,10|0,0:3|0:0,0:0:0:0:
367,157,60599,1,8,0:0:0:0:
383,170,60687,6,0,L|388:87,1,76.9999971046448,10|0,0:3|0:0,0:0:0:0:
439,7,61040,1,10,0:3:0:0:
439,7,61217,1,10,0:3:0:0:
463,104,61393,2,0,P|424:105|388:93,1,76.9999971046448,8|0,0:0|0:0,0:0:0:0:
305,35,61746,5,10,0:3:0:0:
240,112,61922,2,0,L|231:208,1,76.9999971046448,10|0,0:3|0:0,0:0:0:0:
185,277,62275,1,10,0:0:0:0:
158,177,62452,2,0,P|197:176|233:188,1,76.9999971046448,2|8,0:0|0:3,0:0:0:0:
330,164,62805,1,8,0:0:0:0:
330,164,63158,6,0,L|343:60,1,76.9999971046448,10|10,0:3|0:0,0:0:0:0:
334,68,63422,1,8,0:0:0:0:
328,48,63511,2,0,P|261:18|183:61,2,153.99999420929,8|8|8,0:3|0:3|0:0,0:0:0:0:
213,231,64569,5,10,0:3:0:0:
196,126,64746,2,0,L|191:33,1,76.9999971046448,10|2,0:3|0:0,0:0:0:0:
99,9,65099,2,0,L|94:102,1,76.9999971046448,8|2,0:0|0:0,0:0:0:0:
112,192,65452,1,8,0:3:0:0:
196,126,65628,1,8,0:0:0:0:
291,319,65981,5,2,0:3:0:0:
355,233,66158,1,10,0:0:0:0:
460,259,66334,2,0,L|476:159,1,76.9999971046448,10|0,0:3|0:0,0:0:0:0:
509,81,66687,1,10,0:3:0:0:
509,81,66864,1,10,0:3:0:0:
401,100,67040,2,0,P|365:98|323:83,1,76.9999971046448,8|0,0:0|0:0,0:0:0:0:
237,23,67393,5,10,0:3:0:0:
229,131,67569,2,0,L|213:231,1,76.9999971046448,10|2,0:3|0:0,0:0:0:0:
119,250,67922,1,8,0:0:0:0:
119,250,68099,2,0,L|106:173,1,76.9999971046448,2|8,0:0|0:3,0:0:0:0:
155,73,68452,5,10,0:2:0:0:
229,131,68628,1,8,0:2:0:0:
302,74,68805,5,8,0:3:0:0:
377,89,68981,1,8,0:3:0:0:
454,176,69158,6,0,P|456:97|511:46,2,153.99999420929,14|8|8,0:3|0:3|0:0,0:0:0:0:
303,331,70217,5,10,0:3:0:0:
225,255,70393,2,0,P|188:244|141:244,1,76.9999971046448,10|2,0:3|0:0,0:0:0:0:
57,294,70746,1,8,0:0:0:0:
57,294,70922,2,0,L|52:215,1,76.9999971046448,2|8,0:0|0:3,0:0:0:0:
124,137,71275,5,10,0:0:0:0:
149,242,71452,1,2,0:0:0:0:
221,162,71628,2,0,P|257:151|296:149,1,76.9999971046448,10|0,0:3|0:0,0:0:0:0:
315,156,71893,1,8,0:0:0:0:
331,166,71981,6,0,P|367:177|406:179,1,76.9999971046448,10|0,0:3|0:0,0:0:0:0:
480,111,72334,1,10,0:3:0:0:
480,111,72511,1,10,0:3:0:0:
501,208,72687,2,0,L|497:303,1,76.9999971046448,8|0,0:0|0:0,0:0:0:0:
425,354,73040,5,10,0:3:0:0:
336,306,73217,2,0,P|300:295|261:293,1,76.9999971046448,10|0,0:3|0:0,0:0:0:0:
161,317,73569,1,10,0:0:0:0:
107,230,73746,2,0,L|103:153,1,76.9999971046448,2|8,0:0|0:3,0:0:0:0:
80,54,74099,1,8,0:0:0:0:
80,54,74452,6,0,P|116:65|155:67,1,76.9999971046448,10|10,0:3|0:0,0:0:0:0:
173,60,74717,1,8,0:0:0:0:
191,54,74805,2,0,L|358:48,2,153.99999420929,8|8|8,0:3|0:3|0:0,0:0:0:0:
105,249,75864,1,8,0:3:0:0:
105,249,76040,1,8,0:3:0:0:
200,198,76217,5,2,0:0:0:0:
251,293,76393,1,10,0:0:0:0:
346,242,76569,2,0,P|383:238|432:238,1,76.9999971046448,2|8,0:0|0:0,0:0:0:0:
441,240,76834,1,8,0:0:0:0:
459,244,76922,6,0,L|468:165,1,76.9999971046448,8|4,0:0|0:3,0:0:0:0:
454,75,77275,1,10,0:3:0:0:
380,132,77452,1,6,0:3:0:0:
314,42,77628,6,0,B|249:31|252:62|190:44,1,125.999987571717,4|2,0:0|0:0,0:0:0:0:
190,44,78334,2,0,P|203:76|205:108,1,62.9999937858584,10|0,0:2|0:0,0:0:0:0:
138,180,78687,2,0,L|10:174,1,125.999987571717,2|8,0:0|0:3,0:0:0:0:
62,370,79393,5,10,0:3:0:0:
12,174,79746,2,0,L|9:110,1,62.9999937858584,10|0,0:0|0:0,0:0:0:0:
66,28,80099,2,0,P|126:49|188:43,1,125.999987571717,2|8,0:0|0:3,0:0:0:0:
187,43,80805,6,0,L|190:107,1,62.9999937858584,2|0,0:0|0:0,0:0:0:0:
275,162,81158,2,0,P|308:156|349:157,1,62.9999937858584,8|0,0:0|0:0,0:0:0:0:
433,184,81511,1,2,0:0:0:0:
320,351,81864,1,8,0:3:0:0:
320,351,82040,2,0,L|317:287,1,62.9999937858584,8|8,0:0|0:3,0:0:0:0:
277,99,82569,6,2,L|274:163,1,62.9999937858584,10|0,0:0|0:0,0:1:0:0:
196,226,82922,2,2,P|164:225|133:219,1,62.9999937858584,10|0,0:3|0:0,0:1:0:0:
44,151,83275,6,0,L|37:14,1,125.999987571717,4|2,0:0|0:0,0:0:0:0:
38,25,83981,2,0,P|70:26|101:19,1,62.9999937858584,10|0,0:2|0:0,0:0:0:0:
192,59,84334,2,0,P|251:52|321:91,1,125.999987571717,2|8,0:0|0:3,0:0:0:0:
429,243,85040,5,10,0:3:0:0:
310,80,85393,2,0,L|307:142,1,62.9999937858584,10|0,0:0|0:0,0:0:0:0:
239,218,85746,2,0,P|179:224|109:185,1,125.999987571717,2|8,0:0|0:3,0:0:0:0:
13,25,86452,6,0,L|15:87,1,62.9999937858584,2|0,0:0|0:0,0:0:0:0:
23,188,86805,2,0,L|20:250,1,62.9999937858584,10|0,0:0|0:0,0:0:0:0:
7,351,87158,1,2,0:0:0:0:
217,279,87511,5,8,0:3:0:0:
212,196,87687,1,8,0:0:0:0:
207,113,87864,2,0,L|209:50,1,62.9999937858584,10|0,0:3|0:0,0:0:0:0:
319,92,88217,6,0,P|356:89|386:77,1,62.9999937858584,10|10,0:0|0:3,0:0:0:0:
464,22,88569,1,10,0:0:0:0:
464,22,88746,1,8,0:0:0:0:
502,165,88922,5,14,0:3:0:0:
256,192,89011,12,0,94569,0:0:0:0:
