osu file format v14

[General]
AudioFilename: audio.mp3
AudioLeadIn: 0
PreviewTime: -1
Countdown: 1
SampleSet: None
StackLeniency: 0.2
Mode: 0
LetterboxInBreaks: 0
WidescreenStoryboard: 0

[Editor]
Bookmarks: 58222
DistanceSpacing: 1
BeatDivisor: 4
GridSize: 8
TimelineZoom: 1

[Metadata]
Title:Nanodesu!
TitleUnicode:なのです☆
Artist:yui
ArtistUnicode:堀江由衣
Creator:blueloniess
Version:
Source:
Tags:
BeatmapID:1962175
BeatmapSetID:939401

[Difficulty]
HPDrainRate:5
CircleSize:5
OverallDifficulty:8
ApproachRate:8
SliderMultiplier:1.7
SliderTickRate:1

[Events]
//Background and Video events
//Break Periods
2,88636,93493
2,169208,175115
2,191493,211115
//Storyboard Layer 0 (Background)
//Storyboard Layer 1 (Fail)
//Storyboard Layer 2 (Pass)
//Storyboard Layer 3 (Foreground)
//Storyboard Sound Samples

[TimingPoints]
151,428.571428571429,4,3,0,50,1,0

[HitObjects]
229,118,1008,5,0,0:0:0:0:
257,198,1222,1,0,0:0:0:0:
288,276,1436,1,0,0:0:0:0:
315,356,1651,1,0,0:0:0:0:
288,276,1865,6,0,L|194:276,1,85
315,356,2293,2,0,L|409:356,1,85
288,276,2722,1,0,0:0:0:0:
315,356,2936,1,0,0:0:0:0:
257,198,3151,1,0,0:0:0:0:
288,276,3365,1,0,0:0:0:0:
257,198,3579,5,0,0:0:0:0:
315,356,3793,1,0,0:0:0:0:
230,118,4008,5,0,0:0:0:0:
288,276,4222,1,0,0:0:0:0:
257,198,4436,5,0,0:0:0:0:
199,40,4651,1,0,0:0:0:0:
230,118,4865,5,0,0:0:0:0:
288,276,5079,2,0,L|384:276,1,85
257,198,5508,1,0,0:0:0:0:
315,356,5722,1,0,0:0:0:0:
199,40,5936,5,0,0:0:0:0:
257,198,6151,2,0,L|346:198,1,85
342,198,6472,1,0,0:0:0:0:
342,198,6579,1,0,0:0:0:0:
199,40,6793,2,0,L|34:40,1,127.5
71,40,7222,1,0,0:0:0:0:
71,40,7329,1,0,0:0:0:0:
71,40,7436,6,0,L|71:130,1,85
72,167,7758,1,0,0:0:0:0:
72,209,7865,5,0,0:0:0:0:
133,367,8079,1,0,0:0:0:0:
104,288,8293,1,0,0:0:0:0:
133,367,8508,2,0,L|334:367,1,170
441,300,9151,2,0,L|356:300,1,85
303,367,9579,1,0,0:0:0:0:
356,300,9793,1,0,0:0:0:0:
407,231,10008,1,0,0:0:0:0:
461,165,10222,1,0,0:0:0:0:
303,367,10436,5,0,0:0:0:0:
461,165,10651,1,0,0:0:0:0:
356,300,10865,5,0,0:0:0:0:
407,231,11079,1,0,0:0:0:0:
461,165,11293,6,0,L|371:165,1,85
326,95,11722,1,0,0:0:0:0:
285,20,11936,2,0,L|115:20,1,170
326,95,12579,1,0,0:0:0:0:
285,20,12793,2,0,L|167:20,1,85
326,95,13222,5,0,0:0:0:0:
376,165,13436,1,0,0:0:0:0:
285,20,13651,1,0,0:0:0:0:
407,231,13865,5,0,0:0:0:0:
326,95,14079,1,0,0:0:0:0:
441,300,14293,2,0,L|348:300,1,85
104,288,14722,5,0,0:0:0:0:
133,367,14936,1,0,0:0:0:0:
72,209,15151,1,0,0:0:0:0:
137,155,15365,2,0,L|308:155,1,170
256,86,16008,2,0,L|155:86,1,85
307,155,16436,1,0,0:0:0:0:
256,86,16651,5,0,0:0:0:0:
307,155,16865,1,0,0:0:0:0:
359,221,17079,1,0,0:0:0:0:
406,291,17293,2,0,L|506:291,1,85
359,221,17722,2,0,L|259:221,1,85
406,291,18151,1,0,0:0:0:0:
359,221,18365,1,0,0:0:0:0:
307,155,18579,1,0,0:0:0:0:
256,86,18793,2,0,L|86:86,1,170
42,159,19436,6,0,L|127:159,1,85
86,86,19865,1,0,0:0:0:0:
127,159,20079,1,0,0:0:0:0:
169,232,20293,1,0,0:0:0:0:
209,306,20508,1,0,0:0:0:0:
169,232,20722,6,0,L|64:232,1,85
209,306,21151,2,0,L|314:306,1,85
169,232,21579,6,0,L|64:232,1,85
84,232,21901,1,0,0:0:0:0:
84,232,22008,1,0,0:0:0:0:
209,306,22222,1,0,0:0:0:0:
209,306,22329,1,0,0:0:0:0:
209,306,22436,5,0,0:0:0:0:
209,306,22543,1,0,0:0:0:0:
209,306,22651,1,0,0:0:0:0:
209,306,22758,1,0,0:0:0:0:
169,232,22865,6,0,L|132:232,7,21.25
209,306,23293,5,0,0:0:0:0:
248,230,23508,1,0,0:0:0:0:
283,153,23722,1,0,0:0:0:0:
320,77,23936,1,0,0:0:0:0:
283,153,24151,2,0,L|113:153,1,170
248,230,24793,1,0,0:0:0:0:
327,262,25008,2,0,L|429:262,1,85
248,230,25436,2,0,L|163:230,1,85
327,262,25865,5,0,0:0:0:0:
248,230,26079,1,0,0:0:0:0:
283,153,26293,2,0,L|370:153,1,85
248,230,26722,1,0,0:0:0:0:
283,153,26936,1,0,0:0:0:0:
321,76,27151,1,0,0:0:0:0:
360,1,27365,1,0,0:0:0:0:
283,153,27579,6,0,L|190:153,1,85
236,76,28008,2,0,L|329:76,1,85
198,153,28436,1,0,0:0:0:0:
236,76,28651,5,0,0:0:0:0:
114,300,28865,1,0,0:0:0:0:
198,153,29079,5,0,0:0:0:0:
157,227,29293,1,0,0:0:0:0:
209,306,29508,6,0,L|379:306,1,170
344,227,30151,1,0,0:0:0:0:
379,306,30365,1,0,0:0:0:0:
344,227,30579,1,0,0:0:0:0:
309,149,30793,1,0,0:0:0:0:
271,72,31008,6,0,L|101:72,1,170
132,151,31651,1,0,0:0:0:0:
101,72,31865,1,0,0:0:0:0:
163,230,32079,1,0,0:0:0:0:
132,151,32293,1,0,0:0:0:0:
163,230,32508,2,0,L|336:230,1,170
309,149,33151,6,0,L|224:149,1,85
333,230,33579,1,0,0:0:0:0:
309,149,33793,1,0,0:0:0:0:
285,68,34008,1,0,0:0:0:0:
309,149,34222,1,0,0:0:0:0:
357,311,34436,1,0,0:0:0:0:
333,230,34650,1,0,0:0:0:0:
309,149,34865,1,0,0:0:0:0:
333,230,35079,1,0,0:0:0:0:
357,311,35293,6,0,L|466:310,1,85
309,149,35722,2,0,L|200:148,1,85
333,230,36151,5,0,0:0:0:0:
309,149,36365,1,0,0:0:0:0:
285,68,36579,1,0,0:0:0:0:
357,311,36793,5,0,0:0:0:0:
333,230,37008,6,0,L|281:230,1,42.5
309,149,37222,2,0,L|361:149,1,42.5
285,68,37436,2,0,L|233:68,1,42.5
333,230,37651,2,0,L|385:230,1,42.5
309,149,37865,2,0,L|257:149,1,42.5
285,68,38079,2,0,L|337:68,1,42.5
333,230,38293,2,0,L|281:230,1,42.5
357,311,38508,2,0,L|409:311,1,42.5
333,230,38722,2,0,L|281:230,1,42.5
309,149,38936,2,0,L|361:149,1,42.5
285,68,39151,2,0,L|233:68,1,42.5
309,149,39365,2,0,L|351:149,1,42.5
157,66,39579,6,0,L|114:66,1,42.5
72,139,39793,2,0,L|114:139,1,42.5
162,209,40008,6,0,L|119:209,1,42.5
77,282,40222,2,0,L|119:282,1,42.5
76,209,40436,2,0,L|119:209,1,42.5
156,139,40651,2,0,L|114:139,1,42.5
72,66,40865,2,0,L|114:66,1,42.5
114,139,41079,6,0,L|71:139,1,42.5
119,282,41293,2,0,L|161:282,1,42.5
76,209,41508,6,0,L|33:209,1,42.5
119,282,41722,2,0,L|161:282,1,42.5
71,139,41936,6,0,L|28:139,1,42.5
119,209,42151,2,0,L|161:209,1,42.5
72,66,42365,6,0,L|29:66,1,42.5
161,282,42579,2,0,L|203:282,1,42.5
71,139,42793,6,0,L|28:139,1,42.5
161,282,43008,2,0,L|203:282,1,42.5
119,209,43222,5,0,0:0:0:0:
161,282,43436,1,0,0:0:0:0:
71,139,43651,1,0,0:0:0:0:
119,209,43865,5,0,0:0:0:0:
23,69,44079,1,0,0:0:0:0:
71,139,44293,1,0,0:0:0:0:
119,209,44508,1,0,0:0:0:0:
203,209,44722,6,0,L|373:209,1,170
331,134,45365,2,0,L|210:134,1,85
373,209,45793,1,0,0:0:0:0:
331,134,46008,1,0,0:0:0:0:
289,59,46222,1,0,0:0:0:0:
331,134,46436,1,0,0:0:0:0:
373,209,46651,5,0,0:0:0:0:
457,359,46865,1,0,0:0:0:0:
415,284,47079,1,0,0:0:0:0:
373,209,47293,2,0,L|289:209,1,85
331,134,47722,2,0,L|415:134,1,85
415,284,48151,5,0,0:0:0:0:
373,209,48365,1,0,0:0:0:0:
331,134,48579,1,0,0:0:0:0:
289,59,48793,1,0,0:0:0:0:
415,284,49008,1,0,0:0:0:0:
373,209,49222,5,0,0:0:0:0:
457,359,49436,1,0,0:0:0:0:
415,284,49651,5,0,0:0:0:0:
331,134,49865,1,0,0:0:0:0:
373,209,50079,5,0,0:0:0:0:
289,59,50293,1,0,0:0:0:0:
457,359,50508,1,0,0:0:0:0:
372,359,50722,6,0,L|202:359,1,170
160,284,51365,1,0,0:0:0:0:
202,359,51579,5,0,0:0:0:0:
160,284,51793,1,0,0:0:0:0:
118,209,52008,1,0,0:0:0:0:
76,134,52222,1,0,0:0:0:0:
127,66,52436,6,0,L|212:66,1,85
161,134,52865,2,0,L|76:134,1,85
118,209,53293,1,0,0:0:0:0:
160,284,53508,1,0,0:0:0:0:
202,359,53722,1,0,0:0:0:0:
76,134,53936,1,0,0:0:0:0:
118,209,54151,6,0,L|203:209,1,85
245,284,54580,2,0,L|160:284,1,85
203,209,55008,1,0,0:0:0:0:
160,284,55222,1,0,0:0:0:0:
246,134,55436,1,0,0:0:0:0:
203,209,55650,1,0,0:0:0:0:
160,284,55865,1,0,0:0:0:0:
117,359,56079,5,0,0:0:0:0:
246,134,56293,1,0,0:0:0:0:
160,284,56508,5,0,0:0:0:0:
289,59,56722,1,0,0:0:0:0:
203,209,56937,5,0,0:0:0:0:
289,59,57151,2,0,L|375:59,1,85
246,134,57579,6,0,L|183:134,1,42.5
203,209,57793,2,0,L|266:209,1,42.5
289,59,58008,6,0,L|226:59,1,42.5
160,284,58222,2,0,L|223:284,1,42.5
203,134,58436,6,0,L|140:134,1,42.5
245,209,58651,2,0,L|308:209,1,42.5
246,59,58865,6,0,L|183:59,1,42.5
203,209,59079,2,0,L|245:209,1,42.5
246,134,59293,6,0,L|183:134,1,42.5
202,284,59508,2,0,L|265:284,1,42.5
203,209,59722,6,0,L|140:209,1,42.5
117,359,59936,2,0,L|159:359,1,42.5
203,209,60151,5,0,0:0:0:0:
159,359,60365,1,0,0:0:0:0:
246,59,60579,5,0,0:0:0:0:
203,209,60793,1,0,0:0:0:0:
244,284,61008,6,0,L|289:284,1,42.5
203,209,61222,2,0,L|158:209,1,42.5
286,284,61436,6,0,L|331:284,1,42.5
245,209,61650,2,0,L|200:209,1,42.5
328,284,61865,6,0,L|373:284,1,42.5
287,209,62079,2,0,L|242:209,1,42.5
370,284,62293,6,0,L|415:284,1,42.5
329,209,62507,2,0,L|284:209,1,42.5
412,284,62722,6,0,L|457:284,1,42.5
371,209,62936,2,0,L|326:209,1,42.5
454,284,63151,6,0,L|499:284,1,42.5
413,209,63365,2,0,L|368:209,1,42.5
454,284,63579,6,0,L|276:284,1,170
328,209,64222,2,0,L|370:209,1,42.5
284,284,64436,1,0,0:0:0:0:
328,209,64651,5,0,0:0:0:0:
328,209,64865,1,0,0:0:0:0:
372,134,65080,5,0,0:0:0:0:
372,134,65293,1,0,0:0:0:0:
416,59,65508,5,0,0:0:0:0:
328,209,65722,1,0,0:0:0:0:
284,284,65936,1,0,0:0:0:0:
328,209,66151,5,0,0:0:0:0:
240,359,66365,1,0,0:0:0:0:
416,59,66579,5,0,0:0:0:0:
328,209,66793,1,0,0:0:0:0:
372,134,67008,5,0,0:0:0:0:
284,284,67222,1,0,0:0:0:0:
328,209,67436,5,0,0:0:0:0:
240,359,67651,1,0,0:0:0:0:
181,297,67865,6,0,P|123:275|35:347,1,170
119,354,68508,1,0,0:0:0:0:
102,278,68722,1,0,0:0:0:0:
85,202,68936,1,0,0:0:0:0:
68,126,69151,1,0,0:0:0:0:
51,50,69365,1,0,0:0:0:0:
68,126,69579,6,0,L|155:126,1,85
238,129,70008,1,0,0:0:0:0:
322,127,70222,2,0,L|322:308,1,170
407,299,70865,2,0,L|407:214,1,85
408,128,71293,2,0,L|408:43,1,85
324,40,71722,1,0,0:0:0:0:
322,127,71936,1,0,0:0:0:0:
408,128,72151,5,0,0:0:0:0:
407,214,72365,1,0,0:0:0:0:
322,216,72579,1,0,0:0:0:0:
322,297,72793,1,0,0:0:0:0:
407,299,73008,5,0,0:0:0:0:
324,40,73222,1,0,0:0:0:0:
408,43,73436,5,0,0:0:0:0:
322,297,73651,1,0,0:0:0:0:
237,299,73865,2,0,L|152:299,1,85
67,300,74293,1,0,0:0:0:0:
68,128,74722,6,0,L|238:128,1,170
324,128,75365,1,0,0:0:0:0:
324,44,75579,5,0,0:0:0:0:
240,44,75793,1,0,0:0:0:0:
238,128,76008,1,0,0:0:0:0:
328,126,76222,1,0,0:0:0:0:
328,212,76436,5,0,0:0:0:0:
242,212,76650,1,0,0:0:0:0:
244,296,76865,1,0,0:0:0:0:
328,296,77079,2,0,L|328:120,1,170
240,44,77722,2,0,L|240:132,1,85
242,212,78151,1,0,0:0:0:0:
244,296,78365,1,0,0:0:0:0:
328,296,78579,1,0,0:0:0:0:
328,126,78793,1,0,0:0:0:0:
240,129,79008,6,0,L|143:129,1,85
328,212,79436,2,0,L|425:212,1,85
242,212,79865,1,0,0:0:0:0:
328,126,80079,1,0,0:0:0:0:
328,296,80293,1,0,0:0:0:0:
240,299,80508,1,0,0:0:0:0:
240,44,80936,5,0,0:0:0:0:
325,44,81151,1,0,0:0:0:0:
328,126,81365,1,0,0:0:0:0:
240,129,81579,2,0,L|240:316,1,170
328,381,82222,2,0,L|328:296,1,85
328,212,82651,1,0,0:0:0:0:
328,126,82865,1,0,0:0:0:0:
325,44,83079,1,0,0:0:0:0:
240,44,83293,1,0,0:0:0:0:
240,129,83508,1,0,0:0:0:0:
240,214,83722,6,0,L|240:390,1,170
324,213,84365,1,0,0:0:0:0:
240,129,84579,2,0,L|142:128,1,85
240,214,85008,2,0,L|338:213,1,85
240,44,85436,1,0,0:0:0:0:
240,129,85651,1,0,0:0:0:0:
240,214,85865,5,0,0:0:0:0:
240,298,86079,1,0,0:0:0:0:
240,384,86293,2,0,L|418:384,1,170
240,214,86936,2,0,L|155:214,1,85
240,298,87365,1,0,0:0:0:0:
240,129,87579,1,0,0:0:0:0:
240,384,87793,1,0,0:0:0:0:
240,44,88008,1,0,0:0:0:0:
240,214,88222,1,0,0:0:0:0:
240,44,88436,5,0,0:0:0:0:
229,278,95293,5,0,0:0:0:0:
257,198,95507,1,0,0:0:0:0:
288,120,95721,1,0,0:0:0:0:
315,40,95936,1,0,0:0:0:0:
288,120,96150,6,0,L|194:120,1,85
315,40,96578,2,0,L|409:40,1,85
288,120,97007,1,0,0:0:0:0:
315,40,97221,1,0,0:0:0:0:
257,198,97436,1,0,0:0:0:0:
288,120,97650,1,0,0:0:0:0:
257,198,97864,5,0,0:0:0:0:
315,40,98078,1,0,0:0:0:0:
230,278,98293,5,0,0:0:0:0:
288,120,98507,1,0,0:0:0:0:
257,198,98721,5,0,0:0:0:0:
199,356,98936,1,0,0:0:0:0:
230,278,99150,5,0,0:0:0:0:
288,120,99364,2,0,L|384:120,1,85
257,198,99793,1,0,0:0:0:0:
315,40,100007,1,0,0:0:0:0:
199,356,100221,5,0,0:0:0:0:
257,198,100436,2,0,L|346:198,1,85
199,356,100865,2,0,L|110:356,1,85
257,198,101293,5,0,0:0:0:0:
230,278,101508,1,0,0:0:0:0:
315,40,101722,5,0,0:0:0:0:
288,120,101936,1,0,0:0:0:0:
199,356,102151,6,0,L|110:356,1,85
114,356,102472,1,0,0:0:0:0:
114,356,102579,1,0,0:0:0:0:
230,278,102793,1,0,0:0:0:0:
230,278,102901,1,0,0:0:0:0:
230,278,103008,1,0,0:0:0:0:
230,278,103115,1,0,0:0:0:0:
230,278,103222,1,0,0:0:0:0:
230,278,103329,1,0,0:0:0:0:
257,198,103436,6,0,L|287:198,7,21.25
257,198,103865,5,0,0:0:0:0:
230,278,104079,1,0,0:0:0:0:
315,40,104293,1,0,0:0:0:0:
288,120,104508,1,0,0:0:0:0:
257,198,104722,6,0,L|84:198,1,170
230,278,105365,1,0,0:0:0:0:
288,120,105579,2,0,L|195:120,1,85
230,278,106008,2,0,L|323:278,1,85
342,198,106436,5,0,0:0:0:0:
315,278,106651,1,0,0:0:0:0:
315,278,106758,1,0,0:0:0:0:
315,278,106865,2,0,L|267:278,2,42.5
288,358,107293,5,0,0:0:0:0:
342,198,107508,1,0,0:0:0:0:
315,278,107722,5,0,0:0:0:0:
369,118,107937,1,0,0:0:0:0:
342,198,108151,5,0,0:0:0:0:
396,38,108366,1,0,0:0:0:0:
369,118,108579,1,0,0:0:0:0:
342,198,108793,1,0,0:0:0:0:
315,278,109008,1,0,0:0:0:0:
396,38,109222,5,0,0:0:0:0:
342,198,109436,1,0,0:0:0:0:
369,118,109651,5,0,0:0:0:0:
315,278,109865,1,0,0:0:0:0:
288,358,110079,6,0,L|115:358,1,170
145,278,110722,2,0,L|230:278,1,85
315,278,111151,1,0,0:0:0:0:
288,358,111365,1,0,0:0:0:0:
230,278,111579,5,0,0:0:0:0:
288,120,111793,1,0,0:0:0:0:
202,359,112008,5,0,0:0:0:0:
257,198,112222,1,0,0:0:0:0:
315,40,112436,5,0,0:0:0:0:
288,120,112651,1,0,0:0:0:0:
257,198,112865,1,0,0:0:0:0:
230,278,113079,1,0,0:0:0:0:
202,359,113293,2,0,L|111:359,1,85
117,359,113615,1,0,0:0:0:0:
117,359,113722,1,0,0:0:0:0:
117,359,113829,1,0,0:0:0:0:
117,359,113936,1,0,0:0:0:0:
315,278,114151,5,0,0:0:0:0:
288,358,114365,1,0,0:0:0:0:
369,118,114579,1,0,0:0:0:0:
342,198,114793,1,0,0:0:0:0:
288,358,115008,5,0,0:0:0:0:
396,38,115222,1,0,0:0:0:0:
315,278,115436,1,0,0:0:0:0:
369,118,115651,1,0,0:0:0:0:
342,198,115865,5,0,0:0:0:0:
369,118,116079,1,0,0:0:0:0:
396,38,116293,1,0,0:0:0:0:
315,278,116508,1,0,0:0:0:0:
288,358,116722,2,0,L|195:358,1,85
145,278,117151,2,0,L|238:278,1,85
315,278,117579,6,0,L|374:278,1,42.5
342,198,117793,2,0,L|283:198,1,42.5
272,278,118008,6,0,L|314:278,1,42.5
299,198,118222,2,0,L|256:198,1,42.5
230,278,118436,6,0,L|272:278,1,42.5
256,198,118650,2,0,L|213:198,1,42.5
60,278,118865,2,0,L|184:278,1,85
230,278,119186,1,0,0:0:0:0:
230,278,119293,6,0,L|272:278,1,42.5
213,198,119508,2,0,L|170:198,1,42.5
170,198,119722,2,0,L|127:198,1,42.5
187,278,119936,2,0,L|229:278,1,42.5
145,278,120151,6,0,L|187:278,1,42.5
187,278,120365,2,0,L|229:278,1,42.5
43,198,120579,6,0,L|85:198,1,42.5
85,198,120793,2,0,L|127:198,1,42.5
145,278,121008,6,0,L|94:278,1,42.5
43,198,121222,2,0,L|85:198,1,42.5
102,278,121436,6,0,L|51:278,1,42.5
127,198,121650,2,0,L|169:198,1,42.5
59,278,121865,2,0,L|8:278,3,42.5
169,198,122293,2,0,L|293:198,1,85
357,278,122615,1,0,0:0:0:0:
357,278,122722,6,0,L|306:278,1,42.5
254,198,122936,1,0,0:0:0:0:
254,198,123043,2,0,L|305:198,1,42.5
445,278,123258,6,0,L|394:278,1,42.5
342,198,123472,1,0,0:0:0:0:
342,198,123579,2,0,L|393:198,1,42.5
369,118,123793,1,0,0:0:0:0:
314,278,124008,1,0,0:0:0:0:
342,198,124222,1,0,0:0:0:0:
288,358,124436,5,0,0:0:0:0:
314,278,124651,1,0,0:0:0:0:
342,198,124865,1,0,0:0:0:0:
369,118,125079,1,0,0:0:0:0:
396,38,125293,6,0,L|223:38,1,170
140,36,125936,1,0,0:0:0:0:
54,37,126151,2,0,L|54:127,1,85
141,207,126579,2,0,L|141:122,1,85
54,122,127008,1,0,0:0:0:0:
54,207,127222,1,0,0:0:0:0:
141,207,127436,2,0,L|141:160,3,42.5
140,36,127865,5,0,0:0:0:0:
54,207,128079,1,0,0:0:0:0:
228,207,128293,1,0,0:0:0:0:
141,122,128508,1,0,0:0:0:0:
54,292,128722,1,0,0:0:0:0:
228,292,128936,1,0,0:0:0:0:
141,207,129151,1,0,0:0:0:0:
141,377,129365,1,0,0:0:0:0:
140,36,129579,1,0,0:0:0:0:
54,122,129793,5,0,0:0:0:0:
228,207,130008,1,0,0:0:0:0:
228,122,130222,5,0,0:0:0:0:
54,207,130436,1,0,0:0:0:0:
141,377,130651,5,0,0:0:0:0:
140,293,130865,1,0,0:0:0:0:
141,207,131079,1,0,0:0:0:0:
141,122,131293,1,0,0:0:0:0:
140,36,131508,1,0,0:0:0:0:
140,293,131722,1,0,0:0:0:0:
141,122,131936,1,0,0:0:0:0:
141,377,132151,5,0,0:0:0:0:
140,36,132365,1,0,0:0:0:0:
140,293,132579,1,0,0:0:0:0:
141,122,132793,1,0,0:0:0:0:
228,207,133008,2,0,L|407:207,1,170
228,122,133651,1,0,0:0:0:0:
141,122,133865,6,0,L|54:122,1,85
56,122,134186,1,0,0:0:0:0:
56,122,134293,1,0,0:0:0:0:
56,122,134401,1,0,0:0:0:0:
56,122,134508,1,0,0:0:0:0:
228,207,134722,2,0,L|407:207,1,170
228,122,135365,1,0,0:0:0:0:
141,207,135579,1,0,0:0:0:0:
228,292,135793,1,0,0:0:0:0:
315,207,136008,1,0,0:0:0:0:
228,122,136222,6,0,L|132:122,1,85
143,290,136651,1,0,0:0:0:0:
228,207,136865,1,0,0:0:0:0:
143,122,137079,1,0,0:0:0:0:
54,207,137293,1,0,0:0:0:0:
228,207,137508,1,0,0:0:0:0:
143,122,137722,1,0,0:0:0:0:
143,290,137937,1,0,0:0:0:0:
143,122,138151,6,0,L|143:72,1,42.5
228,79,138365,2,0,L|228:121,1,42.5
143,164,138579,6,0,L|143:114,1,42.5
228,121,138793,2,0,L|228:163,1,42.5
143,206,139008,6,0,L|143:156,1,42.5
228,163,139222,2,0,L|228:205,1,42.5
143,248,139436,6,0,L|143:198,1,42.5
228,205,139650,2,0,L|228:247,1,42.5
143,290,139865,6,0,L|143:240,1,42.5
228,247,140079,2,0,L|228:289,1,42.5
143,332,140293,6,0,L|143:282,1,42.5
228,289,140507,2,0,L|228:331,1,42.5
143,122,140722,6,0,L|143:72,1,42.5
143,164,140936,6,0,L|143:114,1,42.5
143,206,141151,6,0,L|143:156,1,42.5
143,248,141365,6,0,L|143:198,1,42.5
228,79,141579,2,0,L|228:121,1,42.5
143,290,141793,1,0,0:0:0:0:
143,290,141901,2,0,L|143:240,1,42.5
228,121,142115,1,0,0:0:0:0:
228,121,142222,2,0,L|228:163,1,42.5
143,79,142436,6,0,L|143:122,1,42.5
228,205,142651,1,0,0:0:0:0:
228,205,142758,2,0,L|228:247,1,42.5
143,121,142972,5,0,0:0:0:0:
143,121,143079,2,0,L|143:163,1,42.5
228,36,143293,5,0,0:0:0:0:
228,36,143400,2,0,L|228:78,1,42.5
143,248,143615,5,0,0:0:0:0:
143,248,143722,2,0,L|143:290,1,42.5
228,121,143936,5,0,0:0:0:0:
228,121,144043,2,0,L|228:163,1,42.5
143,290,144258,2,0,L|143:248,1,42.5
143,333,144472,2,0,L|143:290,1,42.5
228,205,144686,1,0,0:0:0:0:
228,205,144793,1,0,0:0:0:0:
228,205,144901,1,0,0:0:0:0:
228,205,145008,5,0,0:0:0:0:
228,289,145222,1,0,0:0:0:0:
143,248,145436,1,0,0:0:0:0:
143,163,145651,1,0,0:0:0:0:
228,121,145865,5,0,0:0:0:0:
228,37,146079,1,0,0:0:0:0:
143,78,146293,1,0,0:0:0:0:
143,163,146508,1,0,0:0:0:0:
228,289,146722,5,0,0:0:0:0:
272,288,146829,1,0,0:0:0:0:
316,288,146936,1,0,0:0:0:0:
360,288,147043,1,0,0:0:0:0:
404,288,147151,1,0,0:0:0:0:
448,292,147258,1,0,0:0:0:0:
492,292,147365,5,0,0:0:0:0:
492,248,147472,1,0,0:0:0:0:
492,204,147579,1,0,0:0:0:0:
492,160,147686,1,0,0:0:0:0:
492,116,147793,1,0,0:0:0:0:
492,72,147901,1,0,0:0:0:0:
492,28,148008,2,0,L|436:28,3,42.5
256,24,148436,6,0,L|256:200,1,170
256,364,149079,1,0,0:0:0:0:
422,281,149293,6,0,P|381:269|340:276,1,85
256,364,149722,1,0,0:0:0:0:
256,194,149936,1,0,0:0:0:0:
256,194,150043,1,0,0:0:0:0:
256,194,150151,1,0,0:0:0:0:
89,281,150365,6,0,P|129:293|171:286,1,85
256,194,150793,2,0,L|256:24,1,170
84,24,151436,1,0,0:0:0:0:
84,24,151543,1,0,0:0:0:0:
84,24,151651,1,0,0:0:0:0:
89,103,151865,6,0,P|129:90|171:97,1,85
256,194,152293,1,0,0:0:0:0:
256,24,152508,1,0,0:0:0:0:
423,103,152722,2,0,P|382:90|340:97,1,85
256,194,153151,1,0,0:0:0:0:
256,24,153365,1,0,0:0:0:0:
136,192,153579,5,0,0:0:0:0:
376,192,153793,1,0,0:0:0:0:
256,364,154008,1,0,0:0:0:0:
256,280,154222,2,0,L|256:110,1,170
256,24,154865,1,0,0:0:0:0:
89,103,155079,1,0,0:0:0:0:
339,276,155293,6,0,P|380:282|421:270,1,85
256,110,155722,1,0,0:0:0:0:
136,192,155936,1,0,0:0:0:0:
376,192,156151,1,0,0:0:0:0:
256,24,156365,2,0,P|165:10|77:36,1,170
90,30,156901,1,0,0:0:0:0:
90,30,157008,5,0,0:0:0:0:
256,194,157222,1,0,0:0:0:0:
136,192,157436,1,0,0:0:0:0:
256,110,157651,2,0,P|338:129|421:116,1,170
256,280,158293,1,0,0:0:0:0:
256,280,158401,1,0,0:0:0:0:
256,280,158508,1,0,0:0:0:0:
339,109,158722,6,0,P|380:103|421:115,1,85
256,24,159151,1,0,0:0:0:0:
256,194,159365,1,0,0:0:0:0:
89,103,159579,2,0,P|129:115|171:109,1,85
256,24,160008,1,0,0:0:0:0:
256,194,160222,1,0,0:0:0:0:
256,364,160436,5,0,0:0:0:0:
256,280,160651,1,0,0:0:0:0:
256,194,160865,1,0,0:0:0:0:
256,110,161079,1,0,0:0:0:0:
256,24,161293,5,0,0:0:0:0:
256,24,161401,1,0,0:0:0:0:
256,24,161508,1,0,0:0:0:0:
256,24,161615,1,0,0:0:0:0:
256,24,161722,1,0,0:0:0:0:
89,103,161936,1,0,0:0:0:0:
256,110,162151,2,0,B|342:127|342:127|417:93|417:93|522:117,1,255
499,195,163008,2,0,B|416:176|416:176|341:210|341:210|255:193,1,255
256,280,163865,2,0,L|447:318,1,170
255,193,164508,1,0,0:0:0:0:
175,141,164722,6,0,P|158:211|175:245,1,85
161,220,165043,1,0,0:0:0:0:
161,220,165151,1,0,0:0:0:0:
255,193,165365,1,0,0:0:0:0:
164,377,165579,2,0,P|190:297|161:219,1,170
80,301,166222,1,0,0:0:0:0:
338,322,166436,6,0,L|450:309,1,85
245,229,166865,2,0,L|133:216,1,85
256,384,167293,1,0,0:0:0:0:
416,177,167508,1,0,0:0:0:0:
245,229,167722,1,0,0:0:0:0:
338,322,167936,1,0,0:0:0:0:
339,109,168151,5,0,0:0:0:0:
339,109,168258,1,0,0:0:0:0:
339,109,168365,1,0,0:0:0:0:
339,109,168472,1,0,0:0:0:0:
339,109,168579,1,0,0:0:0:0:
160,219,168793,1,0,0:0:0:0:
422,312,169008,1,0,0:0:0:0:
422,312,175865,5,0,0:0:0:0:
480,248,176079,1,0,0:0:0:0:
440,176,176293,2,0,P|408:208|400:256,1,85
480,248,176722,1,0,0:0:0:0:
32,248,176936,1,0,0:0:0:0:
72,176,177151,2,0,P|104:208|112:256,1,85
90,312,177579,5,0,0:0:0:0:
72,176,177793,1,0,0:0:0:0:
256,248,178008,1,0,0:0:0:0:
256,368,178222,1,0,0:0:0:0:
256,136,178436,1,0,0:0:0:0:
256,16,178650,1,0,0:0:0:0:
256,192,178865,5,0,0:0:0:0:
422,312,179079,1,0,0:0:0:0:
90,312,179293,1,0,0:0:0:0:
112,245,179508,1,0,0:0:0:0:
184,288,179722,2,0,L|184:376,1,85
328,288,180151,2,0,L|328:376,1,85
400,245,180579,1,0,0:0:0:0:
256,136,180793,1,0,0:0:0:0:
328,96,181008,6,0,L|328:8,1,85
184,96,181436,2,0,L|184:8,1,85
90,72,181865,1,0,0:0:0:0:
112,139,182080,1,0,0:0:0:0:
400,139,182293,1,0,0:0:0:0:
422,72,182508,1,0,0:0:0:0:
328,11,182722,6,0,L|328:181,1,170
328,264,183365,1,0,0:0:0:0:
240,264,183579,6,0,L|70:264,1,170
70,349,184222,1,0,0:0:0:0:
154,350,184436,2,0,L|324:350,1,170
409,350,185079,1,0,0:0:0:0:
409,265,185293,6,0,L|409:95,1,170
407,9,185936,1,0,0:0:0:0:
321,9,186151,2,0,L|146:9,1,170
66,10,186793,1,0,0:0:0:0:
64,95,187008,6,0,L|64:284,1,170
132,213,187651,1,0,0:0:0:0:
132,213,187865,2,0,L|132:402,1,170
380,213,188508,1,0,0:0:0:0:
380,213,188722,6,0,L|380:402,1,170
448,265,189365,2,0,L|448:95,1,170
448,9,190008,1,0,0:0:0:0:
256,192,190222,1,0,0:0:0:0:
448,375,190436,5,0,0:0:0:0:
380,213,190651,1,0,0:0:0:0:
64,375,190865,5,0,0:0:0:0:
132,213,191080,1,0,0:0:0:0:
256,0,191293,5,0,0:0:0:0:
331,297,211865,6,0,P|389:275|477:347,1,170
393,354,212508,1,0,0:0:0:0:
410,278,212722,1,0,0:0:0:0:
427,202,212936,1,0,0:0:0:0:
444,126,213151,1,0,0:0:0:0:
461,50,213365,1,0,0:0:0:0:
444,126,213579,6,0,L|357:126,1,85
274,129,214008,1,0,0:0:0:0:
190,127,214222,2,0,L|190:308,1,170
105,299,214865,2,0,L|105:214,1,85
104,128,215293,2,0,L|104:43,1,85
188,40,215722,1,0,0:0:0:0:
190,127,215936,1,0,0:0:0:0:
104,128,216151,5,0,0:0:0:0:
105,214,216365,1,0,0:0:0:0:
190,216,216579,1,0,0:0:0:0:
190,297,216793,1,0,0:0:0:0:
105,299,217008,5,0,0:0:0:0:
188,40,217222,1,0,0:0:0:0:
104,43,217436,5,0,0:0:0:0:
190,297,217651,1,0,0:0:0:0:
275,299,217865,2,0,L|360:299,1,85
445,300,218293,1,0,0:0:0:0:
444,128,218722,6,0,L|274:128,1,170
188,128,219365,1,0,0:0:0:0:
188,44,219579,5,0,0:0:0:0:
272,44,219793,1,0,0:0:0:0:
274,128,220008,1,0,0:0:0:0:
184,126,220222,1,0,0:0:0:0:
184,212,220436,5,0,0:0:0:0:
270,212,220650,1,0,0:0:0:0:
268,296,220865,1,0,0:0:0:0:
184,296,221079,2,0,L|184:120,1,170
272,44,221722,2,0,L|272:132,1,85
270,212,222151,1,0,0:0:0:0:
268,296,222365,1,0,0:0:0:0:
184,296,222579,1,0,0:0:0:0:
184,126,222793,1,0,0:0:0:0:
272,129,223008,6,0,L|369:129,1,85
184,212,223436,2,0,L|87:212,1,85
270,212,223865,1,0,0:0:0:0:
184,126,224079,1,0,0:0:0:0:
184,296,224293,1,0,0:0:0:0:
272,299,224508,1,0,0:0:0:0:
272,44,224936,5,0,0:0:0:0:
187,44,225151,1,0,0:0:0:0:
184,126,225365,1,0,0:0:0:0:
272,129,225579,2,0,L|272:316,1,170
184,381,226222,2,0,L|184:296,1,85
184,212,226651,1,0,0:0:0:0:
184,126,226865,1,0,0:0:0:0:
187,44,227079,1,0,0:0:0:0:
272,44,227293,1,0,0:0:0:0:
272,129,227508,1,0,0:0:0:0:
272,214,227722,6,0,L|272:390,1,170
188,213,228365,1,0,0:0:0:0:
272,129,228579,2,0,L|370:128,1,85
272,214,229008,2,0,L|174:213,1,85
272,44,229436,1,0,0:0:0:0:
272,129,229651,1,0,0:0:0:0:
272,214,229865,5,0,0:0:0:0:
272,298,230079,1,0,0:0:0:0:
272,384,230293,2,0,L|94:384,1,170
272,214,230936,2,0,L|357:214,1,85
272,298,231365,1,0,0:0:0:0:
272,129,231579,1,0,0:0:0:0:
272,384,231793,1,0,0:0:0:0:
272,44,232008,1,0,0:0:0:0:
272,214,232222,1,0,0:0:0:0:
272,44,232436,5,0,0:0:0:0:
