osu file format v14

[General]
AudioFilename: audio.mp3
AudioLeadIn: 0
PreviewTime: 63033
Countdown: 0
SampleSet: Soft
StackLeniency: 0.7
Mode: 0
LetterboxInBreaks: 0
WidescreenStoryboard: 1

[Editor]
DistanceSpacing: 1.3
BeatDivisor: 4
GridSize: 4
TimelineZoom: 1

[Metadata]
Title:Poker Face
TitleUnicode:ポーカーフェイス
Artist:yuchaP feat. Matsushita
ArtistUnicode:ゆちゃP feat. .松下
Creator:Nevo
Version:Collab Normal
Source:
Tags:amb1d3x Hishiro Chizuru lugu agatsu nelliel mun vocaloid japanese cover utaite GUMI novelty
BeatmapID:2332157
BeatmapSetID:1097446

[Difficulty]
HPDrainRate:3
CircleSize:3.5
OverallDifficulty:4
ApproachRate:5
SliderMultiplier:1.1
SliderTickRate:1

[Events]
//Background and Video events
0,0,"bg.jpg",0,0
Video,-970,"poker.mp4"
//Break Periods
2,81311,82846
2,157289,165672
//Storyboard Layer 0 (Background)
//Storyboard Layer 1 (Fail)
//Storyboard Layer 2 (Pass)
//Storyboard Layer 3 (Foreground)
//Storyboard Layer 4 (Overlay)
//Storyboard Sound Samples

[TimingPoints]
568,326.086956521739,4,2,1,55,1,0
11002,-100,4,2,1,70,0,0
31872,-111.111111111111,4,2,1,55,0,0
33665,-111.111111111111,4,2,1,70,0,0
52741,-111.111111111111,4,2,1,55,0,0
63176,-100,4,2,1,90,0,1
81437,-100,4,2,1,65,0,0
84046,-100,4,2,1,55,0,0
84372,-100,4,2,1,65,0,0
94481,-100,4,2,1,70,0,0
104915,-100,4,2,1,75,0,0
115350,-100,4,2,1,90,0,1
136220,-100,4,2,1,90,0,0
154481,-100,4,2,1,55,0,0
159698,-100,4,2,1,55,0,0
165894,-100,4,2,1,70,0,0
166546,-100,4,2,1,70,0,0
167524,-100,4,2,1,90,0,1
188394,-100,4,2,1,70,0,0
196220,-100,4,2,1,60,0,0

[Colours]
Combo1 : 251,146,40
Combo2 : 0,145,0
Combo3 : 128,0,0
Combo4 : 192,192,192
Combo5 : 255,245,179

[HitObjects]
16,352,568,6,0,L|139:347,1,110,0|0,3:0|3:0,0:0:0:0:
170,323,1057,1,0,3:0:0:0:
170,323,1220,2,0,L|279:327,1,110,0|0,3:0|3:0,0:0:0:0:
371,365,1872,2,0,P|435:373|486:336,1,110,0|0,3:0|3:0,0:0:0:0:
500,310,2361,1,2,3:0:0:0:
500,310,2524,1,0,3:0:0:0:
469,215,2850,2,0,L|401:211,1,55,0|2,3:0|3:0,0:0:0:0:
378,177,3176,6,0,L|254:186,1,110,0|0,3:0|3:0,0:0:0:0:
220,197,3665,1,2,3:0:0:0:
220,197,3828,1,0,3:0:0:0:
149,266,4154,1,0,3:0:0:0:
58,225,4481,2,0,P|43:162|63:107,1,110,0|0,3:0|3:0,0:0:0:0:
83,79,4970,1,2,3:0:0:0:
83,79,5133,1,0,3:0:0:0:
175,43,5459,2,0,L|243:44,1,55,0|8,3:0|3:2,0:0:0:0:
274,65,5785,6,0,L|401:58,1,110,0|0,3:0|3:0,0:0:0:0:
429,40,6274,1,2,3:0:0:0:
429,40,6437,2,0,P|446:95|439:157,1,110,0|0,3:0|3:0,0:0:0:0:
355,194,7089,2,0,P|338:249|345:311,1,110,0|0,3:0|3:0,0:0:0:0:
363,345,7578,1,2,3:0:0:0:
363,345,7741,1,0,3:0:0:0:
459,365,8067,2,0,L|467:297,1,55,0|2,3:0|3:0,0:0:0:0:
497,272,8394,6,0,L|490:150,1,110,0|0,3:0|3:0,0:0:0:0:
460,122,8883,1,2,3:0:0:0:
460,122,9046,2,0,P|389:102|325:122,1,110,0|0,3:0|3:0,0:0:0:0:
262,143,9698,2,0,L|189:139,1,55,8|8,0:0|0:0,0:0:0:0:
164,114,10024,2,0,L|109:117,1,55,8|2,0:0|3:0,0:0:0:0:
66,141,10350,1,12,0:0:0:0:
18,54,10676,1,2,0:1:0:0:
105,8,11002,6,0,L|235:17,1,110,6|8,3:2|0:0,0:0:0:0:
297,69,11654,2,0,P|321:129|301:182,1,110,0|8,3:0|0:0,0:0:0:0:
265,195,12144,1,2,3:2:0:0:
213,279,12470,2,0,L|217:348,1,55,0|8,3:0|0:0,0:0:0:0:
252,367,12796,2,0,P|317:373|359:349,1,110,0|0,0:0|3:0,0:0:0:0:
385,313,13285,1,8,0:0:0:0:
466,257,13611,6,0,L|477:133,1,110,2|8,3:2|0:0,0:0:0:0:
425,62,14263,2,0,P|358:43|302:60,1,110,0|8,3:0|0:0,0:0:0:0:
277,76,14752,1,2,3:2:0:0:
241,168,15078,2,0,L|232:246,1,55,0|8,3:0|0:0,0:0:0:0:
272,254,15404,2,0,L|283:378,1,110
233,377,15894,1,8,0:0:0:0:
134,363,16220,5,6,3:2:0:0:
55,302,16546,1,8,0:0:0:0:
29,206,16872,2,0,L|33:84,1,110,0|8,3:0|0:0,0:0:0:0:
30,46,17361,1,2,3:2:0:0:
122,11,17687,2,0,L|185:21,1,55,0|8,3:0|0:0,0:0:0:0:
220,41,18013,2,0,P|231:104|221:164,1,110,0|0,0:0|3:0,0:0:0:0:
191,185,18502,1,8,0:0:0:0:
215,280,18828,6,0,P|297:304|343:283,1,110,2|8,3:2|0:0,0:0:0:0:
416,304,19481,2,0,L|423:366,2,55,0|0|8,3:0|3:0|0:0,0:0:0:0:
459,279,19970,1,2,3:2:0:0:
499,188,20296,2,0,L|491:102,1,55,0|8,3:0|0:0,0:0:0:0:
483,84,20622,2,0,P|417:64|362:81,1,110,0|0,3:0|0:0,0:0:0:0:
335,96,21111,1,8,0:0:0:0:
275,175,21437,6,0,P|221:182|170:163,1,110,6|8,3:2|0:0,0:0:0:0:
72,151,22089,2,0,P|57:89|81:27,1,110,0|8,3:0|0:0,0:0:0:0:
106,13,22578,1,2,3:2:0:0:
204,23,22904,2,0,L|277:19,1,55,0|8,3:0|0:0,0:0:0:0:
301,45,23231,2,0,P|373:57|430:38,1,110,0|0,0:0|3:0,0:0:0:0:
452,25,23720,1,8,0:0:0:0:
504,108,24046,5,2,3:2:0:0:
437,181,24372,1,8,0:0:0:0:
484,267,24698,2,0,P|480:341|435:365,1,110,0|8,3:0|0:0,0:0:0:0:
409,342,25187,2,0,L|274:349,1,110,2|0,3:2|0:0,0:0:0:0:
203,373,25839,2,0,P|152:347|75:357,1,110
53,362,26328,1,8,0:0:0:0:
20,268,26654,6,0,L|32:156,1,110,6|8,3:2|0:0,0:0:0:0:
98,85,27307,2,0,L|86:17,2,55,0|0|8,3:0|3:0|0:0,0:0:0:0:
135,117,27796,2,0,P|190:138|262:97,1,110,2|0,3:2|0:0,0:0:0:0:
273,90,28285,1,8,0:0:0:0:
273,90,28448,1,0,0:0:0:0:
367,118,28774,2,0,L|446:109,2,55,0|8|2,3:0|0:0|0:0,0:0:0:0:
343,161,29263,6,0,L|325:291,1,110,2|8,3:2|0:0,0:0:0:0:
373,357,29915,2,0,P|436:359|478:328,1,110,0|8,3:0|0:0,0:0:0:0:
494,289,30404,1,2,3:2:0:0:
465,193,30731,2,0,L|476:126,1,55,0|8,3:0|0:0,0:0:0:0:
473,89,31057,2,0,P|409:66|363:82,1,110,2|0,0:0|0:0,0:0:0:0:
335,111,31546,1,8,0:0:0:0:
291,188,31872,6,0,L|286:308,1,98.9999969787599,2|2,3:2|3:2,0:0:0:0:
227,353,32524,1,2,3:2:0:0:
138,358,32850,1,2,3:2:0:0:
59,315,33176,2,0,P|47:263|65:210,1,98.9999969787599,2|2,3:2|3:2,0:0:0:0:
95,194,33665,1,0,3:0:0:0:
178,224,33991,2,0,L|291:219,1,98.9999969787599,8|8,0:0|3:2,0:0:0:0:
314,243,34481,6,0,L|363:245,1,49.4999984893799,2|0,3:2|0:0,0:0:0:0:
393,212,34807,2,0,L|442:209,1,49.4999984893799,2|0,3:2|3:0,0:0:0:0:
471,175,35133,2,0,P|483:123|465:70,1,98.9999969787599,2|2,3:2|3:2,0:0:0:0:
405,19,35785,2,0,P|357:7|309:19,1,98.9999969787599,2|2,3:2|3:2,0:0:0:0:
290,59,36274,1,0,3:0:0:0:
290,59,36437,2,0,P|242:70|194:58,1,98.9999969787599,10|8,0:2|0:0,0:0:0:0:
113,23,37089,6,0,P|94:80|90:132,1,98.9999969787599,2|2,3:2|3:2,0:0:0:0:
102,206,37741,1,2,3:2:0:0:
183,170,38067,1,0,3:0:0:0:
243,235,38394,2,0,P|259:281|266:330,1,98.9999969787599,2|2,3:2|3:2,0:0:0:0:
233,360,38883,2,0,P|193:352|157:337,1,49.4999984893799,0|0,3:0|0:0,0:0:0:0:
150,330,39209,1,0,1:0:0:0:
66,361,39535,1,0,3:0:0:0:
66,361,39698,6,0,P|52:308|22:237,1,98.9999969787599,2|2,3:2|3:2,0:0:0:0:
51,224,40187,1,2,3:2:0:0:
51,224,40350,2,0,P|65:171|95:100,1,98.9999969787599,2|2,3:2|3:2,0:0:0:0:
167,108,41002,2,0,P|175:131|181:155,1,49.4999984893799,2|0,3:2|1:0,0:0:0:0:
217,182,41328,2,0,P|208:205|202:229,1,49.4999984893799,2|0,3:2|3:0,0:0:0:0:
248,305,41817,2,0,P|291:277|356:285,1,98.9999969787599,8|8,0:0|0:0,0:0:0:0:
371,306,42307,6,0,P|394:263|391:214,1,98.9999969787599,4|8,3:2|3:2,0:0:0:0:
341,140,42959,2,0,P|317:97|320:48,1,98.9999969787599,2|8,3:2|0:0,0:0:0:0:
334,6,43448,1,4,3:2:0:0:
247,27,43774,2,0,P|206:0|157:0,1,98.9999969787599,2|0,3:3|0:0,0:0:0:0:
124,28,44263,2,0,L|144:134,1,98.9999969787599,2|8,3:2|0:0,0:0:0:0:
110,208,44915,5,0,3:2:0:0:
64,284,45241,1,8,0:0:0:0:
115,356,45567,2,0,P|160:325|218:330,1,98.9999969787599,2|8,3:2|0:0,0:0:0:0:
244,341,46057,1,2,3:2:0:0:
328,370,46383,2,0,L|346:311,2,49.4999984893799,0|10|0,3:0|0:0|3:0,0:0:0:0:
372,373,46872,2,0,P|417:342|475:347,1,98.9999969787599,2|10,0:0|0:0,0:0:0:0:
496,260,47524,6,0,P|493:211|464:172,1,98.9999969787599,6|8,3:2|0:0,0:0:0:0:
375,180,48176,2,0,P|320:153|266:149,1,98.9999969787599,0|8,3:0|0:0,0:0:0:0:
243,168,48665,1,2,3:2:0:0:
217,82,48991,2,0,P|168:90|125:113,1,98.9999969787599,2|0,3:2|3:0,0:0:0:0:
92,144,49481,2,0,P|70:132|46:128,2,49.4999984893799,0|0|8,3:0|0:0|0:0,0:0:0:0:
137,220,50133,5,2,3:2:0:0:
94,298,50459,1,8,0:0:0:0:
170,343,50785,2,0,P|213:312|271:307,1,98.9999969787599,0|8,3:0|0:0,0:0:0:0:
338,341,51437,2,0,P|349:266|365:235,1,98.9999969787599,2|10,0:0|0:0,0:0:0:0:
392,216,51926,1,0,3:0:0:0:
392,216,52089,2,0,P|417:214|440:205,2,49.4999984893799,2|0|10,0:0|3:0|0:0,0:0:0:0:
305,193,52741,6,0,P|292:145|298:82,1,98.9999969787599,2|2,3:2|3:2,0:0:0:0:
370,49,53394,1,2,3:2:0:0:
444,97,53720,1,2,3:2:0:0:
478,179,54046,2,0,P|480:228|467:275,1,98.9999969787599,2|0,3:2|3:0,0:0:0:0:
431,302,54535,1,2,3:2:0:0:
353,346,54861,2,0,L|246:314,1,98.9999969787599,2|0,3:2|3:0,0:0:0:0:
218,296,55350,6,0,L|170:310,1,49.4999984893799,2|0,3:2|0:0,0:0:0:0:
152,350,55676,2,0,L|104:364,1,49.4999984893799,2|0,3:2|3:0,0:0:0:0:
64,344,56002,2,0,P|48:287|18:215,1,98.9999969787599,2|2,3:2|3:2,0:0:0:0:
92,182,56654,2,0,P|108:125|138:53,1,98.9999969787599,2|2,3:2|3:2,0:0:0:0:
149,52,57144,1,2,3:2:0:0:
234,77,57470,2,0,P|242:100|249:124,2,49.4999984893799,8|8|8,1:2|1:2|1:2,0:0:0:0:
273,56,57959,6,0,P|326:37|373:51,1,98.9999969787599,2|2,3:2|3:2,0:0:0:0:
431,107,58611,1,2,3:2:0:0:
405,192,58937,1,0,3:0:0:0:
381,278,59263,2,0,P|328:259|281:273,1,98.9999969787599,2|2,3:2|3:2,0:0:0:0:
249,291,59752,1,0,3:0:0:0:
249,291,59915,2,0,P|196:310|149:296,1,98.9999969787599,2|0,3:2|3:0,0:0:0:0:
144,211,60567,6,0,P|197:192|244:206,1,98.9999969787599,2|2,3:2|3:2,0:0:0:0:
270,231,61057,1,0,3:0:0:0:
270,231,61220,2,0,P|258:177|266:122,1,98.9999969787599,2|0,3:2|3:0,0:0:0:0:
329,75,61872,1,2,1:2:0:0:
415,96,62198,1,2,1:2:0:0:
502,115,62524,2,0,L|487:192,1,49.4999984893799,10|8,0:2|0:0,0:0:0:0:
467,200,62850,2,0,L|482:277,1,49.4999984893799,4|0,3:0|3:0,0:0:0:0:
459,294,63176,5,2,3:2:0:0:
367,256,63502,1,8,0:0:0:0:
303,331,63828,2,0,P|248:357|176:358,1,110,2|10,3:2|0:0,0:0:0:0:
125,295,64481,2,0,L|136:229,1,55,2|0,3:2|0:0,0:0:0:0:
139,191,64807,1,8,0:0:0:0:
94,102,65133,2,0,L|83:36,2,55,0|0|8,3:0|3:0|0:0,0:0:0:0:
192,102,65785,6,0,P|224:83|261:80,1,55,2|0,3:2|0:0,0:0:0:0:
282,107,66111,2,0,P|316:126|355:129,1,55,8|2,0:0|0:0,0:0:0:0:
366,94,66437,2,0,P|427:59|497:53,1,110,2|10,3:2|0:0,0:0:0:0:
500,144,67089,1,2,3:2:0:0:
470,238,67415,1,8,0:0:0:0:
440,332,67741,2,0,P|393:302|340:290,1,110,2|8,3:2|3:2,0:0:0:0:
259,347,68394,5,6,3:2:0:0:
162,325,68720,1,8,0:0:0:0:
167,226,69046,2,0,P|213:196|266:184,1,110,2|10,3:2|1:2,0:0:0:0:
356,225,69698,2,0,P|382:218|406:204,1,55,2|0,3:2|0:0,0:0:0:0:
440,168,70024,1,8,0:0:0:0:
394,79,70350,2,0,P|446:58|465:58,2,55,0|0|8,3:0|3:0|0:0,0:0:0:0:
299,51,71002,6,0,P|245:63|199:92,1,110,6|8,3:2|0:0,0:0:0:0:
151,178,71654,2,0,P|104:148|51:136,1,110,6|10,3:2|0:0,0:0:0:0:
6,224,72307,1,6,3:2:0:0:
66,305,72633,1,14,0:0:0:0:
131,378,72959,2,0,L|253:337,1,110,6|14,3:2|0:0,0:0:0:0:
246,244,73611,6,0,L|350:279,1,110,6|8,3:2|0:0,0:0:0:0:
444,308,74263,2,0,P|434:276|433:246,1,55,0|0,3:0|1:0,0:0:0:0:
463,160,74752,2,0,P|482:96|484:36,1,110,2|0,3:2|3:0,0:0:0:0:
450,18,75241,2,0,P|423:8|392:7,1,55,8|0,0:0|0:0,0:0:0:0:
364,43,75567,2,0,P|337:53|306:54,2,55,0|0|8,3:0|3:0|0:0,0:0:0:0:
385,139,76220,6,0,P|330:143|279:162,1,110,6|8,3:2|0:0,0:0:0:0:
213,237,76872,2,0,P|166:219|117:215,1,55,0|0,3:0|1:0,0:0:0:0:
78,271,77361,2,0,L|49:150,1,110,2|0,3:2|3:0,0:0:0:0:
88,130,77850,2,0,L|102:69,1,55,8|0,0:0|0:0,0:0:0:0:
145,55,78176,2,0,L|130:-5,2,55,0|0|8,3:0|3:0|0:0,0:0:0:0:
202,135,78828,6,0,L|336:96,1,110,6|8,3:2|0:0,0:0:0:0:
389,159,79481,2,0,L|441:174,1,55,0|0,3:0|3:0,0:0:0:0:
441,273,79970,2,0,L|307:234,1,110,2|0,3:2|3:0,0:0:0:0:
289,261,80459,2,0,L|229:276,1,55,10|0,1:2|0:0,0:0:0:0:
196,304,80785,2,0,L|142:290,2,55,2|0|10,3:2|3:0|1:2,0:0:0:0:
196,304,84046,6,0,L|181:180,1,110,0|0,3:0|3:0,0:0:0:0:
157,152,84535,1,2,3:0:0:0:
157,152,84698,2,0,L|171:37,1,110,0|0,3:0|3:0,0:0:0:0:
71,42,85350,2,0,L|57:151,1,110,0|0,3:0|3:0,0:0:0:0:
51,200,85839,1,2,3:0:0:0:
51,200,86002,1,0,3:0:0:0:
104,283,86328,2,0,P|110:310|109:343,1,55,0|2,3:0|3:0,0:0:0:0:
75,372,86654,6,0,P|139:348|207:357,1,110,0|0,3:0|3:0,0:0:0:0:
217,316,87144,1,2,3:0:0:0:
217,316,87307,2,0,P|271:317|321:338,1,110,0|0,3:0|3:0,0:0:0:0:
413,377,87959,2,0,P|434:326|435:272,1,110,0|0,3:0|3:0,0:0:0:0:
408,230,88448,1,2,3:0:0:0:
408,230,88611,2,0,P|397:204|396:177,1,55,0|0,3:0|0:0,0:0:0:0:
418,132,88937,1,0,3:0:0:0:
403,37,89263,6,0,L|278:25,1,110,0|0,3:0|3:0,0:0:0:0:
260,63,89752,1,2,3:0:0:0:
260,63,89915,2,0,L|150:73,1,110,0|0,3:0|3:0,0:0:0:0:
118,167,90567,2,0,L|227:156,1,110,0|0,3:0|3:0,0:0:0:0:
271,179,91057,1,2,3:0:0:0:
271,179,91220,1,0,3:0:0:0:
349,239,91546,2,0,L|338:302,1,55,0|2,3:0|3:0,0:0:0:0:
341,342,91872,6,0,P|288:314|231:304,1,110,0|0,3:0|3:0,0:0:0:0:
195,326,92361,1,2,3:0:0:0:
195,326,92524,2,0,P|142:354|85:364,1,110,0|0,3:0|3:0,0:0:0:0:
9,311,93176,2,0,L|28:190,1,110,0|0,3:0|3:0,0:0:0:0:
55,163,93665,1,2,3:0:0:0:
55,163,93828,2,0,L|45:102,1,55,0|0,3:0|0:0,0:0:0:0:
56,60,94154,1,0,3:0:0:0:
144,14,94481,6,0,P|203:39|259:46,1,110,2|2,3:2|3:2,0:0:0:0:
326,104,95133,2,0,P|355:91|383:88,1,55,2|0,3:2|0:0,0:0:0:0:
423,107,95459,1,2,3:2:0:0:
380,196,95785,2,0,P|363:255|356:326,1,110,2|0,3:2|3:0,0:0:0:0:
379,347,96274,2,0,P|320:330|249:323,1,110,2|8,3:2|1:2,0:0:0:0:
225,340,96763,1,0,3:0:0:0:
192,246,97089,5,2,3:2:0:0:
97,275,97415,2,0,L|76:220,1,55,2|0,3:2|3:0,0:0:0:0:
30,209,97741,2,0,L|71:81,1,110,2|2,3:2|3:2,0:0:0:0:
142,164,98394,2,0,P|200:187|273:183,1,110,2|0,3:2|3:0,0:0:0:0:
287,159,98883,2,0,P|345:136|418:140,1,110,2|8,3:2|0:0,0:0:0:0:
438,151,99372,1,8,0:0:0:0:
456,249,99698,6,0,L|479:383,1,110,2|2,3:2|3:2,0:0:0:0:
427,373,100187,1,0,3:0:0:0:
427,373,100350,2,0,L|299:325,1,110,2|0,3:2|3:0,0:0:0:0:
269,252,101002,2,0,L|165:290,1,110,2|2,3:2|3:2,0:0:0:0:
117,281,101491,1,0,3:0:0:0:
117,281,101654,2,0,P|136:186|134:140,1,110,2|0,3:2|3:0,0:0:0:0:
104,134,102144,1,8,3:2:0:0:
104,134,102307,5,2,3:0:0:0:
168,58,102633,2,0,P|197:42|235:42,1,55,0|0,3:0|3:2,0:0:0:0:
255,71,102959,2,0,P|284:87|322:87,1,55,2|0,3:0|0:0,0:0:0:0:
349,66,103285,1,0,3:0:0:0:
430,121,103611,2,0,P|395:159|322:162,1,110,0|2,3:2|3:2,0:0:0:0:
309,207,104100,2,0,P|255:199|218:160,1,110,0|8,3:0|0:0,0:0:0:0:
168,161,104589,1,8,3:2:0:0:
76,199,104915,6,0,L|101:316,1,110,6|8,3:2|0:0,0:0:0:0:
185,354,105567,1,0,3:0:0:0:
246,275,105894,2,0,L|324:288,1,55,8|0,0:0|3:2,0:0:0:0:
328,324,106220,2,0,L|455:296,1,110,0|8,0:0|0:0,0:0:0:0:
483,290,106709,1,0,1:0:0:0:
413,220,107035,2,0,L|429:104,1,110,0|0,1:0|1:0,0:0:0:0:
378,107,107524,6,0,L|370:48,2,55,2|0|2,3:2|0:0|3:2,0:0:0:0:
334,131,108013,1,2,3:2:0:0:
334,131,108176,2,0,P|276:111|213:104,1,110,2|2,3:2|3:2,0:0:0:0:
142,54,108828,2,0,P|87:62|35:80,1,110,2|2,0:0|3:2,0:0:0:0:
3,118,109317,1,2,3:2:0:0:
50,205,109644,2,0,P|75:214|103:218,2,55,8|10|8,1:2|1:2|1:2,0:0:0:0:
25,247,110133,6,0,P|51:314|54:380,1,110,2|2,3:2|3:2,0:0:0:0:
108,360,110622,1,0,3:0:0:0:
108,360,110785,2,0,P|175:334|241:331,1,110,2|0,3:2|3:0,0:0:0:0:
302,370,111437,2,0,L|319:308,1,55,2|0,3:2|0:0,0:0:0:0:
330,272,111763,1,2,3:2:0:0:
330,272,111926,2,0,L|308:121,1,110,0|0,3:0|1:0,0:0:0:0:
301,115,112415,1,0,3:0:0:0:
207,85,112741,6,0,L|191:193,1,110,2|2,3:2|3:2,0:0:0:0:
147,217,113231,1,0,3:0:0:0:
147,217,113394,2,0,L|162:325,1,110,2|0,3:2|3:0,0:0:0:0:
76,374,114046,1,2,3:2:0:0:
8,301,114372,2,0,L|16:241,1,55,2|0,3:2|3:0,0:0:0:0:
64,162,114861,1,8,0:0:0:0:
64,162,115024,2,0,L|50:100,1,55,8|8,0:0|0:0,0:0:0:0:
17,70,115350,6,0,P|72:27|126:29,1,110,6|8,3:2|1:2,0:0:0:0:
147,57,115839,1,0,0:0:0:0:
147,57,116002,2,0,P|202:100|256:98,1,110,2|10,3:2|1:2,0:0:0:0:
295,20,116654,2,0,P|339:3|361:2,1,55,0|2,3:2|0:0,0:0:0:0:
386,31,116981,2,0,L|371:115,1,55,8|8,1:2|0:0,0:0:0:0:
408,122,117307,2,0,L|413:183,2,55,0|0|10,3:0|0:2|0:0,0:0:0:0:
318,164,117959,6,0,L|326:289,1,110,0|10,3:2|0:0,0:0:0:0:
299,315,118448,1,0,0:0:0:0:
299,315,118611,2,0,P|259:275|171:279,1,110,2|8,3:2|0:0,0:0:0:0:
124,319,119263,1,2,3:2:0:0:
63,240,119589,1,8,0:0:0:0:
128,165,119915,2,0,P|139:130|139:101,1,55,2|0,3:2|0:0,0:0:0:0:
127,62,120241,1,8,0:0:0:0:
224,45,120567,6,0,P|229:105|251:161,1,110,6|8,3:2|1:2,0:0:0:0:
286,189,121057,1,0,0:0:0:0:
286,189,121220,2,0,P|281:249|250:316,1,110,2|8,3:2|1:2,0:0:0:0:
226,327,121709,1,0,3:0:0:0:
226,327,121872,1,2,3:2:0:0:
313,374,122198,2,0,P|354:354|377:347,1,55,8|8,1:2|1:2,0:0:0:0:
410,364,122524,2,0,P|416:314|434:272,1,55,0|0,3:0|3:0,0:0:0:0:
433,262,122850,1,8,1:2:0:0:
347,212,123176,6,0,P|359:151|352:86,1,110,2|8,3:2|0:0,0:0:0:0:
289,30,123828,1,2,3:2:0:0:
190,36,124154,1,10,0:0:0:0:
92,53,124481,2,0,P|89:107|100:161,1,110,2|8,3:2|0:0,0:0:0:0:
129,201,124970,1,0,0:0:0:0:
129,201,125133,2,0,P|131:255|120:309,1,110,0|8,3:0|1:2,0:0:0:0:
21,301,125785,6,0,P|18:246|29:192,1,110,6|8,3:2|0:0,0:0:0:0:
90,114,126437,2,0,P|118:104|150:109,1,55,0|0,3:0|3:0,0:0:0:0:
178,140,126763,1,8,0:0:0:0:
256,79,127089,2,0,P|322:57|367:60,1,110,2|8,3:2|1:2,0:0:0:0:
387,101,127578,1,8,1:2:0:0:
387,101,127741,2,0,L|369:178,1,55,0|0,3:0|0:0,0:0:0:0:
366,203,128067,1,8,1:2:0:0:
449,256,128394,6,0,L|466:331,1,55,6|0,3:2|0:0,0:0:0:0:
448,357,128720,2,0,P|417:372|381:369,1,55,8|8,1:2|1:2,0:0:0:0:
356,344,129046,2,0,L|368:290,2,55,0|0|8,3:0|0:0|1:2,0:0:0:0:
264,382,129698,1,2,3:2:0:0:
196,309,130024,2,0,L|208:248,1,55,8|0,0:0|0:0,0:0:0:0:
190,208,130350,2,0,L|178:147,1,55,0|0,3:0|0:0,0:0:0:0:
166,106,130676,1,8,0:0:0:0:
67,108,131002,5,6,3:2:0:0:
11,190,131328,1,10,0:0:0:0:
30,286,131654,2,0,L|140:261,1,110,0|10,3:0|1:2,0:0:0:0:
229,298,132307,2,0,L|291:311,1,55,2|0,0:0|3:0,0:0:0:0:
327,286,132633,2,0,L|380:274,1,55,10|8,0:0|1:2,0:0:0:0:
415,239,132959,2,0,L|468:250,2,55,2|0|10,3:2|0:0|0:0,0:0:0:0:
384,144,133611,6,0,L|258:159,1,110,6|8,3:2|0:0,0:0:0:0:
195,98,134263,1,6,3:2:0:0:
195,98,134426,2,0,L|70:81,1,110,2|2,3:2|3:2,0:0:0:0:
36,77,134915,1,6,0:0:0:0:
85,162,135241,1,14,0:0:0:0:
22,238,135567,2,0,P|1:298|-2:347,1,110,6|14,3:2|0:0,0:0:0:0:
91,376,136220,5,6,3:2:0:0:
256,192,136383,12,2,138176,3:2:0:0:
438,326,138828,6,2,L|458:203,1,110,6|10,3:2|0:2,0:2:0:0:
431,174,139317,1,2,0:2:0:0:
431,174,139481,2,0,L|421:112,1,55,2|0,3:2|3:2,0:2:0:0:
373,114,139807,2,2,L|383:52,1,55,10|2,0:2|3:2,0:2:0:0:
345,26,140133,2,0,P|270:27|221:78,1,110,2|2,3:2|1:2,0:2:0:0:
171,113,140785,2,0,L|103:99,1,55,2|0,3:2|3:2,0:2:0:0:
68,95,141111,1,2,1:2:0:0:
36,188,141437,6,0,L|172:216,1,110,6|8,3:2|0:2,0:2:0:0:
238,238,142089,1,2,0:2:0:0:
266,332,142415,1,8,0:2:0:0:
266,332,142578,2,0,L|373:309,1,110,2|2,3:2|3:2,0:2:0:0:
422,300,143067,1,8,0:2:0:0:
367,217,143394,1,2,3:2:0:0:
406,126,143720,1,10,0:2:0:0:
322,72,144046,6,2,L|186:57,1,110,6|8,3:2|0:2,0:2:0:0:
135,121,144698,2,0,L|80:127,2,55,0|0|14,0:2|3:2|0:2,0:2:0:0:
176,148,145187,2,0,P|193:208|199:266,1,110,0|14,0:2|3:2,0:2:0:0:
179,300,145676,1,0,0:2:0:0:
89,341,146002,2,2,P|74:303|72:280,1,55,14|0,3:2|0:2,0:2:0:0:
70,239,146328,1,10,0:2:0:0:
147,178,146654,6,0,P|162:113|160:50,1,110,6|8,3:2|0:2,0:2:0:0:
123,38,147144,1,2,0:2:0:0:
123,38,147307,2,0,P|191:11|242:18,1,110,2|10,3:2|0:2,0:2:0:0:
262,47,147796,2,0,P|330:74|381:67,1,110,0|2,3:2|3:2,0:2:0:0:
408,47,148285,1,10,0:2:0:0:
479,115,148611,2,0,L|461:191,2,55,2|0|10,3:2|3:2|0:2,0:2:0:0:
386,148,149263,5,6,3:2:0:0:
412,243,149589,1,8,0:2:0:0:
432,339,149915,2,0,L|365:316,1,55,2|0,3:2|3:2,0:2:0:0:
333,338,150241,1,10,0:2:0:0:
333,338,150404,2,2,L|210:349,1,110,0|0,3:2|3:2,0:2:0:0:
174,353,150894,1,8,0:2:0:0:
91,297,151220,2,2,L|28:293,2,55,2|0|2,3:2|3:2|1:2,0:2:0:0:
179,252,151872,6,2,P|193:192|197:109,1,110,6|8,3:2|0:2,0:2:0:0:
176,99,152361,1,2,0:2:0:0:
269,65,152687,1,2,3:2:0:0:
269,65,152850,2,2,P|271:92|296:170,1,110,8|2,0:2|3:2,0:2:0:0:
331,205,153339,1,2,3:2:0:0:
409,265,153665,1,0,1:2:0:0:
409,265,153828,2,2,P|428:213|436:159,1,110,2|10,3:2|0:2,0:2:0:0:
407,118,154317,1,0,3:2:0:0:
407,118,154481,1,2,3:2:0:0:
256,192,154644,12,0,157089,0:2:0:0:
48,57,166872,6,0,L|55:129,1,55,0|0,3:2|3:2,0:0:0:0:
17,145,167198,2,0,L|10:217,1,55,10|0,3:2|3:2,0:0:0:0:
40,239,167524,5,6,3:2:0:0:
106,312,167850,1,8,0:0:0:0:
196,272,168176,2,0,P|292:290|319:318,1,110,2|10,3:2|0:0,0:0:0:0:
376,356,168828,2,0,P|425:352|459:331,1,55,2|0,3:2|0:0,0:0:0:0:
473,326,169154,1,8,0:0:0:0:
458,227,169481,2,0,P|454:190|432:148,2,55,0|0|8,3:0|0:0|0:0,0:0:0:0:
364,260,170133,6,0,P|276:249|217:226,1,110,2|8,3:2|0:0,0:0:0:0:
218,210,170622,1,0,1:0:0:0:
218,210,170785,2,0,P|207:148|174:70,1,110,2|10,3:2|0:0,0:0:0:0:
110,46,171437,1,2,3:2:0:0:
23,93,171763,1,8,0:0:0:0:
34,191,172089,2,0,L|20:325,1,110,2|8,3:2|0:0,0:0:0:0:
101,360,172741,5,2,3:2:0:0:
184,306,173067,1,8,0:0:0:0:
177,206,173394,2,0,P|169:138|152:82,1,110,2|10,3:2|0:0,0:0:0:0:
208,13,174046,2,0,P|241:7|292:22,1,55,0|2,3:0|0:0,0:0:0:0:
309,21,174372,1,8,0:0:0:0:
312,119,174698,2,0,P|340:176|341:208,2,55,0|2|8,3:0|3:2|0:0,0:0:0:0:
214,136,175350,5,2,3:2:0:0:
144,206,175676,2,0,P|140:272|118:351,1,110,10|2,0:0|3:2,0:0:0:0:
99,353,176165,1,0,3:0:0:0:
99,353,176328,1,10,0:0:0:0:
193,383,176654,1,2,3:2:0:0:
276,329,176981,1,8,1:2:0:0:
292,231,177307,2,0,P|306:171|336:96,1,110,0|8,3:0|1:2,0:0:0:0:
355,32,177959,6,0,P|413:43|494:72,1,110,6|0,3:2|1:2,0:0:0:0:
482,103,178448,1,0,0:0:0:0:
482,103,178611,2,0,P|492:195|512:254,1,110,0|8,3:0|0:0,0:0:0:0:
447,297,179263,2,0,P|388:324|366:322,1,55,2|0,3:2|3:0,0:0:0:0:
358,350,179589,2,0,P|299:323|277:325,1,55,8|0,0:0|0:0,0:0:0:0:
268,298,179915,2,0,P|209:325|187:323,2,55,0|0|8,3:0|3:0|0:0,0:0:0:0:
319,213,180567,5,6,3:2:0:0:
274,124,180894,2,0,P|190:114|114:126,1,110,8|0,0:0|3:0,0:0:0:0:
117,101,181383,2,0,P|90:172|87:240,1,110,0|0,3:0|3:2,0:0:0:0:
92,254,181872,1,2,3:2:0:0:
141,339,182198,1,8,1:2:0:0:
238,319,182524,2,0,P|291:334|328:360,2,55,0|0|8,3:0|3:0|1:2,0:0:0:0:
224,220,183176,5,6,3:2:0:0:
292,148,183502,2,0,P|304:90|300:51,1,55,8|0,0:0|0:0,0:0:0:0:
292,46,183828,1,0,3:0:0:0:
382,6,184154,2,0,P|443:16|472:47,1,55,8|0,0:0|0:2,0:0:0:0:
475,42,184481,1,2,3:2:0:0:
448,137,184807,2,0,P|450:206|461:232,1,55,10|0,1:2|0:0,0:0:0:0:
472,233,185133,1,2,3:2:0:0:
417,315,185459,1,10,1:2:0:0:
323,347,185785,5,6,3:2:0:0:
237,296,186111,2,0,P|243:227|241:151,1,110,8|6,0:0|3:2,0:0:0:0:
196,99,186763,1,8,0:0:0:0:
114,43,187089,1,6,0:0:0:0:
44,113,187415,1,14,0:0:0:0:
64,209,187741,2,0,L|43:284,1,55,6|0,3:2|3:0,0:0:0:0:
15,298,188067,2,0,L|36:373,1,55,14|0,0:0|0:0,0:0:0:0:
76,369,188394,6,0,P|163:368|211:335,1,110,6|8,3:2|0:0,0:0:0:0:
251,288,189046,1,0,3:0:0:0:
251,288,189209,2,0,L|263:215,1,55,0|8,3:0|0:0,0:0:0:0:
234,191,189535,2,0,L|218:61,1,110,2|0,3:2|3:0,0:0:0:0:
217,32,190024,1,8,0:0:0:0:
314,15,190350,2,0,P|391:26|409:37,1,55,0|0,3:0|3:0,0:0:0:0:
411,41,190676,1,8,0:0:0:0:
478,113,191002,5,6,3:2:0:0:
403,178,191328,1,8,0:0:0:0:
310,143,191654,1,0,3:0:0:0:
310,143,191817,2,0,L|234:153,1,55,0|8,3:0|0:0,0:0:0:0:
214,121,192144,2,0,L|77:109,1,110,2|0,3:2|3:0,0:0:0:0:
57,126,192633,1,8,0:0:0:0:
9,212,192959,2,0,P|6:302|32:343,1,110,0|8,3:0|0:0,0:0:0:0:
99,367,193611,6,0,L|234:355,1,110,6|8,3:2|0:0,0:0:0:0:
293,306,194263,1,0,3:0:0:0:
293,306,194426,2,0,P|296:271|288:229,1,55,0|8,3:0|0:0,0:0:0:0:
273,206,194752,2,0,L|262:61,1,110,2|0,3:2|3:0,0:0:0:0:
251,48,195241,1,10,0:0:0:0:
341,7,195567,2,0,P|406:17|437:38,1,55,2|2,3:2|3:2,0:0:0:0:
434,43,195894,1,8,0:0:0:0:
491,123,196220,5,2,0:0:0:0:
491,123,196383,2,0,L|483:262,1,110,2|2,0:0|0:0,0:0:0:0:
481,282,196872,1,2,0:0:0:0:
402,341,197198,1,2,0:0:0:0:
402,341,197361,1,2,0:0:0:0:
318,288,197687,2,0,L|244:295,2,55,2|2|2,0:0|0:0|0:0,0:0:0:0:
356,257,198176,1,2,0:0:0:0:
322,163,198502,2,0,L|336:95,1,55,2|2,0:0|0:0,0:0:0:0:
