osu file format v14

[General]
AudioFilename: audio.mp3
AudioLeadIn: 0
PreviewTime: 131985
Countdown: 0
SampleSet: Soft
StackLeniency: 0.4
Mode: 0
LetterboxInBreaks: 0
WidescreenStoryboard: 1

[Editor]
DistanceSpacing: 1.3
BeatDivisor: 4
GridSize: 4
TimelineZoom: 2.900004

[Metadata]
Title:Mr.Perfect Pain
TitleUnicode:Mr.Perfect Pain
Artist:yucat
ArtistUnicode:yucat
Creator:Beren
Version:Elvis' Extra
Source:MIND≒0
Tags:加藤有加利 Natteke desu EvilElvis Jounzan ChronoSP arronchu1207 vivicat blove dorlya kanor PARALLEL WORLD 〜終ワリノ始マリ〜 - EP ED Ending japanese rock pop
BeatmapID:2901248
BeatmapSetID:1351191

[Difficulty]
HPDrainRate:5
CircleSize:4
OverallDifficulty:8.5
ApproachRate:9.3
SliderMultiplier:2.8
SliderTickRate:1

[Events]
//Background and Video events
0,0,"85583067_p0.jpg",0,0
//Break Periods
2,97990,100384
2,197715,199046
//Storyboard Layer 0 (Background)
//Storyboard Layer 1 (Fail)
//Storyboard Layer 2 (Pass)
//Storyboard Layer 3 (Foreground)
//Storyboard Layer 4 (Overlay)
//Storyboard Sound Samples

[TimingPoints]
291,508.474576271186,4,2,1,80,1,0
32829,-125,4,2,1,50,0,0
46304,-58.8235294117647,4,2,0,50,0,0
47066,-58.8235294117647,4,2,1,50,0,0
47193,-125,4,2,1,50,0,0
64290,-125,4,2,1,5,0,0
64355,-100,4,2,1,80,0,0
72491,-76.9230769230769,4,2,1,80,0,0
73635,-100,4,2,1,80,0,0
97915,-333.333333333333,4,2,1,80,0,0
100966,-100,4,2,1,80,0,0
101983,-100,4,2,1,65,0,0
102746,-76.9230769230769,4,2,1,65,0,0
103254,-76.9230769230769,4,2,0,65,0,0
104017,-76.9230769230769,4,2,1,65,0,0
104144,-100,4,2,1,65,0,0
111136,-58.8235294117647,4,2,1,65,0,0
111390,-58.8235294117647,4,2,0,65,0,0
112280,-83.3333333333333,4,2,1,65,0,0
114190,-83.3333333333333,4,2,1,80,0,0
122326,-83.3333333333333,4,1,1,80,0,0
126454,-83.3333333333333,4,1,1,5,0,0
126517,-83.3333333333333,4,1,1,80,0,0
126581,-83.3333333333333,4,1,1,5,0,0
126644,-83.3333333333333,4,1,1,80,0,0
126708,-83.3333333333333,4,1,1,5,0,0
126772,-83.3333333333333,4,1,1,80,0,0
126835,-83.3333333333333,4,1,1,5,0,0
126899,-83.3333333333333,4,1,1,80,0,0
126962,-83.3333333333333,4,1,1,5,0,0
127026,-83.3333333333333,4,1,1,80,0,0
127089,-83.3333333333333,4,1,1,5,0,0
127153,-83.3333333333333,4,1,1,80,0,0
127216,-83.3333333333333,4,1,1,5,0,0
127280,-83.3333333333333,4,1,1,80,0,0
127344,-83.3333333333333,4,1,1,5,0,0
127407,-83.3333333333333,4,1,1,80,0,0
127471,-83.3333333333333,4,1,1,5,0,0
127534,-83.3333333333333,4,1,1,80,0,0
127598,-83.3333333333333,4,1,1,5,0,0
127661,-83.3333333333333,4,1,1,80,0,0
127725,-83.3333333333333,4,1,1,5,0,0
127788,-83.3333333333333,4,1,1,80,0,0
127855,-83.3333333333333,4,1,1,5,0,0
127916,-83.3333333333333,4,1,1,80,0,0
127979,-83.3333333333333,4,1,1,5,0,0
128043,-83.3333333333333,4,1,1,80,0,0
128106,-83.3333333333333,4,1,1,5,0,0
128170,-83.3333333333333,4,1,1,80,0,0
128233,-83.3333333333333,4,1,1,5,0,0
128297,-83.3333333333333,4,1,1,80,0,0
128361,-83.3333333333333,4,1,1,5,0,0
128424,-83.3333333333333,4,1,1,80,0,0
130458,-66.6666666666667,4,1,1,80,0,0
130967,-58.8235294117647,4,1,1,80,0,0
131984,-58.8235294117647,4,2,1,65,0,0
132492,-100,4,2,1,65,0,0
132619,-100,4,2,1,80,0,0
139611,-76.9230769230769,4,2,1,80,0,0
140628,-100,4,2,1,80,0,0
147747,-76.9230769230769,4,2,1,80,0,0
148891,-100,4,2,1,80,0,0
164018,-76.9230769230769,4,2,1,80,0,0
165035,-62.5,4,1,2,80,0,0
165417,-62.5,4,2,1,80,0,0
167069,-62.5,4,1,2,80,0,0
167197,-200,4,1,2,80,0,0
167324,-62.5,4,1,2,80,0,0
167451,-62.5,4,2,1,80,0,0
169103,-62.5,4,1,2,80,0,0
169484,-62.5,4,2,1,80,0,0
171137,-62.5,4,1,2,80,0,0
171264,-200,4,1,2,80,0,0
171518,-200,4,2,1,80,0,0
171646,-62.5,4,2,1,80,0,0
173171,-62.5,4,1,2,80,0,0
173553,-62.5,4,2,1,80,0,0
175205,-62.5,4,1,2,80,0,0
175586,-62.5,4,2,1,80,0,0
177239,-62.5,4,1,2,80,0,0
177748,-43.4782608695652,4,1,2,80,0,0
177938,-43.4782608695652,4,2,1,80,0,0
178002,-62.5,4,2,1,80,0,0
179273,-62.5,4,1,2,80,0,0
180289,-62.5,4,2,1,80,0,0
180671,-55.5555555555556,4,2,1,80,0,0
181053,-50,4,2,1,80,0,0
181307,-62.5,4,2,1,80,0,0
187536,-62.5,4,1,2,50,0,0
187663,-62.5,4,2,1,80,0,0
187790,-62.5,4,1,2,50,0,0
187917,-62.5,4,2,1,80,0,0
188045,-62.5,4,1,2,50,0,0
188172,-62.5,4,2,1,80,0,0
188299,-62.5,4,1,2,50,0,0
188426,-62.5,4,2,1,80,0,0
188807,-55.5555555555556,4,2,1,80,0,0
189189,-50,4,2,1,80,0,0
189443,-62.5,4,2,1,80,0,0
197579,512.820512820513,4,2,1,80,1,0
199549,-62.5,4,2,1,5,0,0
199630,508.474576271186,3,2,1,80,1,0
199630,-250,3,2,1,50,0,0
220985,508.474576271186,4,2,1,50,1,0
220985,-166.666666666667,4,2,1,50,0,0
229120,-133.333333333333,4,2,1,50,0,0
236747,500,4,2,1,50,1,0
237247,508.474576271186,4,2,1,50,1,0
237247,-133.333333333333,4,2,1,50,0,0
240806,535.714285714286,4,2,1,50,1,0
241341,512.820512820513,4,2,1,50,1,0
241341,-133.333333333333,4,2,1,50,0,0
242238,600,4,2,1,50,1,0
242538,526.315789473684,4,2,1,50,1,0
242932,517.241379310345,4,2,1,50,1,0
243578,483.870967741935,4,2,1,50,1,0
243578,-133.333333333333,4,2,1,50,0,0
248416,508.474576271186,4,2,1,50,1,0
248678,508.474576271186,4,2,1,80,1,0
249065,508.474576271186,4,2,1,80,1,0
249446,508.474576271186,4,2,1,80,1,0

[Colours]
Combo1 : 236,219,138
Combo2 : 163,197,169
Combo3 : 149,208,201
Combo4 : 165,172,222
Combo5 : 124,151,199
Combo6 : 218,107,107
Combo7 : 235,153,103

[HitObjects]
323,54,15545,70,0,L|414:21,1,70,12|0,1:0|0:0,0:0:0:0:
324,55,15926,5,12,1:0:0:0:
479,57,16053,2,0,L|504:125,1,70,0|0,0:0|0:0,0:0:0:0:
411,198,16307,6,0,B|379:186|379:186|378:187|378:187|330:171,1,70,12|0,1:0|0:0,0:0:0:0:
142,242,16562,5,8,1:0:0:0:
226,257,16689,2,0,P|265:266|314:282,1,70,8|0,1:0|0:0,0:0:0:0:
149,223,16943,1,2,1:0:0:0:
16,16,17324,6,0,P|10:66|2:109,1,70,0|0,1:0|0:0,0:0:0:0:
97,30,17579,1,8,1:0:0:0:
99,108,17833,1,2,1:0:0:0:
91,187,18087,1,8,1:0:0:0:
101,264,18341,1,0,1:0:0:0:
49,345,18596,5,8,1:0:0:0:
168,362,18723,2,0,P|204:352|243:355,1,70,8|0,1:0|0:0,0:0:0:0:
46,374,18977,1,2,1:0:0:0:
468,229,19358,6,0,B|413:220|411:261|359:252,1,70,0|0,1:0|0:0,0:0:0:0:
339,235,19613,2,0,B|320:205|320:205|329:147,1,70,8|0,1:0|0:0,0:0:0:0:
368,110,19867,1,0,1:0:0:0:
368,110,20121,1,8,1:0:0:0:
368,110,20375,1,0,1:0:0:0:
260,258,20629,53,8,1:0:0:0:
134,252,20757,2,0,P|100:261|73:293,1,70,8|0,1:0|0:0,0:0:0:0:
260,208,21011,1,2,1:0:0:0:
34,108,21392,6,0,P|31:82|18:34,1,70,0|0,1:0|0:0,0:0:0:0:
109,114,21646,1,8,1:0:0:0:
98,40,21901,1,0,1:0:0:0:
172,31,22155,1,8,1:0:0:0:
183,105,22409,1,0,1:0:0:0:
248,10,22663,5,8,1:0:0:0:
240,175,22790,2,0,P|227:223|224:250,1,70,8|0,1:0|0:0,0:0:0:0:
304,24,23045,1,2,1:0:0:0:
457,377,23426,6,0,P|470:329|477:274,1,70,0|0,1:0|0:0,0:0:0:0:
469,233,23680,6,0,L|431:173,1,70,12|0,1:0|0:0,0:0:0:0:
469,233,23935,1,0,0:0:0:0:
301,130,24062,6,0,B|231:134|231:134|181:218,1,140,12|0,1:0|0:0,0:0:0:0:
275,322,24443,6,0,L|304:356,2,35,12|0|0,1:0|0:0|0:0,0:0:0:0:
165,294,24697,21,8,1:0:0:0:
313,220,24824,2,0,P|373:200|391:198,1,70,8|0,1:0|0:0,0:0:0:0:
153,278,25079,1,2,1:0:0:0:
493,89,25460,6,0,P|484:55|481:6,1,70,0|0,1:0|0:0,0:0:0:0:
504,181,25714,1,8,1:0:0:0:
411,116,25968,1,0,1:0:0:0:
316,77,26223,1,8,1:0:0:0:
261,26,26477,1,0,1:0:0:0:
402,45,26731,5,8,1:0:0:0:
261,164,26858,2,0,P|232:190|229:236,1,70,8|0,1:0|0:0,0:0:0:0:
377,25,27113,1,2,1:0:0:0:
225,219,27494,54,0,B|169:219|179:274|124:286,1,70,0|0,1:0|0:0,0:0:0:0:
113,285,27748,2,0,B|85:265|85:265|33:284,1,70,8|0,1:0|0:0,0:0:0:0:
13,210,28002,1,0,1:0:0:0:
17,208,28257,1,8,1:0:0:0:
23,210,28511,1,0,1:0:0:0:
247,360,28765,5,8,1:0:0:0:
224,216,28892,2,0,P|215:182|188:160,1,70,8|0,1:0|0:0,0:0:0:0:
301,342,29146,1,2,1:0:0:0:
399,95,29528,6,0,P|372:116|363:150,1,70,0|0,1:0|0:0,0:0:0:0:
472,43,29782,1,8,1:0:0:0:
379,12,30036,1,0,1:0:0:0:
296,50,30290,1,8,1:0:0:0:
222,25,30545,1,0,1:0:0:0:
151,46,30799,5,8,1:0:0:0:
151,46,30926,1,8,1:0:0:0:
84,25,31180,1,2,1:0:0:0:
84,25,31562,1,0,1:0:0:0:
23,213,31816,6,0,L|57:123,1,70,12|0,1:0|0:0,0:0:0:0:
23,213,32070,1,0,0:0:0:0:
240,100,32197,6,0,L|194:259,1,140,12|0,1:0|0:0,0:0:0:0:
89,334,32579,6,0,L|158:306,1,70,12|0,1:0|0:0,0:0:0:0:
352,245,32833,5,8,1:0:0:0:
300,364,32960,1,8,1:0:0:0:
300,364,33214,2,0,P|290:316|278:240,1,112,2|0,1:0|0:0,0:0:0:0:
352,245,33596,2,0,L|432:233,1,56,2|0,1:0|0:0,0:0:0:0:
461,54,33850,5,8,1:0:0:0:
461,54,34231,2,0,P|464:92|469:113,1,56,2|2,1:0|0:0,0:0:0:0:
412,161,34485,1,0,0:0:0:0:
347,120,34613,1,2,1:0:0:0:
379,51,34740,1,0,0:0:0:0:
498,204,34867,5,8,1:0:0:0:
442,326,34994,1,8,1:0:0:0:
442,326,35248,2,0,P|411:317|326:303,1,112,2|0,1:0|0:0,0:0:0:0:
282,250,35629,2,0,P|288:218|293:182,1,56,2|0,1:0|0:0,0:0:0:0:
207,23,35884,5,8,1:0:0:0:
207,23,36265,2,0,P|201:55|196:91,1,56,2|2,1:0|0:0,0:0:0:0:
162,149,36519,1,0,0:0:0:0:
98,119,36646,1,2,1:0:0:0:
73,193,36774,1,0,0:0:0:0:
275,240,36901,53,8,1:0:0:0:
174,364,37028,1,8,1:0:0:0:
174,364,37282,2,0,P|160:296|136:238,1,112,2|0,1:0|0:0,0:0:0:0:
72,269,37663,2,0,P|81:311|94:340,1,56,2|0,1:0|0:0,0:0:0:0:
248,150,37918,5,8,1:0:0:0:
315,129,38299,1,2,1:0:0:0:
380,158,38553,2,0,P|394:124|393:96,2,56,0|2|0,0:0|1:0|0:0,0:0:0:0:
222,224,38935,5,8,1:0:0:0:
55,173,39062,1,8,1:0:0:0:
55,173,39316,1,2,1:0:0:0:
55,173,39697,2,0,P|63:134|68:104,1,56,2|0,1:0|0:0,0:0:0:0:
155,293,39952,5,8,1:0:0:0:
80,265,40079,1,2,0:0:0:0:
93,341,40206,1,0,0:0:0:0:
93,341,40333,1,2,1:0:0:0:
217,225,40460,53,2,0:0:0:0:
292,197,40587,1,0,0:0:0:0:
211,364,40714,5,2,1:0:0:0:
110,192,40841,1,2,0:0:0:0:
273,294,40968,5,12,1:0:0:0:
61,276,41096,2,0,P|64:215|60:138,1,112,8|2,1:0|1:0,0:0:0:0:
118,117,41477,2,0,P|120:85|123:47,1,56,2|0,0:0|0:0,0:0:0:0:
58,19,41731,1,2,1:0:0:0:
247,366,41985,5,8,1:0:0:0:
256,291,42367,2,0,P|260:239|262:227,1,56,2|2,1:0|0:0,0:0:0:0:
286,164,42621,1,0,0:0:0:0:
246,102,42748,1,2,1:0:0:0:
265,27,42875,1,0,0:0:0:0:
363,130,43002,53,8,1:0:0:0:
165,192,43129,2,0,P|166:231|173:315,2,112,8|2|0,1:0|1:0|0:0,0:0:0:0:
168,113,43765,1,2,1:0:0:0:
477,342,44019,5,8,1:0:0:0:
477,342,44274,2,0,P|472:301|470:284,1,56,0|2,0:0|1:0,0:0:0:0:
423,231,44528,1,2,0:0:0:0:
423,231,44655,1,0,0:0:0:0:
500,206,44782,1,2,1:0:0:0:
500,206,44909,1,0,0:0:0:0:
434,153,45036,5,8,1:0:0:0:
279,111,45163,1,8,1:0:0:0:
279,111,45418,2,0,P|292:172|300:224,1,112,2|0,1:0|0:0,0:0:0:0:
386,241,45799,2,0,P|377:211|372:177,1,56,2|0,1:0|0:0,0:0:0:0:
20,223,46053,5,8,1:0:0:0:
20,223,46307,54,0,B|27:210|21:195|21:195|31:201|71:189,1,59.5000011348725,2|0,1:0|0:0,0:0:0:0:
143,202,46435,2,0,B|160:213|172:209|172:209|162:222|166:236,1,59.5000011348725,2|0,1:0|0:0,0:0:0:0:
102,318,46562,2,0,B|81:322|75:332|75:332|73:316|60:308,1,59.5000011348725,2|0,0:0|0:0,0:0:0:0:
26,236,46689,2,0,B|33:223|27:208|27:208|37:214|77:202,1,59.5000011348725,2|0,1:0|0:0,0:0:0:0:
136,214,46816,2,0,B|153:225|165:221|165:221|155:234|159:248,1,59.5000011348725,2|0,1:0|0:0,0:0:0:0:
104,306,46943,2,0,B|83:310|77:320|77:320|75:304|62:296,1,59.5000011348725,0|0,0:0|0:0,0:0:0:0:
26,236,47070,5,8,1:0:0:0:
191,321,47197,1,8,1:0:0:0:
191,321,47452,2,0,P|228:311|323:293,1,112,2|0,1:0|0:0,0:0:0:0:
370,275,47833,2,0,P|363:247|356:212,1,56,2|0,1:0|0:0,0:0:0:0:
444,41,48087,5,8,1:0:0:0:
497,103,48341,1,0,0:0:0:0:
444,41,48468,1,2,1:0:0:0:
338,86,48723,5,2,1:0:0:0:
444,41,48850,2,0,P|402:30|373:17,1,56,2|0,1:0|0:0,0:0:0:0:
242,124,49104,53,12,1:0:0:0:
356,201,49231,2,0,B|301:188|297:245|232:226,2,112,8|2|0,1:0|1:0|0:0,0:0:0:0:
425,184,49867,1,2,1:0:0:0:
49,315,50121,6,0,P|44:283|44:254,2,56,8|0|0,1:0|0:0|0:0,0:0:0:0:
118,278,50502,1,2,1:0:0:0:
115,270,50629,1,2,0:0:0:0:
114,215,50757,1,2,1:0:0:0:
116,145,50884,1,2,1:0:0:0:
141,69,51011,1,0,0:0:0:0:
302,29,51138,5,8,1:0:0:0:
261,145,51265,2,0,P|269:200|275:255,2,112,8|2|0,1:0|1:0|0:0,0:0:0:0:
185,164,51901,1,2,1:0:0:0:
486,357,52155,6,0,P|480:318|480:296,2,56,8|0|0,1:0|0:0|0:0,0:0:0:0:
413,363,52536,1,2,1:0:0:0:
411,353,52663,1,2,0:0:0:0:
403,302,52790,1,2,1:0:0:0:
399,226,52918,1,2,1:0:0:0:
401,141,53045,1,0,0:0:0:0:
288,25,53172,53,8,1:0:0:0:
220,123,53299,2,0,P|169:116|94:113,1,112,8|2,1:0|1:0,0:0:0:0:
108,112,53935,2,0,P|111:80|112:45,1,56,2|0,1:0|0:0,0:0:0:0:
89,280,54189,6,0,P|38:274|18:274,2,56,8|0|0,1:0|0:0|0:0,0:0:0:0:
166,292,54570,1,2,1:0:0:0:
286,324,54824,5,2,1:0:0:0:
166,292,54952,1,2,1:0:0:0:
262,253,55079,1,0,0:0:0:0:
168,369,55206,5,8,1:0:0:0:
76,202,55333,2,0,P|65:156|68:80,2,112,8|2|0,1:0|1:0|0:0,0:0:0:0:
156,205,55968,2,0,P|148:174|145:144,1,56,2|0,1:0|0:0,0:0:0:0:
253,24,56223,53,8,1:0:0:0:
357,96,56350,1,2,0:0:0:0:
216,91,56477,2,0,P|194:80|154:67,1,56,0|2,0:0|1:0,0:0:0:0:
330,15,56731,1,2,0:0:0:0:
287,144,56858,1,2,1:0:0:0:
335,230,56985,1,2,1:0:0:0:
307,296,57113,1,2,0:0:0:0:
430,359,57240,5,12,1:0:0:0:
307,296,57367,2,0,P|380:277|441:269,2,112,8|2|0,1:0|1:0|0:0,0:0:0:0:
244,374,58002,2,0,P|237:341|226:316,1,56,2|0,1:0|0:0,0:0:0:0:
287,150,58257,5,8,1:0:0:0:
287,150,58511,1,0,0:0:0:0:
353,116,58638,2,0,P|360:149|371:174,2,56,2|2|2,1:0|0:0|1:0,0:0:0:0:
260,76,59019,1,2,1:0:0:0:
334,44,59146,1,0,0:0:0:0:
216,188,59274,5,8,1:0:0:0:
21,187,59401,2,0,P|92:199|143:212,1,112,8|2,1:0|1:0,0:0:0:0:
130,208,60036,2,0,P|140:167|148:140,1,56,2|0,1:0|0:0,0:0:0:0:
345,262,60290,54,0,P|332:327|325:383,1,112,8|0,1:0|0:0,0:0:0:0:
326,371,60799,2,0,P|316:339|303:308,1,56,2|2,0:0|1:0,0:0:0:0:
254,238,61053,1,2,1:0:0:0:
244,160,61180,1,0,0:0:0:0:
377,23,61307,5,8,1:0:0:0:
418,156,61435,2,0,P|360:139|296:122,2,112,8|2|0,1:0|1:0|0:0,0:0:0:0:
466,230,62070,2,0,P|452:264|444:290,1,56,2|0,1:0|0:0,0:0:0:0:
253,329,62324,6,0,P|219:316|190:307,1,56,8|0,1:0|0:0,0:0:0:0:
137,264,62579,1,0,0:0:0:0:
141,252,62706,1,2,1:0:0:0:
161,199,62833,1,2,0:0:0:0:
177,119,62960,1,2,1:0:0:0:
221,30,63087,2,0,P|255:43|284:52,1,56,2|0,1:0|0:0,0:0:0:0:
82,165,63341,5,0,1:0:0:0:
82,165,63596,1,0,0:0:0:0:
82,165,64104,1,0,0:0:0:0:
126,48,64358,5,12,1:0:0:0:
273,217,64485,2,0,P|230:173|220:163,1,70,0|0,0:0|0:0,0:0:0:0:
257,70,64740,5,12,1:0:0:0:
27,176,64867,2,0,P|83:152|96:147,1,70,0|0,0:0|0:0,0:0:0:0:
205,11,65121,5,12,1:0:0:0:
143,220,65248,1,0,0:0:0:0:
269,303,65375,5,8,1:0:0:0:
51,343,65502,2,0,P|111:317|198:290,1,140,8|2,1:0|1:0,0:0:0:0:
256,204,65884,2,0,P|273:170|288:127,1,70,2|0,0:0|0:0,0:0:0:0:
236,3,66138,2,0,P|219:37|204:80,1,70,2|0,1:0|0:0,0:0:0:0:
442,213,66392,5,8,1:0:0:0:
442,213,66646,1,0,0:0:0:0:
442,213,66901,1,2,0:0:0:0:
442,213,67155,2,0,P|396:219|369:228,1,70,2|0,1:0|0:0,0:0:0:0:
231,277,67409,5,8,1:0:0:0:
343,29,67536,2,0,P|328:96|303:183,1,140,8|2,1:0|1:0,0:0:0:0:
176,193,67918,2,0,P|134:209|99:214,1,70,2|0,0:0|0:0,0:0:0:0:
348,369,68172,2,0,P|341:336|339:289,1,70,2|0,1:0|0:0,0:0:0:0:
156,372,68426,5,8,1:0:0:0:
156,372,68680,1,0,0:0:0:0:
156,372,68935,2,0,P|171:325|174:287,1,70,2|2,0:0|1:0,0:0:0:0:
33,224,69189,2,0,P|18:271|15:309,1,70,0|2,0:0|1:0,0:0:0:0:
209,190,69443,53,8,1:0:0:0:
107,29,69570,2,0,P|118:76|140:184,2,140,8|2|0,1:0|1:0|0:0,0:0:0:0:
24,89,70206,1,2,1:0:0:0:
44,157,70333,1,0,0:0:0:0:
253,57,70460,5,8,1:0:0:0:
253,57,70714,1,0,0:0:0:0:
253,57,70968,1,2,0:0:0:0:
356,90,71096,2,0,B|421:71|426:131|497:117,1,140,2|0,1:0|0:0,0:0:0:0:
320,10,71477,5,8,1:0:0:0:
222,163,71604,2,0,P|201:101|164:15,1,140,8|0,1:0|1:0,0:0:0:0:
60,137,71985,2,0,P|76:181|93:220,1,70,2|0,0:0|0:0,0:0:0:0:
64,357,72240,2,0,P|47:311|31:274,1,70,2|0,1:0|0:0,0:0:0:0:
373,112,72494,22,0,B|450:158|450:158|407:249,1,181.999991668702,12|0,1:0|0:0,0:0:0:0:
196,306,72875,6,0,B|119:260|119:260|162:169,1,181.999991668702,12|0,1:0|0:0,0:0:0:0:
274,84,73257,5,12,1:0:0:0:
150,30,73384,1,0,0:0:0:0:
343,199,73511,5,8,1:0:0:0:
285,381,73638,2,0,P|296:312|317:245,1,140,8|2,1:0|1:0,0:0:0:0:
373,354,74019,2,0,P|390:304|389:279,1,70,2|0,0:0|0:0,0:0:0:0:
251,159,74274,2,0,P|234:209|235:234,1,70,2|0,1:0|0:0,0:0:0:0:
438,82,74528,5,8,1:0:0:0:
438,82,74782,1,0,0:0:0:0:
438,82,75036,1,2,0:0:0:0:
438,82,75290,2,0,L|411:14,1,70,2|0,1:0|0:0,0:0:0:0:
504,178,75545,5,8,1:0:0:0:
283,241,75672,2,0,P|328:214|436:195,1,140,8|2,1:0|1:0,0:0:0:0:
305,139,76053,2,0,L|240:110,1,70,2|0,0:0|0:0,0:0:0:0:
248,347,76307,2,0,L|313:318,1,70,2|0,1:0|0:0,0:0:0:0:
49,192,76562,5,8,1:0:0:0:
49,192,76816,1,0,0:0:0:0:
49,192,77070,1,2,1:0:0:0:
120,215,77197,2,0,P|129:179|145:78,1,140,2|0,0:0|0:0,0:0:0:0:
339,22,77579,53,8,1:0:0:0:
501,88,77706,2,0,P|430:76|348:63,1,140,8|2,1:0|1:0,0:0:0:0:
277,161,78087,2,0,P|272:216|268:236,1,70,2|0,0:0|0:0,0:0:0:0:
341,340,78341,2,0,P|346:285|350:265,1,70,2|0,1:0|0:0,0:0:0:0:
49,208,78596,5,8,1:0:0:0:
49,208,78850,1,0,0:0:0:0:
49,208,79104,1,2,0:0:0:0:
49,208,79358,2,0,L|31:117,1,70,2|0,1:0|0:0,0:0:0:0:
247,94,79613,5,8,1:0:0:0:
184,221,79740,2,0,P|169:289|146:374,1,140,8|2,1:0|1:0,0:0:0:0:
365,357,80121,2,0,P|373:316|378:278,1,70,2|0,0:0|0:0,0:0:0:0:
327,134,80375,1,2,1:0:0:0:
496,165,80502,1,0,0:0:0:0:
261,271,80629,21,12,1:0:0:0:
261,271,80884,5,0,0:0:0:0:
109,43,81011,2,0,P|135:77|158:124,1,70,12|0,1:0|0:0,0:0:0:0:
276,164,81265,5,0,0:0:0:0:
64,347,81392,2,0,P|90:313|113:266,1,70,12|0,1:0|0:0,0:0:0:0:
354,226,81646,5,8,1:0:0:0:
198,203,81774,2,0,L|126:192,1,70,8|0,1:0|0:0,0:0:0:0:
359,203,82028,1,2,1:0:0:0:
40,31,82409,6,0,P|33:71|24:99,1,70,0|0,1:0|0:0,0:0:0:0:
116,10,82663,1,8,1:0:0:0:
184,56,82918,1,2,1:0:0:0:
258,19,83172,1,8,1:0:0:0:
329,63,83426,1,0,1:0:0:0:
485,32,83680,5,8,1:0:0:0:
434,176,83807,2,0,P|418:216|410:247,1,70,8|0,1:0|0:0,0:0:0:0:
450,20,84062,1,2,1:0:0:0:
206,176,84443,6,0,B|258:174|261:211|322:209,1,105,0|0,1:0|0:0,0:0:0:0:
332,196,84697,2,0,B|350:165|350:165|342:123,1,70,8|0,1:0|0:0,0:0:0:0:
307,60,84952,1,0,1:0:0:0:
307,60,85206,1,8,1:0:0:0:
307,60,85460,1,0,1:0:0:0:
102,168,85714,53,8,1:0:0:0:
41,306,85841,2,0,P|30:350|21:374,1,70,8|0,1:0|0:0,0:0:0:0:
24,159,86096,1,2,1:0:0:0:
341,104,86477,6,0,L|370:23,1,70,0|0,1:0|0:0,0:0:0:0:
440,58,86731,1,8,1:0:0:0:
412,132,86985,1,0,1:0:0:0:
341,104,87240,1,8,1:0:0:0:
364,38,87494,1,0,1:0:0:0:
470,220,87748,5,8,1:0:0:0:
268,241,87875,2,0,L|179:269,1,70,8|0,1:0|0:0,0:0:0:0:
456,175,88129,1,2,1:0:0:0:
75,143,88511,6,0,P|66:91|65:39,1,105,0|0,1:0|0:0,0:0:0:0:
97,26,88765,6,0,L|173:14,1,70,12|0,1:0|0:0,0:0:0:0:
97,26,89019,5,0,0:0:0:0:
299,105,89146,2,0,B|330:167|330:167|297:247,1,140,12|0,1:0|0:0,0:0:0:0:
134,318,89528,6,0,L|98:307,2,35,12|0|0,1:0|0:0|0:0,0:0:0:0:
283,350,89782,5,8,1:0:0:0:
189,225,89909,2,0,P|176:188|175:135,1,70,8|0,1:0|0:0,0:0:0:0:
242,368,90163,1,2,1:0:0:0:
474,25,90545,6,0,P|487:62|488:115,1,70,0|0,1:0|0:0,0:0:0:0:
397,20,90799,1,8,1:0:0:0:
331,61,91053,1,0,1:0:0:0:
228,19,91307,1,8,1:0:0:0:
153,46,91562,1,0,1:0:0:0:
267,165,91816,5,8,1:0:0:0:
438,259,91943,2,0,L|516:295,1,70,8|0,1:0|0:0,0:0:0:0:
240,252,92197,1,2,1:0:0:0:
63,30,92579,6,0,P|52:66|40:143,1,105,0|0,1:0|0:0,0:0:0:0:
49,172,92833,2,0,L|78:236,1,70,8|0,1:0|0:0,0:0:0:0:
45,308,93087,1,0,1:0:0:0:
33,308,93341,1,8,1:0:0:0:
33,299,93596,1,0,1:0:0:0:
363,249,93850,53,8,1:0:0:0:
387,73,93977,2,0,P|402:51|416:9,1,70,8|0,1:0|0:0,0:0:0:0:
277,213,94231,1,2,1:0:0:0:
51,353,94613,6,0,L|140:312,1,70,0|0,1:0|0:0,0:0:0:0:
188,334,94867,1,8,1:0:0:0:
261,304,95121,1,0,1:0:0:0:
326,338,95375,1,8,1:0:0:0:
390,302,95629,1,0,1:0:0:0:
427,373,95884,5,8,1:0:0:0:
427,373,96011,1,8,1:0:0:0:
496,339,96265,1,2,1:0:0:0:
496,339,96646,2,0,P|481:297|471:219,1,105,0|0,1:0|0:0,0:0:0:0:
476,194,96901,22,0,L|500:105,1,70,12|0,1:0|0:0,0:0:0:0:
476,194,97155,1,0,0:0:0:0:
320,15,97282,6,0,P|309:83|292:167,1,140,12|0,1:0|0:0,0:0:0:0:
157,259,97663,5,12,1:0:0:0:
25,166,97790,1,0,0:0:0:0:
496,43,100968,69,12,1:0:0:0:
368,220,101096,2,0,P|377:186|390:153,1,70,0|0,0:0|0:0,0:0:0:0:
415,282,101350,5,12,1:0:0:0:
316,22,101477,2,0,P|306:55|291:94,1,70,0|0,0:0|0:0,0:0:0:0:
160,220,101731,5,12,1:0:0:0:
24,114,101858,1,0,0:0:0:0:
71,250,101985,5,8,1:0:0:0:
125,21,102113,2,0,P|111:75|99:162,1,140,8|2,1:0|1:0,0:0:0:0:
496,352,102748,2,0,B|463:318|463:318|389:340,1,90.9999958343508,2|0,1:0|0:0,0:0:0:0:
253,360,103002,5,8,1:0:0:0:
253,360,103257,2,0,B|234:339|234:339|242:304|242:304|244:301|244:301|252:268|252:268|224:209,1,136.499993751526,2|0,1:0|0:0,0:0:0:0:
244,162,103511,2,0,B|225:150|225:150|223:141|223:141|225:151|225:151|194:191,2,60.6666638895672,2|2|2,1:0|1:0|1:0,0:0:0:0:
220,98,103765,2,0,B|223:80|223:80|225:76|225:76|231:30,1,45.4999979171754,2|0,1:0|0:0,0:0:0:0:
241,23,103892,2,0,B|238:41|238:41|236:45|236:45|230:91,1,45.4999979171754,2|0,1:0|0:0,0:0:0:0:
148,122,104019,5,8,1:0:0:0:
91,255,104146,2,0,P|101:209|119:92,1,140,8|2,1:0|1:0,0:0:0:0:
40,25,104528,1,8,1:0:0:0:
40,25,104782,2,0,P|30:71|22:125,1,70,2|0,1:0|0:0,0:0:0:0:
143,38,105036,5,2,0:0:0:0:
261,101,105163,2,0,B|330:92|336:164|416:156,1,140,0|0,1:0|0:0,0:0:0:0:
166,138,105545,1,8,1:0:0:0:
243,8,105672,1,2,1:0:0:0:
158,178,105799,2,0,L|69:198,1,70,8|0,1:0|0:0,0:0:0:0:
243,224,106053,53,12,1:0:0:0:
313,368,106180,2,0,P|298:327|280:233,1,140,8|2,1:0|1:0,0:0:0:0:
452,47,106562,1,8,1:0:0:0:
452,47,106816,2,0,P|467:88|485:182,1,140,2|2,1:0|0:0,0:0:0:0:
485,182,107452,1,2,1:0:0:0:
397,360,107579,2,0,P|404:331|407:283,1,70,2|2,0:0|1:0,0:0:0:0:
472,257,107833,1,2,1:0:0:0:
472,257,107960,1,0,0:0:0:0:
290,341,108087,5,8,1:0:0:0:
237,65,108214,2,0,P|255:132|266:201,1,140,8|2,1:0|1:0,0:0:0:0:
107,331,108596,2,0,B|88:303|88:303|92:245,1,70,8|0,1:0|0:0,0:0:0:0:
2,85,108850,2,0,B|68:68|71:141|154:127,1,140,2|2,1:0|0:0,0:0:0:0:
130,128,109485,5,2,1:0:0:0:
320,47,109613,2,0,P|269:27|246:15,1,70,2|2,0:0|1:0,0:0:0:0:
169,37,109867,1,2,1:0:0:0:
169,37,109994,1,0,0:0:0:0:
267,187,110121,5,8,1:0:0:0:
257,353,110248,2,0,P|264:310|285:215,1,140,8|2,1:0|1:0,0:0:0:0:
472,130,110629,2,0,B|436:120|436:120|395:151,1,70,8|0,1:0|0:0,0:0:0:0:
200,78,110884,2,0,B|126:72|130:134|79:146,1,140,2|2,1:0|0:0,0:0:0:0:
289,323,111392,54,0,B|289:333|304:341|304:341|289:339|273:353,1,59.5000011348725,0|0,1:0|0:0,0:0:0:0:
178,361,111519,2,0,B|167:358|155:370|155:370|161:356|153:337,1,59.5000011348725,2|0,0:0|0:0,0:0:0:0:
135,257,111646,2,0,B|142:244|135:228|135:228|146:239|161:238,1,59.5000011348725,2|0,1:0|0:0,0:0:0:0:
243,226,111774,2,0,B|257:227|271:216|271:216|263:229|269:250,1,59.5000011348725,2|0,1:0|0:0,0:0:0:0:
202,337,111901,6,0,B|191:334|179:346|179:346|185:332|177:312,1,59.5000011348725,2|0,1:0|0:0,0:0:0:0:
217,269,112028,2,0,B|231:270|245:259|245:259|237:272|243:293,1,59.5000011348725
150,156,112155,5,2,1:0:0:0:
213,29,112282,1,2,1:0:0:0:
380,109,112409,2,0,L|299:90,1,83.9999974365235,8|0,1:0|0:0,0:0:0:0:
228,147,112663,5,2,1:0:0:0:
139,41,112790,1,2,1:0:0:0:
7,89,112918,2,0,L|89:109,1,83.9999974365235,8|0,1:0|0:0,0:0:0:0:
239,18,113172,53,2,1:0:0:0:
149,185,113299,1,2,1:0:0:0:
394,95,113426,2,0,B|362:70|362:70|320:78,1,83.9999974365235,8|0,1:0|0:0,0:0:0:0:
245,182,113680,5,2,1:0:0:0:
155,15,113807,1,2,1:0:0:0:
3,125,113935,2,0,B|36:151|36:151|78:143,1,83.9999974365235,8|0,1:0|0:0,0:0:0:0:
454,272,114189,5,6,1:0:0:0:
370,360,114316,1,2,1:0:0:0:
331,251,114443,2,0,L|342:155,1,83.9999974365235,8|0,1:0|0:0,0:0:0:0:
426,276,114697,1,2,1:0:0:0:
367,335,114824,1,2,1:0:0:0:
345,251,114952,2,0,L|356:155,1,83.9999974365235,8|0,1:0|0:0,0:0:0:0:
276,46,115206,5,2,1:0:0:0:
162,107,115333,1,2,1:0:0:0:
249,203,115460,1,8,1:0:0:0:
249,203,115714,1,2,1:0:0:0:
363,142,115841,1,2,1:0:0:0:
276,46,115968,1,8,1:0:0:0:
162,107,116096,1,0,0:0:0:0:
71,243,116223,53,2,1:0:0:0:
9,124,116350,1,2,1:0:0:0:
71,243,116477,2,0,L|97:144,1,83.9999974365235,8|0,1:0|0:0,0:0:0:0:
53,229,116731,1,2,1:0:0:0:
0,140,116858,1,2,1:0:0:0:
53,229,116985,2,0,L|79:130,1,83.9999974365235,8|0,1:0|0:0,0:0:0:0:
233,34,117240,5,2,1:0:0:0:
246,199,117367,1,2,1:0:0:0:
188,327,117494,1,8,1:0:0:0:
259,364,117748,5,10,1:0:0:0:
246,199,117875,1,2,1:0:0:0:
304,71,118002,2,0,L|416:25,1,83.9999974365235,8|0,1:0|0:0,0:0:0:0:
494,151,118257,5,6,1:0:0:0:
385,211,118384,1,2,1:0:0:0:
488,305,118511,2,0,B|499:262|499:262|467:228,1,83.9999974365235,8|0,1:0|0:0,0:0:0:0:
462,131,118765,1,2,1:0:0:0:
380,174,118892,1,2,1:0:0:0:
474,289,119019,2,0,B|485:246|485:246|453:212,1,83.9999974365235,8|0,1:0|0:0,0:0:0:0:
333,94,119274,53,2,1:0:0:0:
210,169,119401,1,2,1:0:0:0:
78,242,119528,1,8,1:0:0:0:
78,242,119782,1,2,1:0:0:0:
210,169,119909,1,2,1:0:0:0:
333,94,120036,1,8,1:0:0:0:
303,190,120163,1,0,0:0:0:0:
231,77,120290,5,2,1:0:0:0:
364,13,120418,1,2,1:0:0:0:
426,139,120545,1,8,1:0:0:0:
330,96,120672,1,0,1:0:0:0:
289,184,120799,5,2,1:0:0:0:
235,61,120926,1,2,1:0:0:0:
377,18,121053,1,8,1:0:0:0:
418,152,121180,1,0,1:0:0:0:
289,184,121307,6,0,P|303:124|308:88,1,83.9999974365235,2|2,1:0|1:0,0:0:0:0:
502,110,121562,53,8,1:0:0:0:
443,61,121689,1,0,1:0:0:0:
482,230,121816,5,8,1:0:0:0:
423,181,121943,1,2,1:0:0:0:
486,362,122070,5,8,1:0:0:0:
427,313,122197,1,2,1:0:0:0:
423,181,122324,6,0,L|442:99,1,83.9999974365235,12|2,1:0|1:0,0:0:0:0:
288,368,122579,2,0,L|307:286,1,83.9999974365235,8|2,1:0|1:0,0:0:0:0:
242,17,122833,54,0,L|223:99,1,83.9999974365235,8|2,1:0|1:0,0:0:0:0:
107,204,123087,2,0,L|88:286,1,83.9999974365235,8|2,1:0|1:0,0:0:0:0:
372,76,123341,6,0,L|330:3,1,83.9999974365235,8|2,1:0|1:0,0:0:0:0:
401,305,123596,2,0,L|359:232,1,83.9999974365235,8|2,1:0|1:0,0:0:0:0:
128,79,123850,6,0,L|170:152,1,83.9999974365235,8|2,1:0|1:0,0:0:0:0:
157,308,124104,2,0,L|199:381,1,83.9999974365235,8|2,1:0|1:0,0:0:0:0:
26,362,124358,5,8,1:0:0:0:
85,313,124485,1,2,1:0:0:0:
30,230,124613,53,8,1:0:0:0:
89,181,124740,1,2,1:0:0:0:
10,110,124867,5,8,1:0:0:0:
69,61,124994,1,2,1:0:0:0:
89,181,125121,6,0,L|122:289,1,83.9999974365235,8|2,1:0|1:0,0:0:0:0:
249,39,125375,2,0,L|282:147,1,83.9999974365235,8|2,1:0|1:0,0:0:0:0:
490,221,125629,6,0,L|457:113,1,83.9999974365235,8|2,1:0|1:0,0:0:0:0:
330,363,125884,2,0,L|297:255,1,83.9999974365235,8|2,1:0|1:0,0:0:0:0:
489,308,126138,53,8,1:0:0:0:
313,204,126265,1,2,1:0:0:0:
121,340,126392,6,0,L|195:260,1,83.9999974365235,8|2,0:0|0:0,0:0:0:0:
300,25,126646,1,8,0:0:0:0:
205,42,126774,1,2,0:0:0:0:
437,314,126901,2,0,L|363:234,1,83.9999974365235,8|2,0:0|0:0,0:0:0:0:
182,119,127155,5,8,0:0:0:0:
350,90,127282,1,2,0:0:0:0:
95,355,127409,2,0,L|169:275,1,83.9999974365235,8|2,0:0|0:0,0:0:0:0:
394,163,127663,5,8,0:0:0:0:
152,206,127790,1,2,0:0:0:0:
437,358,127918,2,0,L|363:278,1,83.9999974365235,8|2,0:0|0:0,0:0:0:0:
266,138,128172,53,8,0:0:0:0:
266,138,128299,1,2,0:0:0:0:
436,91,128426,2,0,P|449:76|470:60,2,41.9999987182618,8|0|2,0:0|0:0|0:0,0:0:0:0:
322,221,128680,5,8,0:0:0:0:
322,221,128807,1,2,0:0:0:0:
352,44,128935,2,0,P|353:27|359:-1,2,41.9999987182618,8|0|2,0:0|0:0|0:0,0:0:0:0:
416,223,129189,5,8,0:0:0:0:
416,223,129316,1,8,0:0:0:0:
273,64,129443,2,0,P|262:51|244:25,3,41.9999987182618,8|0|2|0,0:0|0:0|0:0|0:0,0:0:0:0:
238,194,129697,2,0,P|228:211|217:243,3,41.9999987182618,8|0|2|0,0:0|0:0|0:0|0:0,0:0:0:0:
398,136,129952,2,0,P|423:139|445:152,3,41.9999987182618,8|0|2|0,0:0|0:0|0:0|0:0,0:0:0:0:
317,136,130206,1,8,0:0:0:0:
309,132,130269,1,0,0:0:0:0:
313,125,130333,1,2,1:0:0:0:
321,129,130396,1,0,0:0:0:0:
318,148,130460,6,0,L|313:173,1,26.2500010013581,8|0,0:0|0:0,0:0:0:0:
324,155,130524,2,0,L|319:180,1,26.2500010013581,0|0,0:0|0:0,0:0:0:0:
330,164,130587,2,0,L|325:189,1,26.2500010013581,0|0,0:0|0:0,0:0:0:0:
335,174,130651,2,0,L|330:199,1,26.2500010013581,0|0,1:0|1:0,1:0:0:0:
340,182,130714,2,0,L|335:207,1,26.2500010013581,0|0,0:0|0:0,0:0:0:0:
345,189,130778,2,0,L|340:214,1,26.2500010013581,0|0,0:0|0:0,0:0:0:0:
351,203,130841,54,0,L|332:260,1,52.5000020027161
384,324,130968,2,0,B|355:359|355:359|203:320,1,178.500003404617,8|0,0:0|0:0,0:0:0:0:
187,254,131223,6,0,L|207:194,1,59.5000011348725
98,54,131350,2,0,B|127:19|127:19|279:58,1,178.500003404617,8|0,0:0|0:0,0:0:0:0:
295,124,131604,2,0,L|275:184,1,59.5000011348725,0|0,0:0|0:0,0:0:0:0:
56,202,131731,5,8,0:0:0:0:
456,223,132494,5,12,1:0:0:0:
220,324,132621,2,0,P|261:299|355:254,1,140,8|2,1:0|1:0,0:0:0:0:
362,122,133002,2,0,P|346:77|337:39,1,70,2|0,0:0|0:0,0:0:0:0:
191,17,133257,2,0,P|207:62|216:100,1,70,2|0,1:0|0:0,0:0:0:0:
460,137,133511,53,8,1:0:0:0:
460,137,133765,1,0,0:0:0:0:
460,137,134019,1,2,0:0:0:0:
460,137,134274,2,0,L|443:209,1,70,2|0,1:0|0:0,0:0:0:0:
267,243,134528,5,8,1:0:0:0:
193,374,134655,2,0,P|220:304|238:241,1,140,8|2,1:0|1:0,0:0:0:0:
262,119,135036,2,0,L|192:89,1,70,2|0,0:0|0:0,0:0:0:0:
85,1,135290,2,0,L|155:31,1,70,2|0,1:0|0:0,0:0:0:0:
26,185,135545,5,8,1:0:0:0:
26,185,135799,1,0,0:0:0:0:
26,185,136053,1,2,0:0:0:0:
26,185,136307,2,0,L|3:264,1,70,2|0,1:0|0:0,0:0:0:0:
238,226,136562,5,8,1:0:0:0:
340,100,136689,2,0,P|326:177|315:265,1,140,8|2,1:0|1:0,0:0:0:0:
245,70,137070,2,0,P|257:36|266:-5,1,70,2|0,0:0|0:0,0:0:0:0:
454,43,137324,2,0,P|442:77|433:118,1,70,2|0,1:0|0:0,0:0:0:0:
161,165,137579,53,8,1:0:0:0:
161,165,137833,1,0,0:0:0:0:
161,165,138087,2,0,L|83:150,1,70,2|2,0:0|1:0,0:0:0:0:
205,330,138341,2,0,L|283:345,1,70,2|0,1:0|0:0,0:0:0:0:
83,269,138596,5,8,1:0:0:0:
247,197,138723,2,0,P|251:149|253:30,1,140,8|0,1:0|1:0,0:0:0:0:
354,134,139104,2,0,P|350:78|352:53,1,70,2|0,0:0|0:0,0:0:0:0:
490,169,139358,2,0,P|494:225|492:250,1,70,2|0,1:0|0:0,0:0:0:0:
248,348,139613,38,0,B|315:283|315:283|400:338,1,181.999991668702,12|0,1:0|0:0,0:0:0:0:
156,171,139994,6,0,B|89:106|89:106|4:161,1,181.999991668702,12|0,1:0|0:0,0:0:0:0:
170,287,140375,5,12,1:0:0:0:
285,136,140502,1,0,0:0:0:0:
244,26,140629,5,8,1:0:0:0:
482,57,140757,2,0,P|435:47|317:29,1,140,8|2,1:0|1:0,0:0:0:0:
285,136,141138,2,0,P|280:177|274:208,1,70,2|0,0:0|0:0,0:0:0:0:
392,283,141392,2,0,P|397:242|403:211,1,70,2|0,1:0|0:0,0:0:0:0:
186,354,141646,5,8,1:0:0:0:
186,354,141901,1,0,0:0:0:0:
186,354,142155,1,2,0:0:0:0:
186,354,142409,6,0,L|113:334,1,70,2|0,1:0|0:0,0:0:0:0:
49,145,142663,5,8,1:0:0:0:
10,356,142790,2,0,P|22:297|38:196,2,140,8|2|0,1:0|1:0|0:0,0:0:0:0:
126,254,143426,2,0,P|131:223|138:172,1,70,2|0,1:0|0:0,0:0:0:0:
363,37,143680,53,8,1:0:0:0:
363,37,143935,1,0,0:0:0:0:
363,37,144189,1,2,1:0:0:0:
356,116,144316,2,0,P|349:179|340:261,1,140,2|0,0:0|0:0,0:0:0:0:
248,366,144697,5,8,1:0:0:0:
127,165,144824,2,0,B|205:147|196:214|266:210,1,140,8|2,1:0|1:0,0:0:0:0:
102,314,145206,2,0,P|122:279|127:249,1,70,2|0,0:0|0:0,0:0:0:0:
46,95,145460,2,0,P|26:130|21:160,1,70,2|0,1:0|0:0,0:0:0:0:
250,29,145714,5,8,1:0:0:0:
250,29,145968,1,0,0:0:0:0:
250,29,146223,1,2,0:0:0:0:
250,29,146477,2,0,L|336:7,1,70,2|0,1:0|0:0,0:0:0:0:
462,131,146731,5,8,1:0:0:0:
261,180,146858,2,0,P|246:234|249:336,1,140,8|2,1:0|1:0,0:0:0:0:
450,375,147240,2,0,P|465:321|464:250,1,105,2|0,0:0|0:0,0:0:0:0:
470,233,147494,2,0,L|392:210,1,70,2|0,1:0|0:0,0:0:0:0:
177,54,147748,6,0,B|266:23|266:23|343:104,1,181.999991668702,12|0,1:0|0:0,0:0:0:0:
245,317,148129,6,0,B|156:348|156:348|79:267,1,181.999991668702,12|0,1:0|0:0,0:0:0:0:
318,220,148511,5,12,1:0:0:0:
128,141,148638,1,0,0:0:0:0:
224,131,148765,5,8,1:0:0:0:
11,286,148892,2,0,P|23:233|38:140,1,140,8|2,1:0|1:0,0:0:0:0:
205,231,149274,2,0,L|286:257,1,70,2|0,0:0|0:0,0:0:0:0:
387,186,149528,2,0,L|419:96,1,70,2|0,1:0|0:0,0:0:0:0:
419,364,149782,5,8,1:0:0:0:
419,364,150036,1,0,0:0:0:0:
419,364,150290,1,2,0:0:0:0:
419,364,150545,2,0,P|371:348|337:347,1,70,2|0,1:0|0:0,0:0:0:0:
292,145,150799,5,8,1:0:0:0:
123,88,150926,2,0,B|183:72|193:137|261:123,1,140,8|2,1:0|1:0,0:0:0:0:
420,76,151307,2,0,P|380:52|345:65,1,70,2|0,0:0|0:0,0:0:0:0:
311,229,151562,2,0,P|337:251|372:250,1,70,2|0,1:0|0:0,0:0:0:0:
237,12,151816,5,8,1:0:0:0:
237,12,152070,1,0,0:0:0:0:
237,12,152324,1,2,0:0:0:0:
237,12,152579,2,0,L|148:20,1,70,0|2,0:0|1:0,0:0:0:0:
175,192,152833,53,8,1:0:0:0:
59,309,152960,2,0,P|51:239|37:170,1,140,8|2,1:0|1:0,0:0:0:0:
177,208,153341,1,2,0:0:0:0:
177,208,153596,2,0,L|264:223,1,70,2|0,1:0|0:0,0:0:0:0:
433,100,153850,5,8,1:0:0:0:
474,288,153977,2,0,P|491:229|497:134,1,140,0|2,0:0|1:0,0:0:0:0:
342,124,154358,2,0,P|325:170|316:219,1,70,2|2,0:0|1:0,0:0:0:0:
374,307,154613,2,0,P|391:261|400:212,1,70,2|0,1:0|0:0,0:0:0:0:
260,30,154867,5,8,1:0:0:0:
176,192,154994,2,0,B|111:181|112:256|43:261,1,140,8|0,1:0|1:0,0:0:0:0:
234,354,155375,1,2,0:0:0:0:
234,354,155629,2,0,P|222:292|216:267,1,70,2|0,1:0|0:0,0:0:0:0:
196,30,155884,21,12,1:0:0:0:
404,229,156011,2,0,P|371:203|353:175,1,70,0|0,0:0|0:0,0:0:0:0:
376,45,156265,5,12,1:0:0:0:
123,199,156392,2,0,P|160:179|183:155,1,70,0|0,0:0|0:0,0:0:0:0:
310,261,156646,5,12,1:0:0:0:
174,355,156774,1,0,0:0:0:0:
320,382,156901,5,8,1:0:0:0:
179,160,157028,2,0,P|211:216|240:311,1,140,8|2,1:0|1:0,0:0:0:0:
310,261,157409,2,0,P|300:225|286:193,1,70,2|0,0:0|0:0,0:0:0:0:
137,261,157663,2,0,P|147:297|161:329,1,70,2|0,1:0|0:0,0:0:0:0:
442,185,157918,5,8,1:0:0:0:
442,185,158172,1,0,0:0:0:0:
442,185,158426,1,2,0:0:0:0:
442,185,158680,2,0,L|352:159,1,70,2|0,1:0|0:0,0:0:0:0:
155,83,158935,5,8,1:0:0:0:
106,295,159062,2,0,P|124:250|136:139,1,140,8|2,1:0|1:0,0:0:0:0:
76,44,159443,2,0,P|61:84|57:111,1,70,2|0,0:0|0:0,0:0:0:0:
220,165,159697,2,0,P|235:125|239:98,1,70,2|0,1:0|0:0,0:0:0:0:
488,52,159952,5,8,1:0:0:0:
488,52,160206,1,0,0:0:0:0:
488,52,160460,2,0,B|462:19|462:19|338:44,1,140,2|2,0:0|1:0,0:0:0:0:
297,9,160841,1,0,0:0:0:0:
323,213,160968,53,8,1:0:0:0:
206,333,161096,2,0,P|224:276|239:186,1,140,8|2,1:0|1:0,0:0:0:0:
177,130,161477,2,0,L|264:113,1,70,2|0,0:0|0:0,0:0:0:0:
307,40,161731,2,0,L|220:23,1,70,2|0,1:0|0:0,0:0:0:0:
46,187,161985,5,8,1:0:0:0:
46,187,162240,1,0,0:0:0:0:
46,187,162494,1,2,0:0:0:0:
46,187,162748,2,0,P|42:234|35:276,1,70,2|0,1:0|0:0,0:0:0:0:
253,284,163002,5,8,1:0:0:0:
39,361,163129,2,0,P|106:324|186:302,1,140,8|2,1:0|1:0,0:0:0:0:
249,201,163511,2,0,P|231:161|222:121,1,70,2|0,0:0|0:0,0:0:0:0:
293,47,163765,1,2,1:0:0:0:
196,12,163892,1,0,0:0:0:0:
465,49,164019,22,0,B|516:122|516:122|461:207,1,181.999991668702,12|0,1:0|0:0,0:0:0:0:
250,350,164401,6,0,B|199:277|199:277|254:192,1,181.999991668702,12|0,1:0|0:0,0:0:0:0:
364,112,164782,5,12,1:0:0:0:
284,42,164909,1,0,0:0:0:0:
476,331,165036,6,0,B|485:351|485:351|539:356|539:356|540:358|540:358|539:357|539:357|512:219|512:219|399:253|399:253|399:255|399:255|278:291,1,448,6|2,0:0|0:0,0:0:0:0:
296,285,165799,1,2,1:0:0:0:
207,165,165926,1,0,1:0:0:0:
86,265,166053,2,0,B|108:286|108:286|204:255,1,112,8|0,1:0|0:0,0:0:0:0:
211,149,166307,1,2,1:0:0:0:
214,135,166562,1,8,1:0:0:0:
218,119,166816,1,2,1:0:0:0:
226,44,167070,5,2,0:0:0:0:
185,260,167197,2,0,P|191:281|196:309,1,35,2|0,0:0|0:0,0:0:0:0:
226,44,167452,6,0,B|252:163|252:163|254:161|254:161|286:302,1,224,0|0,0:0|0:0,0:0:0:0:
152,85,167833,1,2,1:0:0:0:
307,50,167960,1,0,1:0:0:0:
275,257,168087,2,0,B|228:288|228:288|226:294|226:294|179:325,1,112,8|0,1:0|0:0,0:0:0:0:
117,352,168341,1,2,1:0:0:0:
347,218,168596,1,8,1:0:0:0:
117,352,168850,1,2,1:0:0:0:
347,218,169104,5,2,0:0:0:0:
22,146,169231,2,0,B|60:104|60:104|262:179,1,224,2|2,0:0|1:0,0:0:0:0:
251,286,169613,2,0,L|230:346,1,56,2|0,0:0|0:0,0:0:0:0:
237,287,169740,2,0,L|216:347,1,56,0|0,0:0|0:0,0:0:0:0:
249,254,169867,1,2,1:0:0:0:
293,83,169994,1,0,1:0:0:0:
249,254,170121,2,0,B|272:305|272:305|271:307|271:307|301:363,1,112,8|0,1:0|0:0,0:0:0:0:
386,317,170375,1,2,1:0:0:0:
410,308,170629,1,8,1:0:0:0:
432,300,170884,1,2,1:0:0:0:
296,354,171138,53,2,0:0:0:0:
512,236,171265,2,0,P|478:223|469:213,2,35,2|0|2,0:0|0:0|1:0,0:0:0:0:
264,122,171646,6,0,B|300:93|300:93|372:114|372:114|391:165,1,168,2|0,0:0|0:0,0:0:0:0:
316,190,171901,1,2,1:0:0:0:
316,190,172028,1,0,1:0:0:0:
50,292,172155,38,0,B|39:283|36:267|36:267|45:289|46:313,1,56,12|0,1:0|0:0,0:0:0:0:
69,364,172282,1,0,0:0:0:0:
69,364,172409,1,0,0:0:0:0:
229,242,172536,6,0,B|236:230|234:213|234:213|232:237|239:260,1,56,12|0,1:0|0:0,0:0:0:0:
233,316,172663,1,0,0:0:0:0:
233,316,172790,1,0,0:0:0:0:
416,291,172918,6,0,B|427:282|430:266|430:266|421:288|420:312,1,56,12|0,1:0|0:0,0:0:0:0:
397,363,173045,1,0,0:0:0:0:
89,166,173172,6,0,B|70:135|70:135|93:86|93:86|136:121|136:121|217:104|217:104|219:106|219:106|245:100|245:100|247:92|247:92|245:99|245:99|369:126|369:126|369:134|369:134|369:126|369:126|398:113,1,448,2|2,0:0|0:0,0:0:0:0:
397,113,173935,1,2,1:0:0:0:
266,217,174062,1,0,1:0:0:0:
439,278,174189,2,0,B|444:247|456:236|456:236|456:224|456:224|454:236|454:236|446:251|399:260,1,112,8|0,1:0|0:0,0:0:0:0:
251,236,174443,1,2,1:0:0:0:
237,253,174697,1,8,1:0:0:0:
222,271,174952,1,2,1:0:0:0:
183,335,175206,5,2,0:0:0:0:
273,179,175333,2,0,B|282:119|257:70|257:70|270:127|253:186,1,224,2|2,0:0|1:0,0:0:0:0:
367,314,175714,2,0,B|427:309|427:309|392:264,1,112,2|0,0:0|0:0,0:0:0:0:
251,258,175968,1,2,1:0:0:0:
382,183,176096,1,0,1:0:0:0:
187,30,176223,5,8,1:0:0:0:
161,24,176477,2,0,B|151:84|151:84|153:88|153:88|144:147,1,112,2|0,1:0|0:0,0:0:0:0:
33,267,176731,1,8,1:0:0:0:
0,260,176985,1,2,1:0:0:0:
231,292,177240,5,2,0:0:0:0:
0,260,177367,1,0,0:0:0:0:
192,366,177494,53,2,0:0:0:0:
52,187,177621,1,0,0:0:0:0:
44,336,177748,6,0,B|85:251|140:270|138:386|189:276|97:330|65:294|64:264|170:177,1,241.500004606247,2|0,0:0|0:0,0:0:0:0:
192,181,178002,1,2,1:0:0:0:
309,283,178129,1,0,1:0:0:0:
442,180,178257,5,8,1:0:0:0:
433,160,178511,1,2,1:0:0:0:
376,66,178765,1,8,1:0:0:0:
367,86,179019,1,2,1:0:0:0:
285,197,179274,6,0,L|342:167,1,56,2|0,0:0|0:0,0:0:0:0:
289,207,179401,2,0,L|346:177,1,56,0|0,0:0|0:0,0:0:0:0:
246,129,179528,1,2,0:0:0:0:
269,364,179655,54,0,B|253:335|253:335|217:334|217:334|197:278|197:278|190:278|190:278|198:277|198:277|217:250|217:250|184:164,1,224
85,63,180036,1,2,0:0:0:0:
221,23,180163,1,0,0:0:0:0:
106,208,180290,54,0,P|70:198|74:164,5,56,12|0|0|0|0|0,1:0|0:0|0:0|0:0|0:0|0:0,0:0:0:0:
81,65,180672,6,0,P|109:33|146:42,5,62.9999980773926,12|0|0|0|0|0,1:0|0:0|0:0|0:0|0:0|0:0,0:0:0:0:
252,99,181053,6,0,B|268:134|268:134|236:175,1,70,12|0,1:0|0:0,0:0:0:0:
269,302,181180,2,0,B|252:271|252:271|285:226,1,70,0|0,0:0|0:0,0:0:0:0:
355,193,181307,6,0,B|380:202|380:202|381:204|381:204|408:216,1,56,12|0,1:0|0:0,0:0:0:0:
468,256,181435,2,0,B|462:321|462:321|470:335|470:335|462:321|462:321|398:297|398:297|396:298|396:298|317:265,2,224,8|2|0,1:0|1:0|0:0,0:0:0:0:
512,159,182070,2,0,B|473:125|473:125|541:44,1,112,2|0,1:0|1:0,0:0:0:0:
316,139,182324,6,0,P|223:171|109:169,1,168,8|0,1:0|0:0,0:0:0:0:
83,143,182579,1,2,1:0:0:0:
90,122,182833,1,8,1:0:0:0:
111,122,183087,1,2,1:0:0:0:
87,223,183341,6,0,B|65:243|65:243|73:292,1,56,8|0,1:0|0:0,0:0:0:0:
17,189,183468,2,0,B|40:125|134:139|138:195|104:238|150:276|215:246,2,224,8|2|0,1:0|1:0|0:0,0:0:0:0:
235,175,184104,2,0,B|272:132|272:132|236:63,1,112,2|0,1:0|1:0,0:0:0:0:
512,42,184358,6,0,B|469:29|469:29|467:16|467:16|469:28|469:28|417:66|417:66|421:72|421:72|345:124,1,224,8|2,1:0|1:0,0:0:0:0:
305,26,184740,1,0,2:0:0:0:
354,202,184867,2,0,B|397:215|397:215|399:228|399:228|397:216|397:216|449:178|449:178|445:172|445:172|521:120,1,224,8|2,1:0|1:0,0:0:0:0:
502,122,185248,1,0,2:0:0:0:
202,200,185375,54,0,B|203:217|185:222|185:222|201:210|236:228,1,56,8|0,1:0|0:0,0:0:0:0:
290,384,185502,2,0,P|308:334|229:193,2,224,8|2|0,1:0|1:0|0:0,0:0:0:0:
377,239,186138,2,0,B|398:261|426:263|426:263|399:264|377:300,1,112,2|0,1:0|1:0,0:0:0:0:
222,304,186392,6,0,P|141:318|29:342,1,168,8|0,1:0|0:0,0:0:0:0:
26,267,186646,1,2,1:0:0:0:
49,239,186901,1,8,1:0:0:0:
81,240,187155,1,2,1:0:0:0:
256,369,187409,6,0,P|293:372|316:356,1,56,8|0,1:0|0:0,0:0:0:0:
496,139,187536,2,0,P|460:158|367:311,2,224,2|2|2,2:1|2:1|2:1,0:0:0:0:
512,222,188172,1,2,1:0:0:0:
512,222,188299,1,2,2:1:0:0:
239,199,188426,21,12,1:0:0:0:
317,56,188553,2,0,B|386:32|386:32|389:19|389:19|381:29|381:29|424:122,1,168,0|0,0:0|0:0,0:0:0:0:
394,10,188807,5,12,1:0:0:0:
395,245,188935,2,0,B|356:261|356:261|355:263|355:263|306:282|306:282|278:244|278:244|279:244|279:244|229:175,1,188.999994232178,0|0,0:0|0:0,0:0:0:0:
228,110,189189,6,0,L|300:139,1,70,12|0,1:0|0:0,0:0:0:0:
397,170,189316,2,0,L|469:199,1,70,0|0,0:0|0:0,0:0:0:0:
480,308,189443,6,0,B|502:331|502:331|465:369,1,56,8|0,1:0|0:0,0:0:0:0:
392,360,189570,2,0,P|313:308|150:336,2,224,8|2|0,1:0|1:0|0:0,0:0:0:0:
326,219,190206,2,0,P|295:164|346:111,1,112,2|0,1:0|1:0,0:0:0:0:
92,30,190460,6,0,B|111:9|111:9|264:38,1,168,8|0,1:0|0:0,0:0:0:0:
324,55,190714,1,2,1:0:0:0:
345,36,190968,1,8,1:0:0:0:
328,15,191223,1,2,1:0:0:0:
314,124,191477,6,0,B|299:150|299:150|318:184,1,56,8|0,1:0|0:0,0:0:0:0:
269,282,191604,2,0,B|309:327|362:315|375:284|389:250|433:233|489:276,2,224,8|2|0,1:0|1:0|0:0,0:0:0:0:
188,185,192240,2,0,L|53:221,1,112,2|0,1:0|1:0,0:0:0:0:
190,101,192494,6,0,B|211:109|263:63|250:18|250:18|209:46|234:116|269:137,1,224,8|2,1:0|1:0,0:0:0:0:
310,232,192875,1,0,0:0:0:0:
206,296,193002,2,0,B|185:288|133:334|146:379|146:379|187:351|162:281|127:260,1,224,8|2,1:0|1:0,0:0:0:0:
136,293,193384,1,0,0:0:0:0:
40,164,193511,54,0,P|59:161|64:209,2,56,8|0|8,1:0|0:0|1:0,0:0:0:0:
40,164,193892,2,0,P|34:138|22:106,1,56,2|0,1:0|0:0,0:0:0:0:
172,20,194019,2,0,B|250:49|250:49|187:141,1,168,2|0,0:0|0:0,0:0:0:0:
113,90,194274,1,2,1:0:0:0:
129,81,194401,1,0,1:0:0:0:
291,39,194528,2,0,P|406:54|450:124,1,168,8|0,1:0|0:0,0:0:0:0:
451,202,194782,5,2,1:0:0:0:
449,180,194909,1,0,0:0:0:0:
433,337,195036,2,0,P|439:288|428:223,1,112,8|0,1:0|0:0,0:0:0:0:
268,170,195290,1,2,1:0:0:0:
352,124,195418,1,0,0:0:0:0:
293,292,195545,6,0,B|283:268|283:268|219:272,3,56,8|0|0|0,1:0|0:0|1:0|1:0,0:0:0:0:
208,276,195799,1,8,1:0:0:0:
52,153,195926,2,0,B|-6:106|-6:106|183:80,1,224,0|0,1:0|1:0,0:0:0:0:
218,20,196307,1,8,1:0:0:0:
218,20,196435,1,0,1:0:0:0:
158,102,196562,22,0,B|153:135|153:135|152:137|152:137|144:180,1,56,12|0,1:0|0:0,0:0:0:0:
124,347,196689,2,0,B|85:371|85:371|103:249,1,168,0|0,0:0|0:0,0:0:0:0:
319,312,196943,6,0,B|324:278|324:278|325:276|325:276|332:233,1,56,12|0,1:0|0:0,0:0:0:0:
353,67,197070,2,0,B|392:43|392:43|374:165,1,168,0|0,0:0|0:0,0:0:0:0:
148,157,197324,6,0,B|146:137|146:137|147:135|147:135|143:102,1,56,12|0,1:0|0:0,0:0:0:0:
328,256,197452,2,0,B|330:277|330:277|330:279|330:279|333:312,1,56,0|0,0:0|0:0,0:0:0:0:
56,172,199630,5,2,0:0:0:0:
181,129,200138,1,2,0:0:0:0:
312,229,200646,1,2,0:0:0:0:
472,102,201155,5,0,0:0:0:0:
356,52,201663,1,2,0:0:0:0:
265,118,202172,1,2,0:0:0:0:
24,36,202680,6,0,B|68:24|88:64|136:60,1,112,4|2,0:0|0:0,0:0:0:0:
216,96,203443,2,0,P|224:72|232:36,2,56,0|2|0,0:0|0:0|0:0,0:0:0:0:
144,160,204206,6,0,L|88:184,1,56
156,252,204714,2,0,L|216:276,1,56,2|0,0:0|0:0,0:0:0:0:
128,328,205223,2,0,L|76:352,1,56,2|0,0:0|0:0,0:0:0:0:
240,208,205731,54,0,P|276:200|356:200,2,112,0|2|2,0:0|0:0|0:0,0:0:0:0:
240,208,207257,2,0,P|216:184|188:56,1,168
196,44,208274,1,2,0:0:0:0:
188,32,208528,1,2,0:0:0:0:
272,116,208782,6,0,B|320:124|332:88|388:100,1,112,4|2,0:0|0:0,0:0:0:0:
452,164,209545,2,0,P|464:184|468:220,2,56,0|2|0,0:0|0:0|0:0,0:0:0:0:
460,68,210307,6,0,P|472:52|480:16,1,56
380,98,210816,2,0,P|356:140|340:212,2,112,2|2|0,0:0|0:0|0:0,0:0:0:0:
300,40,212341,1,2,0:0:0:0:
216,108,212850,1,2,0:0:0:0:
128,40,213358,2,0,P|96:32|64:32,1,56
256,192,213867,5,2,0:0:0:0:
48,336,214884,2,0,P|80:320|156:304,1,112,4|2,0:0|0:0,0:0:0:0:
248,324,215646,1,0,0:0:0:0:
328,276,215901,1,2,0:0:0:0:
424,292,216155,1,0,0:0:0:0:
472,212,216409,54,0,P|456:176|456:100,2,112,0|2|2,0:0|0:0|0:0,0:0:0:0:
284,28,217935,2,0,P|300:64|300:140,2,112,0|2|2,0:0|0:0|0:0,0:0:0:0:
92,40,219460,6,0,L|76:28,16,14,0|0|0|0|0|0|0|0|2|0|0|0|0|0|0|0|2,0:0|0:0|0:0|0:0|0:0|0:0|0:0|0:0|0:0|0:0|0:0|0:0|0:0|0:0|0:0|0:0|0:0,0:0:0:0:
116,64,220541,2,0,P|108:108|104:152,1,84
40,300,220985,6,0,B|24:264|60:224|124:228|136:280|148:332|188:360|232:332,1,251.999992309571,4|0,0:0|0:0,0:0:0:0:
296,260,222001,2,0,P|308:232|308:176,2,83.9999974365235,2|0|0,0:0|0:0|0:0,0:0:0:0:
204,64,223018,6,0,P|220:36|272:36,1,83.9999974365235,2|0,0:0|0:0,0:0:0:0:
372,60,223527,2,0,P|408:80|408:124,1,83.9999974365235,2|0,0:0|0:0,0:0:0:0:
320,184,224035,2,0,L|240:152,1,83.9999974365235
304,188,224544,2,0,L|224:156,1,83.9999974365235,2|0,0:0|0:0,0:0:0:0:
72,224,225052,54,0,P|100:197|148:53,1,167.999994873047,4|2,0:0|0:0,0:0:0:0:
152,64,226069,1,0,0:0:0:0:
140,64,226578,1,2,0:0:0:0:
252,252,227086,5,0,0:0:0:0:
252,252,227595,1,2,0:0:0:0:
256,236,228103,1,0,0:0:0:0:
408,40,228612,6,0,P|416:48|420:64,7,20.9999993591309,2|0|0|0|0|0|0|0,0:0|0:0|0:0|0:0|0:0|0:0|0:0|0:0,0:0:0:0:
384,24,229120,5,4,0:0:0:0:
384,24,230900,1,0,0:0:0:0:
288,120,231154,2,0,P|268:168|252:236,1,105.000004005432,2|0,0:0|0:0,0:0:0:0:
340,300,231662,2,0,B|260:268|240:320|224:372|140:356,2,210.000008010865
496,164,233188,54,0,P|504:128|476:64,1,105.000004005432,2|0,0:0|0:0,0:0:0:0:
344,56,233696,2,0,L|216:44,1,105.000004005432
104,36,234205,2,0,P|80:81|86:133,1,105.000004005432
244,208,234713,1,0,0:0:0:0:
88,372,235222,6,0,P|76:320|164:192,2,210.000008010865,2|0|0,0:0|0:0|0:0,0:0:0:0:
88,372,236747,1,0,0:0:0:0:
200,296,236997,1,0,0:0:0:0:
332,332,237247,6,0,P|356:304|336:224,1,105.000004005432,2|0,0:0|0:0,0:0:0:0:
252,144,237755,1,0,0:0:0:0:
428,40,238263,2,0,P|468:84|480:240,1,210.000008010865
84,344,239280,6,0,P|44:300|32:144,2,210.000008010865,2|0|0,0:0|0:0|0:0,0:0:0:0:
180,280,240806,1,0,0:0:0:0:
488,376,241341,54,0,B|396:400|388:272|284:328,1,210.000008010865,2|0,0:0|0:0,0:0:0:0:
64,360,242388,5,0,0:0:0:0:
36,216,242801,1,0,0:0:0:0:
52,204,243190,1,0,0:0:0:0:
76,192,243578,2,0,P|124:184|180:176,1,105.000004005432,2|0,0:0|0:0,0:0:0:0:
208,188,243940,1,0,0:0:0:0:
256,192,244061,12,12,248416,1:0:0:0:
