osu file format v14

[General]
AudioFilename: audio.mp3
AudioLeadIn: 0
PreviewTime: 131985
Countdown: 0
SampleSet: Soft
StackLeniency: 0.2
Mode: 0
LetterboxInBreaks: 0
WidescreenStoryboard: 1

[Editor]
DistanceSpacing: 2
BeatDivisor: 4
GridSize: 8
TimelineZoom: 2.900004

[Metadata]
Title:Mr.Perfect Pain
TitleUnicode:Mr.Perfect Pain
Artist:yucat
ArtistUnicode:yucat
Creator:Beren
Version:Dark
Source:MIND≒0
Tags:加藤有加利 Natteke desu EvilElvis Jounzan ChronoSP arronchu1207 vivicat blove dorlya kanor PARALLEL WORLD 〜終ワリノ始マリ〜 - EP ED Ending japanese rock pop
BeatmapID:2797361
BeatmapSetID:1351191

[Difficulty]
HPDrainRate:5
CircleSize:4
OverallDifficulty:9.2
ApproachRate:9.7
SliderMultiplier:3.2
SliderTickRate:1

[Events]
//Background and Video events
0,0,"85583067_p0.jpg",0,0
//Break Periods
2,98118,100459
//Storyboard Layer 0 (Background)
//Storyboard Layer 1 (Fail)
//Storyboard Layer 2 (Pass)
//Storyboard Layer 3 (Foreground)
//Storyboard Layer 4 (Overlay)
//Storyboard Sound Samples

[TimingPoints]
291,508.474576271186,4,2,1,80,1,0
15540,-200,4,2,1,80,0,0
15921,-125,4,2,1,80,0,0
16302,-66.6666666666667,4,2,1,80,0,0
16557,-133.333333333333,4,2,1,80,0,0
17574,-100,4,2,1,80,0,0
18591,-133.333333333333,4,2,1,80,0,0
19608,-100,4,2,1,80,0,0
20624,-133.333333333333,4,2,1,80,0,0
21641,-100,4,2,1,80,0,0
22658,-133.333333333333,4,2,1,80,0,0
23675,-200,4,2,1,80,0,0
24057,-125,4,2,1,80,0,0
24438,-66.6666666666667,4,2,1,80,0,0
24692,-133.333333333333,4,2,1,80,0,0
25709,-100,4,2,1,80,0,0
26726,-133.333333333333,4,2,1,80,0,0
27743,-100,4,2,1,80,0,0
28760,-133.333333333333,4,2,1,80,0,0
29777,-100,4,2,1,80,0,0
30794,-133.333333333333,4,2,1,80,0,0
31811,-200,4,2,1,80,0,0
32192,-125,4,2,1,80,0,0
32574,-66.6666666666667,4,2,1,80,0,0
32829,-133.333333333333,4,2,1,50,0,0
64290,-133.333333333333,4,2,1,5,0,0
64355,-200,4,2,1,80,0,0
64736,-125,4,2,1,80,0,0
65118,-66.6666666666667,4,2,1,80,0,0
65372,-100,4,2,1,80,0,0
68423,-200,4,2,1,80,0,0
68931,-100,4,2,1,80,0,0
72491,-200,4,2,1,80,0,0
72872,-125,4,2,1,80,0,0
73253,-66.6666666666667,4,2,1,80,0,0
73508,-100,4,2,1,80,0,0
76559,-200,4,2,1,80,0,0
77067,-100,4,2,1,80,0,0
80627,-200,4,2,1,80,0,0
81008,-125,4,2,1,80,0,0
81389,-66.6666666666667,4,2,1,80,0,0
81644,-133.333333333333,4,2,1,80,0,0
82660,-100,4,2,1,80,0,0
83677,-133.333333333333,4,2,1,80,0,0
84694,-100,4,2,1,80,0,0
85711,-133.333333333333,4,2,1,80,0,0
86728,-100,4,2,1,80,0,0
87745,-133.333333333333,4,2,1,80,0,0
88762,-200,4,2,1,80,0,0
89144,-125,4,2,1,80,0,0
89525,-66.6666666666667,4,2,1,80,0,0
89779,-133.333333333333,4,2,1,80,0,0
90796,-100,4,2,1,80,0,0
91813,-133.333333333333,4,2,1,80,0,0
92830,-100,4,2,1,80,0,0
93847,-133.333333333333,4,2,1,80,0,0
94862,-100,4,2,1,80,0,0
95881,-133.333333333333,4,2,1,80,0,0
96898,-200,4,2,1,80,0,0
97279,-125,4,2,1,80,0,0
97661,-66.6666666666667,4,2,1,80,0,0
100966,-200,4,2,1,80,0,0
101347,-125,4,2,1,80,0,0
101729,-66.6666666666667,4,2,1,80,0,0
101983,-133.333333333333,4,2,1,65,0,0
103763,-100,4,2,1,65,0,0
104020,-133.333333333333,4,2,1,65,0,0
114190,-133.333333333333,4,2,1,80,0,0
122326,-133.333333333333,4,1,1,80,0,0
126454,-133.333333333333,4,1,1,5,0,0
126517,-133.333333333333,4,1,1,80,0,0
126581,-133.333333333333,4,1,1,5,0,0
126644,-133.333333333333,4,1,1,80,0,0
126708,-133.333333333333,4,1,1,5,0,0
126772,-133.333333333333,4,1,1,80,0,0
126835,-133.333333333333,4,1,1,5,0,0
126899,-133.333333333333,4,1,1,80,0,0
126962,-133.333333333333,4,1,1,5,0,0
127026,-133.333333333333,4,1,1,80,0,0
127089,-133.333333333333,4,1,1,5,0,0
127153,-133.333333333333,4,1,1,80,0,0
127216,-133.333333333333,4,1,1,5,0,0
127280,-133.333333333333,4,1,1,80,0,0
127344,-133.333333333333,4,1,1,5,0,0
127407,-133.333333333333,4,1,1,80,0,0
127471,-133.333333333333,4,1,1,5,0,0
127534,-133.333333333333,4,1,1,80,0,0
127598,-133.333333333333,4,1,1,5,0,0
127661,-133.333333333333,4,1,1,80,0,0
127725,-133.333333333333,4,1,1,5,0,0
127788,-133.333333333333,4,1,1,80,0,0
127855,-133.333333333333,4,1,1,5,0,0
127916,-133.333333333333,4,1,1,80,0,0
127979,-133.333333333333,4,1,1,5,0,0
128043,-133.333333333333,4,1,1,80,0,0
128106,-133.333333333333,4,1,1,5,0,0
128170,-133.333333333333,4,1,1,80,0,0
128233,-133.333333333333,4,1,1,5,0,0
128297,-133.333333333333,4,1,1,80,0,0
128361,-133.333333333333,4,1,1,5,0,0
128424,-133.333333333333,4,1,1,80,0,0
131984,-333.333333333333,3,2,1,65,0,0
132619,-100,3,2,1,80,0,0
135543,-200,3,2,1,80,0,0
136052,-100,3,2,1,80,0,0
139611,-200,3,2,1,80,0,0
139992,-125,3,2,1,80,0,0
140374,-66.6666666666667,3,2,1,80,0,0
140628,-100,3,2,1,80,0,0
143679,-200,3,2,1,80,0,0
144187,-100,3,2,1,80,0,0
147747,-200,3,2,1,80,0,0
148128,-125,3,2,1,80,0,0
148510,-66.6666666666667,3,2,1,80,0,0
148764,-100,3,2,1,80,0,0
151815,-200,3,2,1,80,0,0
152323,-100,3,2,1,80,0,0
155883,-200,3,2,1,80,0,0
156264,-125,3,2,1,80,0,0
156645,-66.6666666666667,3,2,1,80,0,0
156900,-100,3,2,1,80,0,0
159951,-200,3,2,1,80,0,0
160459,-100,3,2,1,80,0,0
164018,-200,3,2,1,80,0,0
164400,-125,3,2,1,80,0,0
164781,-66.6666666666667,3,2,1,80,0,0
165035,-66.6666666666667,3,1,2,80,0,0
165417,-133.333333333333,3,2,1,80,0,0
166052,-100,3,2,1,80,0,0
167069,-66.6666666666667,3,1,2,80,0,0
167451,-133.333333333333,3,2,1,80,0,0
168086,-100,3,2,1,80,0,0
169103,-66.6666666666667,3,1,2,80,0,0
169484,-133.333333333333,3,2,1,80,0,0
170120,-100,3,2,1,80,0,0
171137,-66.6666666666667,3,1,2,80,0,0
171518,-133.333333333333,3,2,1,80,0,0
172154,-200,3,2,1,80,0,0
172536,-125,3,2,1,80,0,0
172917,-66.6666666666667,3,2,1,80,0,0
173171,-66.6666666666667,3,1,2,80,0,0
173553,-133.333333333333,3,2,1,80,0,0
174188,-100,3,2,1,80,0,0
175205,-66.6666666666667,3,1,2,80,0,0
175586,-133.333333333333,3,2,1,80,0,0
176222,-100,3,2,1,80,0,0
177239,-133.333333333333,3,1,2,80,0,0
177938,-100,3,2,1,80,0,0
178256,-100,3,2,1,80,0,0
179273,-100,3,1,2,80,0,0
180289,-200,3,2,1,80,0,0
180671,-125,3,2,1,80,0,0
181053,-66.6666666666667,3,2,1,80,0,0
181816,-133.333333333333,3,2,1,80,0,0
182323,-100,3,2,1,80,0,0
183468,-66.6666666666667,3,2,1,80,0,0
183849,-133.333333333333,3,2,1,80,0,0
184358,-100,3,2,1,80,0,0
185502,-66.6666666666667,3,2,1,80,0,0
185883,-133.333333333333,3,2,1,80,0,0
186392,-100,3,2,1,80,0,0
186646,-90.9090909090909,3,2,1,80,0,0
186900,-83.3333333333333,3,2,1,80,0,0
187155,-76.9230769230769,3,2,1,80,0,0
187409,-71.4285714285714,3,2,1,80,0,0
187536,-71.4285714285714,3,1,2,50,0,0
187663,-66.6666666666667,3,2,1,80,0,0
187790,-66.6666666666667,3,1,2,50,0,0
187917,-62.5,3,2,1,80,0,0
188045,-62.5,3,1,2,50,0,0
188172,-58.8235294117647,3,2,1,80,0,0
188299,-58.8235294117647,3,1,2,50,0,0
188426,-200,3,2,1,80,0,0
188807,-125,3,2,1,80,0,0
189189,-66.6666666666667,3,2,1,80,0,0
189951,-133.333333333333,3,2,1,80,0,0
190460,-100,3,2,1,80,0,0
191604,-66.6666666666667,3,2,1,80,0,0
191985,-133.333333333333,3,2,1,80,0,0
192494,-100,3,2,1,80,0,0
193638,-66.6666666666667,3,2,1,80,0,0
194019,-133.333333333333,3,2,1,80,0,0
194528,-100,3,2,1,80,0,0
196562,-200,3,2,1,80,0,0
196943,-125,3,2,1,80,0,0
197324,-66.6666666666667,3,2,1,80,0,0
197579,512.820512820513,4,2,1,80,1,0
199566,-66.6666666666667,3,2,1,5,0,0
199630,508.474576271186,3,2,1,80,1,0
199630,-333.333333333333,3,2,1,50,0,0
220985,508.474576271186,4,2,1,50,1,0
220985,-333.333333333333,4,2,1,50,0,0
236747,500,4,2,1,50,1,0
237247,508.474576271186,4,2,1,50,1,0
237247,-333.333333333333,4,2,1,50,0,0
240806,535.714285714286,4,2,1,50,1,0
241341,512.820512820513,4,2,1,50,1,0
241341,-333.333333333333,4,2,1,50,0,0
242238,600,4,2,1,50,1,0
242538,526.315789473684,4,2,1,50,1,0
242538,-333.333333333333,4,2,1,50,0,0
242932,517.241379310345,4,2,1,50,1,0
242932,-333.333333333333,4,2,1,50,0,0
243578,483.870967741935,4,2,1,50,1,0
243578,-333.333333333333,4,2,1,50,0,0
248416,508.474576271186,4,2,1,50,1,0
248678,508.474576271186,4,2,1,80,1,0
249065,508.474576271186,4,2,1,80,1,0
249446,508.474576271186,4,2,1,80,1,0

[Colours]
Combo1 : 236,219,138
Combo2 : 163,197,169
Combo3 : 149,208,201
Combo4 : 165,172,222
Combo5 : 124,151,199
Combo6 : 218,107,107
Combo7 : 235,153,103

[HitObjects]
408,283,15545,70,0,B|365:276|365:276|330:290,1,80,12|0,1:0|0:0,0:0:0:0:
430,268,15926,6,0,B|363:257|363:257|307:280,1,128,12|0,1:0|0:0,0:0:0:0:
457,255,16307,6,0,B|362:240|362:240|284:271,1,180.000006866455,12|0,1:0|0:0,0:0:0:0:
132,322,16562,5,8,1:0:0:0:
132,322,16689,2,0,L|44:314,1,60.0000022888184,8|0,1:0|0:0,0:0:0:0:
0,143,16943,2,0,B|28:185|28:185|116:193,1,120.000004577637,2|0,1:0|0:0,0:0:0:0:
248,88,17324,2,0,L|160:80,1,60.0000022888184,0|0,1:0|0:0,0:0:0:0:
70,79,17579,6,0,L|64:0,1,80,8|0,1:0|0:0,0:0:0:0:
277,191,17833,2,0,L|283:270,1,80,2|0,1:0|0:0,0:0:0:0:
307,279,18087,2,0,L|300:199,1,80,8|0,1:0|0:0,0:0:0:0:
87,8,18341,2,0,L|94:88,1,80,0|0,1:0|0:0,0:0:0:0:
248,88,18596,5,8,1:0:0:0:
248,88,18723,2,0,L|336:96,1,60.0000022888184,8|0,1:0|0:0,0:0:0:0:
488,16,18977,2,0,B|446:44|446:44|438:132,1,120.000004577637,2|0,1:0|0:0,0:0:0:0:
457,255,19358,2,0,L|449:343,1,60.0000022888184,0|0,1:0|0:0,0:0:0:0:
300,199,19613,6,0,L|380:192,1,80,8|0,1:0|0:0,0:0:0:0:
132,322,19867,2,0,L|52:329,1,80,0|0,1:0|0:0,0:0:0:0:
48,352,20121,2,0,L|128:345,1,80,8|0,1:0|0:0,0:0:0:0:
295,222,20375,2,0,L|375:215,1,80,0|0,1:0|0:0,0:0:0:0:
97,192,20629,53,8,1:0:0:0:
97,192,20757,2,0,L|102:132,1,60.0000022888184,8|0,1:0|0:0,0:0:0:0:
266,63,21011,2,0,B|277:90|277:90|187:82,1,120.000004577637,2|0,1:0|0:0,0:0:0:0:
8,24,21392,2,0,L|3:84,1,60.0000022888184,0|0,1:0|0:0,0:0:0:0:
200,208,21646,6,0,L|207:288,1,80,8|0,1:0|0:0,0:0:0:0:
457,255,21901,2,0,L|450:335,1,80,0|0,1:0|0:0,0:0:0:0:
176,216,22155,2,0,L|183:296,1,80,8|0,1:0|0:0,0:0:0:0:
433,263,22409,2,0,L|426:343,1,80,0|0,1:0|0:0,0:0:0:0:
320,160,22663,5,8,1:0:0:0:
320,160,22790,2,0,L|320:88,1,60.0000022888184,8|0,1:0|0:0,0:0:0:0:
488,16,23045,2,0,B|504:40|504:40|413:48,1,120.000004577637,2|0,1:0|0:0,0:0:0:0:
256,16,23426,2,0,L|196:21,1,60.0000022888184,0|0,1:0|0:0,0:0:0:0:
96,209,23680,22,0,L|191:217,1,80,12|0,1:0|0:0,0:0:0:0:
73,192,24062,6,0,L|200:201,1,128,12|0,1:0|0:0,0:0:0:0:
50,172,24443,6,0,L|249:189,1,180.000006866455,12|0,1:0|0:0,0:0:0:0:
433,263,24697,5,8,1:0:0:0:
433,263,24824,2,0,L|512:256,1,60.0000022888184,8|0,1:0|0:0,0:0:0:0:
344,368,25079,2,0,B|305:348|305:348|313:260,1,120.000004577637,2|0,1:0|0:0,0:0:0:0:
408,108,25460,2,0,L|414:28,1,60.0000022888184,0|0,1:0|0:0,0:0:0:0:
274,87,25714,6,0,L|194:94,1,80,8|0,1:0|0:0,0:0:0:0:
147,337,25968,2,0,L|227:344,1,80,0|0,1:0|0:0,0:0:0:0:
266,63,26223,2,0,L|186:70,1,80,8|0,1:0|0:0,0:0:0:0:
139,313,26477,2,0,L|219:320,1,80,0|0,1:0|0:0,0:0:0:0:
73,192,26731,5,8,1:0:0:0:
73,192,26858,2,0,L|-7:192,1,60.0000022888184,8|0,1:0|0:0,0:0:0:0:
186,69,27113,2,0,B|225:89|225:89|217:177,1,120.000004577637,2|0,1:0|0:0,0:0:0:0:
139,313,27494,2,0,L|134:372,1,60.0000022888184,0|0,1:0|0:0,0:0:0:0:
263,319,27748,6,0,L|256:239,1,80,8|0,1:0|0:0,0:0:0:0:
13,192,28002,2,0,L|6:272,1,80,0|0,1:0|0:0,0:0:0:0:
287,311,28257,2,0,L|280:231,1,80,8|0,1:0|0:0,0:0:0:0:
37,184,28511,2,0,L|30:264,1,80,0|0,1:0|0:0,0:0:0:0:
160,136,28765,53,8,1:0:0:0:
160,136,28892,2,0,L|223:130,1,60.0000022888184,8|0,1:0|0:0,0:0:0:0:
412,48,29146,2,0,B|392:9|392:9|304:17,1,120.000004577637,2|0,1:0|0:0,0:0:0:0:
432,184,29528,2,0,L|495:178,1,60.0000022888184,0|0,1:0|0:0,0:0:0:0:
304,223,29782,6,0,L|297:303,1,80,8|0,1:0|0:0,0:0:0:0:
54,255,30036,2,0,L|61:335,1,80,0|0,1:0|0:0,0:0:0:0:
280,231,30290,2,0,L|273:311,1,80,8|0,1:0|0:0,0:0:0:0:
30,263,30545,2,0,L|37:343,1,80,0|0,1:0|0:0,0:0:0:0:
160,136,30799,5,8,1:0:0:0:
160,136,30926,2,0,L|160:72,1,60.0000022888184,8|0,1:0|0:0,0:0:0:0:
412,48,31180,2,0,B|451:68|451:68|443:156,1,120.000004577637,2|0,1:0|0:0,0:0:0:0:
273,310,31562,2,0,L|273:246,1,60.0000022888184,0|0,1:0|0:0,0:0:0:0:
160,76,31816,22,0,P|143:50|141:80,1,80,12|0,1:0|0:0,0:0:0:0:
168,83,32197,6,0,P|140:39|136:90,1,128,12|0,1:0|0:0,0:0:0:0:
175,85,32579,6,0,P|137:26|131:95,1,180.000006866455,12|0,1:0|0:0,0:0:0:0:
324,154,32833,5,8,1:0:0:0:
324,154,32960,2,0,B|451:142,1,120.000004577637,8|2,1:0|1:0,0:0:0:0:
504,32,33341,2,0,B|491:4|491:4|483:35,1,60.0000022888184,2|0,0:0|0:0,0:0:0:0:
448,256,33596,2,0,B|472:312|472:312|488:248,1,120.000004577637,2|8,1:0|1:0,0:0:0:0:
443,142,34231,5,2,1:0:0:0:
264,52,34358,1,2,0:0:0:0:
273,250,34485,1,0,0:0:0:0:
324,154,34613,1,2,1:0:0:0:
264,52,34740,1,0,0:0:0:0:
125,78,34867,5,8,1:0:0:0:
125,78,34994,2,0,P|73:51|17:69,1,120.000004577637,8|2,1:0|1:0,0:0:0:0:
60,191,35375,2,0,L|65:250,1,60.0000022888184,2|0,0:0|0:0,0:0:0:0:
278,366,35629,2,0,B|281:322|281:322|267:296|267:296|272:249,1,120.000004577637,2|8,1:0|1:0,0:0:0:0:
327,144,36265,5,2,1:0:0:0:
383,280,36392,1,2,0:0:0:0:
167,304,36519,1,0,0:0:0:0:
183,168,36646,1,2,1:0:0:0:
271,249,36774,1,0,0:0:0:0:
277,366,36901,53,8,1:0:0:0:
277,366,37028,2,0,P|332:348|384:375,1,120.000004577637,8|2,1:0|1:0,0:0:0:0:
486,254,37409,2,0,L|491:195,1,60.0000022888184,2|0,0:0|0:0,0:0:0:0:
338,90,37663,2,0,B|319:59|319:59|329:171,1,120.000004577637,2|8,1:0|1:0,0:0:0:0:
392,260,38299,5,2,1:0:0:0:
271,249,38426,1,2,0:0:0:0:
248,136,38553,1,0,0:0:0:0:
417,148,38680,1,2,1:0:0:0:
441,36,38807,1,0,0:0:0:0:
224,24,38935,5,8,1:0:0:0:
224,24,39062,2,0,B|177:19|177:19|151:33|151:33|107:30,1,120.000004577637,8|2,1:0|1:0,0:0:0:0:
16,128,39443,2,0,L|11:187,1,60.0000022888184,2|0,0:0|0:0,0:0:0:0:
167,304,39697,1,2,1:0:0:0:
181,323,39952,6,0,P|199:268|172:216,1,120.000004577637,8|0,1:0|0:0,0:0:0:0:
107,30,40333,1,2,1:0:0:0:
172,216,40460,1,2,0:0:0:0:
303,62,40587,1,0,0:0:0:0:
193,109,40714,1,2,1:0:0:0:
172,216,40841,1,0,0:0:0:0:
288,336,40968,53,12,1:0:0:0:
288,336,41096,2,0,B|415:348,1,120.000004577637,8|2,1:0|1:0,0:0:0:0:
504,256,41477,2,0,P|517:230|508:202,1,60.0000022888184,2|0,0:0|0:0,0:0:0:0:
320,80,41731,1,2,1:0:0:0:
303,62,41985,6,0,P|275:113|293:169,1,120.000004577637,8|0,1:0|0:0,0:0:0:0:
347,263,42367,1,2,1:0:0:0:
397,146,42494,1,2,0:0:0:0:
194,126,42621,1,0,0:0:0:0:
220,248,42748,1,2,1:0:0:0:
292,168,42875,1,0,0:0:0:0:
303,62,43002,5,8,1:0:0:0:
303,62,43129,2,0,B|255:58|255:58|232:40|232:40|188:35,1,120.000004577637,8|2,1:0|1:0,0:0:0:0:
24,112,43511,2,0,L|83:117,1,60.0000022888184,2|0,0:0|0:0,0:0:0:0:
167,304,43765,1,2,1:0:0:0:
181,323,44019,6,0,P|199:268|172:216,1,120.000004577637,8|0,1:0|0:0,0:0:0:0:
83,117,44401,1,2,1:0:0:0:
202,95,44528,1,2,0:0:0:0:
253,199,44655,1,0,0:0:0:0:
87,230,44782,1,2,1:0:0:0:
93,345,44909,1,0,0:0:0:0:
305,301,45036,53,8,1:0:0:0:
305,301,45163,2,0,P|352:304|320:264,1,120.000004577637,8|2,1:0|1:0,0:0:0:0:
297,121,45545,2,0,L|302:62,1,60.0000022888184,2|0,0:0|0:0,0:0:0:0:
504,32,45799,2,0,B|462:44|462:44|454:132,1,120.000004577637,2|8,1:0|1:0,0:0:0:0:
504,256,46307,6,0,L|455:255,1,30.0000011444092,0|0,1:0|0:0,0:0:0:0:
507,302,46435,2,0,L|459:310,1,30.0000011444092,2|0,1:0|0:0,0:0:0:0:
432,256,46562,2,0,L|383:255,1,30.0000011444092,2|0,0:0|0:0,0:0:0:0:
432,320,46689,2,0,L|384:328,1,30.0000011444092,2|0,1:0|0:0,0:0:0:0:
368,256,46816,2,0,L|319:255,1,30.0000011444092,2|0,1:0|0:0,0:0:0:0:
368,336,46943,2,0,L|320:344,1,30.0000011444092
243,306,47070,5,8,1:0:0:0:
243,306,47197,2,0,P|225:251|252:199,1,120.000004577637,8|2,1:0|1:0,0:0:0:0:
302,61,47579,1,2,0:0:0:0:
338,255,47706,1,0,0:0:0:0:
512,114,47833,2,0,L|453:119,1,60.0000022888184,2|0,1:0|0:0,0:0:0:0:
206,28,48087,6,0,B|225:67|225:67|313:59,1,120.000004577637,8|0,1:0|0:0,0:0:0:0:
452,119,48468,1,2,1:0:0:0:
408,8,48596,1,2,0:0:0:0:
319,169,48723,1,2,1:0:0:0:
363,280,48850,2,0,L|358:339,1,60.0000022888184,2|0,1:0|0:0,0:0:0:0:
152,340,49104,53,12,1:0:0:0:
152,340,49231,2,0,L|93:345,1,60.0000022888184,8|0,1:0|0:0,0:0:0:0:
0,336,49485,1,2,1:0:0:0:
202,249,49613,2,0,P|248:284|255:341,1,120.000004577637,2|2,0:0|1:0,0:0:0:0:
357,339,49994,1,0,0:0:0:0:
512,232,50121,6,0,L|392:242,1,120.000004577637,8|0,1:0|0:0,0:0:0:0:
312,168,50502,1,2,1:0:0:0:
357,339,50629,1,2,0:0:0:0:
512,232,50757,1,2,1:0:0:0:
392,242,50884,1,2,1:0:0:0:
493,331,51011,1,0,0:0:0:0:
448,160,51138,5,8,1:0:0:0:
448,160,51265,2,0,L|455:72,1,60.0000022888184,8|0,1:0|0:0,0:0:0:0:
394,7,51519,1,2,1:0:0:0:
302,60,51646,2,0,P|284:115|311:167,1,120.000004577637,2|2,0:0|1:0,0:0:0:0:
392,242,52028,1,0,0:0:0:0:
191,355,52155,6,0,P|174:300|201:248,1,120.000004577637,8|0,1:0|0:0,0:0:0:0:
311,167,52536,1,2,1:0:0:0:
288,312,52663,1,2,0:0:0:0:
311,167,52790,1,2,1:0:0:0:
453,100,52918,1,2,1:0:0:0:
311,167,53045,1,0,0:0:0:0:
192,64,53172,53,8,1:0:0:0:
192,64,53299,2,0,L|184:-23,1,60.0000022888184,8|0,1:0|0:0,0:0:0:0:
302,60,53553,1,2,1:0:0:0:
208,232,53680,2,0,B|160:228|160:228|137:210|137:210|93:205,1,120.000004577637,2|2,0:0|1:0,0:0:0:0:
48,304,54062,1,0,0:0:0:0:
320,274,54189,6,0,P|337:218|310:166,1,120.000004577637,8|0,1:0|0:0,0:0:0:0:
241,83,54570,1,2,1:0:0:0:
212,206,54697,1,2,0:0:0:0:
415,192,54824,1,2,1:0:0:0:
370,74,54952,1,2,1:0:0:0:
241,83,55079,1,0,0:0:0:0:
320,274,55206,5,8,1:0:0:0:
320,274,55333,2,0,L|314:333,1,60.0000022888184,8|0,1:0|0:0,0:0:0:0:
191,355,55587,1,2,1:0:0:0:
424,299,55714,2,0,P|441:243|414:191,1,120.000004577637,2|2,0:0|1:0,0:0:0:0:
496,88,56096,1,0,0:0:0:0:
256,47,56223,6,0,B|298:51|298:51|321:69|321:69|369:73,1,120.000004577637,8|0,1:0|0:0,0:0:0:0:
496,88,56604,2,0,L|490:29,2,60.0000022888184,2|2|2,1:0|0:0|1:0,0:0:0:0:
414,191,56985,1,2,1:0:0:0:
489,28,57113,1,0,0:0:0:0:
256,47,57240,53,12,1:0:0:0:
256,47,57367,2,0,L|250:106,1,60.0000022888184,8|0,1:0|0:0,0:0:0:0:
212,206,57621,1,2,1:0:0:0:
12,280,57748,2,0,P|-15:228|2:172,1,120.000004577637,2|2,0:0|1:0,0:0:0:0:
48,80,58129,1,0,0:0:0:0:
212,206,58257,6,0,L|92:216,1,120.000004577637,8|0,1:0|0:0,0:0:0:0:
12,280,58638,1,2,1:0:0:0:
240,360,58765,2,0,L|246:301,1,60.0000022888184,2|2,0:0|1:0,0:0:0:0:
212,206,59019,1,2,1:0:0:0:
249,106,59146,1,0,0:0:0:0:
414,191,59274,5,8,1:0:0:0:
414,191,59401,2,0,L|355:197,1,60.0000022888184,8|0,1:0|0:0,0:0:0:0:
212,206,59655,1,2,1:0:0:0:
388,77,59782,2,0,P|444:60|495:87,1,120.000004577637,2|2,0:0|1:0,0:0:0:0:
512,184,60163,1,0,0:0:0:0:
354,309,60290,6,0,P|297:325|245:299,1,120.000004577637,8|0,1:0|0:0,0:0:0:0:
212,206,60672,1,2,1:0:0:0:
262,106,60799,2,0,L|256:47,1,60.0000022888184,2|2,0:0|1:0,0:0:0:0:
388,77,61053,1,2,1:0:0:0:
354,197,61180,1,0,0:0:0:0:
152,96,61307,53,8,1:0:0:0:
152,96,61435,2,0,L|93:90,1,60.0000022888184,8|0,1:0|0:0,0:0:0:0:
0,0,61689,1,2,1:0:0:0:
40,200,61816,2,0,B|84:207|84:207|92:296,1,120.000004577637,2|2,0:0|1:0,0:0:0:0:
0,352,62197,1,0,0:0:0:0:
192,328,62324,6,0,B|234:324|234:324|257:306|257:306|305:302,1,120.000004577637,8|0,1:0|0:0,0:0:0:0:
384,376,62706,1,2,1:0:0:0:
512,184,62833,2,0,L|453:190,2,60.0000022888184,2|2|2,0:0|1:0|1:0,0:0:0:0:
262,106,63214,2,0,L|203:112,1,60.0000022888184,0|0,0:0|1:0,0:0:0:0:
256,192,63405,12,0,64295,0:0:0:0:
24,56,64358,38,0,B|63:59|63:59|58:115,1,80,12|0,1:0|0:0,0:0:0:0:
200,112,64740,6,0,B|195:173|195:173|130:168,1,128,12|0,1:0|0:0,0:0:0:0:
264,32,65121,6,0,B|355:40|355:40|347:135,1,180.000006866455,12|0,1:0|0:0,0:0:0:0:
408,232,65375,5,8,1:0:0:0:
408,232,65502,2,0,L|487:239,1,80,8|0,1:0|0:0,0:0:0:0:
512,136,65757,1,2,1:0:0:0:
288,232,65884,2,0,P|245:295|279:363,1,160,2|2,0:0|1:0,0:0:0:0:
392,384,66265,1,0,0:0:0:0:
144,288,66392,6,0,L|8:300,1,120,8|0,1:0|0:0,0:0:0:0:
0,288,66646,1,0,0:0:0:0:
72,192,66774,1,2,1:0:0:0:
144,288,66901,1,2,0:0:0:0:
72,384,67028,1,2,1:0:0:0:
0,288,67155,1,2,1:0:0:0:
216,384,67282,1,0,0:0:0:0:
216,192,67409,5,8,1:0:0:0:
216,192,67536,2,0,L|223:113,1,80,8|0,1:0|0:0,0:0:0:0:
320,40,67790,1,2,1:0:0:0:
512,136,67918,2,0,P|449:179|381:145,1,160,2|2,0:0|1:0,0:0:0:0:
320,40,68299,1,0,0:0:0:0:
72,192,68426,6,0,L|78:271,1,80,8|0,1:0|0:0,0:0:0:0:
288,288,68935,1,2,0:0:0:0:
360,192,69062,1,2,1:0:0:0:
192,216,69189,1,0,0:0:0:0:
216,384,69316,1,2,1:0:0:0:
384,360,69443,53,8,1:0:0:0:
384,360,69570,2,0,L|463:366,1,80,8|0,1:0|0:0,0:0:0:0:
488,232,69824,1,2,1:0:0:0:
371,36,69952,2,0,B|375:91|375:91|355:133|355:133|361:205,1,160,2|2,0:0|1:0,0:0:0:0:
488,232,70333,1,0,0:0:0:0:
256,64,70460,6,0,P|201:47|149:75,1,120,8|0,1:0|0:0,0:0:0:0:
128,96,70714,1,0,0:0:0:0:
114,216,70841,1,2,1:0:0:0:
0,264,70968,1,2,0:0:0:0:
128,96,71096,1,2,1:0:0:0:
210,288,71223,1,2,1:0:0:0:
128,96,71350,1,0,0:0:0:0:
210,288,71477,5,8,1:0:0:0:
210,288,71604,2,0,L|203:367,1,80,8|0,1:0|0:0,0:0:0:0:
114,216,71858,1,0,1:0:0:0:
380,127,71985,2,0,P|448:92|511:135,1,160,2|2,0:0|1:0,0:0:0:0:
440,256,72367,1,0,0:0:0:0:
256,64,72494,22,0,B|254:41|232:33|232:33|213:45|214:65,1,80,12|0,1:0|0:0,0:0:0:0:
210,288,72875,6,0,B|240:303|270:280|270:280|269:243|239:229,1,128,12|0,1:0|0:0,0:0:0:0:
26,95,73257,6,0,B|-10:120|-2:173|-2:173|44:199|84:171,1,180.000006866455,12|0,1:0|0:0,0:0:0:0:
213,64,73511,5,8,1:0:0:0:
213,64,73638,2,0,L|292:70,1,80,8|0,1:0|0:0,0:0:0:0:
507,28,73892,1,2,1:0:0:0:
504,256,74019,2,0,B|418:266|435:204|349:214,1,160,2|2,0:0|1:0,0:0:0:0:
239,229,74401,1,0,0:0:0:0:
496,136,74528,6,0,P|524:84|507:28,1,120,8|0,1:0|0:0,0:0:0:0:
504,0,74782,1,0,0:0:0:0:
392,24,74909,1,2,1:0:0:0:
348,133,75036,2,0,L|354:212,1,80,2|2,0:0|1:0,0:0:0:0:
320,384,75290,1,2,1:0:0:0:
456,272,75418,1,0,0:0:0:0:
239,229,75545,5,8,1:0:0:0:
239,229,75672,2,0,L|159:222,1,80,8|0,1:0|0:0,0:0:0:0:
88,112,75926,1,2,1:0:0:0:
0,304,76053,2,0,P|8:360|72:312,1,160,2|2,0:0|1:0,0:0:0:0:
159,222,76435,1,0,0:0:0:0:
98,36,76562,6,0,P|82:72|87:111,1,80,8|0,1:0|0:0,0:0:0:0:
392,24,77070,1,2,1:0:0:0:
348,133,77197,1,2,0:0:0:0:
216,144,77324,1,2,1:0:0:0:
264,32,77452,1,0,0:0:0:0:
480,120,77579,53,8,1:0:0:0:
480,120,77706,2,0,P|496:156|491:195,1,80,8|0,1:0|0:0,0:0:0:0:
480,320,77960,1,2,1:0:0:0:
224,272,78087,2,0,B|271:276|271:276|330:249|330:249|378:253,1,160,2|2,0:0|1:0,0:0:0:0:
480,320,78468,1,0,0:0:0:0:
253,163,78596,6,0,P|236:106|264:55,1,120,8|0,1:0|0:0,0:0:0:0:
264,32,78850,1,0,0:0:0:0:
376,120,78977,1,2,1:0:0:0:
136,96,79104,2,0,L|41:104,1,80,2|2,0:0|1:0,0:0:0:0:
0,0,79358,1,2,1:0:0:0:
40,224,79485,1,0,0:0:0:0:
253,163,79613,5,8,1:0:0:0:
253,163,79740,2,0,L|341:155,1,80,8|0,1:0|0:0,0:0:0:0:
512,144,79994,1,2,1:0:0:0:
480,320,80121,2,0,P|416:362|349:327,1,160,2|2,0:0|1:0,0:0:0:0:
248,376,80502,1,0,0:0:0:0:
104,283,80629,22,0,B|147:276|147:276|182:290,1,80,12|0,1:0|0:0,0:0:0:0:
82,268,81011,6,0,B|149:257|149:257|205:280,1,128,12|0,1:0|0:0,0:0:0:0:
55,255,81392,6,0,B|150:240|150:240|228:271,1,180.000006866455,12|0,1:0|0:0,0:0:0:0:
380,322,81646,5,8,1:0:0:0:
380,322,81774,2,0,L|468:314,1,60.0000022888184,8|0,1:0|0:0,0:0:0:0:
512,143,82028,2,0,B|484:185|484:185|396:193,1,120.000004577637,2|0,1:0|0:0,0:0:0:0:
264,88,82409,2,0,L|352:80,1,60.0000022888184,0|0,1:0|0:0,0:0:0:0:
442,79,82663,6,0,L|448:0,1,80,8|0,1:0|0:0,0:0:0:0:
235,191,82918,2,0,L|229:270,1,80,2|0,1:0|0:0,0:0:0:0:
205,279,83172,2,0,L|212:199,1,80,8|0,1:0|0:0,0:0:0:0:
425,8,83426,2,0,L|418:88,1,80,0|0,1:0|0:0,0:0:0:0:
264,88,83680,5,8,1:0:0:0:
264,88,83807,2,0,L|176:96,1,60.0000022888184,8|0,1:0|0:0,0:0:0:0:
24,16,84062,2,0,B|66:44|66:44|74:132,1,120.000004577637,2|0,1:0|0:0,0:0:0:0:
55,255,84443,2,0,L|63:343,1,60.0000022888184,0|0,1:0|0:0,0:0:0:0:
212,199,84697,6,0,L|132:192,1,80,8|0,1:0|0:0,0:0:0:0:
380,322,84952,2,0,L|460:329,1,80,0|0,1:0|0:0,0:0:0:0:
464,352,85206,2,0,L|384:345,1,80,8|0,1:0|0:0,0:0:0:0:
217,222,85460,2,0,L|137:215,1,80,0|0,1:0|0:0,0:0:0:0:
415,192,85714,53,8,1:0:0:0:
415,192,85841,2,0,L|410:132,1,60.0000022888184,8|0,1:0|0:0,0:0:0:0:
246,63,86096,2,0,B|235:90|235:90|325:82,1,120.000004577637,2|0,1:0|0:0,0:0:0:0:
504,24,86477,2,0,L|509:84,1,60.0000022888184,0|0,1:0|0:0,0:0:0:0:
312,208,86731,6,0,L|305:288,1,80,8|0,1:0|0:0,0:0:0:0:
55,255,86985,2,0,L|62:335,1,80,0|0,1:0|0:0,0:0:0:0:
336,216,87240,2,0,L|329:296,1,80,8|0,1:0|0:0,0:0:0:0:
79,263,87494,2,0,L|86:343,1,80,0|0,1:0|0:0,0:0:0:0:
192,160,87748,5,8,1:0:0:0:
192,160,87875,2,0,L|192:88,1,60.0000022888184,8|0,1:0|0:0,0:0:0:0:
24,16,88129,2,0,B|8:40|8:40|99:48,1,120.000004577637,2|0,1:0|0:0,0:0:0:0:
256,16,88511,2,0,L|316:21,1,60.0000022888184,0|0,1:0|0:0,0:0:0:0:
416,209,88765,22,0,L|321:217,1,80,12|0,1:0|0:0,0:0:0:0:
439,192,89146,6,0,L|312:201,1,128,12|0,1:0|0:0,0:0:0:0:
462,172,89528,6,0,L|263:189,1,180.000006866455,12|0,1:0|0:0,0:0:0:0:
79,263,89782,5,8,1:0:0:0:
79,263,89909,2,0,L|0:256,1,60.0000022888184,8|0,1:0|0:0,0:0:0:0:
168,368,90163,2,0,B|207:348|207:348|199:260,1,120.000004577637,2|0,1:0|0:0,0:0:0:0:
104,108,90545,2,0,L|98:28,1,60.0000022888184,0|0,1:0|0:0,0:0:0:0:
238,87,90799,6,0,L|318:94,1,80,8|0,1:0|0:0,0:0:0:0:
365,337,91053,2,0,L|285:344,1,80,0|0,1:0|0:0,0:0:0:0:
246,63,91307,2,0,L|326:70,1,80,8|0,1:0|0:0,0:0:0:0:
373,313,91562,2,0,L|293:320,1,80,0|0,1:0|0:0,0:0:0:0:
439,192,91816,5,8,1:0:0:0:
439,192,91943,2,0,L|519:192,1,60.0000022888184,8|0,1:0|0:0,0:0:0:0:
326,69,92197,2,0,B|287:89|287:89|295:177,1,120.000004577637,2|0,1:0|0:0,0:0:0:0:
373,313,92579,2,0,L|378:372,1,60.0000022888184,0|0,1:0|0:0,0:0:0:0:
249,319,92833,6,0,L|256:239,1,80,8|0,1:0|0:0,0:0:0:0:
499,192,93087,2,0,L|506:272,1,80,0|0,1:0|0:0,0:0:0:0:
225,311,93341,2,0,L|232:231,1,80,8|0,1:0|0:0,0:0:0:0:
475,184,93596,2,0,L|482:264,1,80,0|0,1:0|0:0,0:0:0:0:
352,136,93850,53,8,1:0:0:0:
352,136,93977,2,0,L|289:130,1,60.0000022888184,8|0,1:0|0:0,0:0:0:0:
100,48,94231,2,0,B|120:9|120:9|208:17,1,120.000004577637,2|0,1:0|0:0,0:0:0:0:
80,184,94613,2,0,L|17:178,1,60.0000022888184,0|0,1:0|0:0,0:0:0:0:
208,223,94867,6,0,L|215:303,1,80,8|0,1:0|0:0,0:0:0:0:
458,255,95121,2,0,L|451:335,1,80,0|0,1:0|0:0,0:0:0:0:
232,231,95375,2,0,L|239:311,1,80,8|0,1:0|0:0,0:0:0:0:
482,263,95629,2,0,L|475:343,1,80,0|0,1:0|0:0,0:0:0:0:
352,136,95884,5,8,1:0:0:0:
352,136,96011,2,0,L|352:72,1,60.0000022888184,8|0,1:0|0:0,0:0:0:0:
195,15,96265,2,0,B|156:35|156:35|164:123,1,120.000004577637,2|0,1:0|0:0,0:0:0:0:
232,231,96646,2,0,L|232:167,1,60.0000022888184,0|0,1:0|0:0,0:0:0:0:
352,76,96901,22,0,P|369:50|371:80,1,80,12|0,1:0|0:0,0:0:0:0:
344,83,97282,6,0,P|372:39|376:90,1,128,12|0,1:0|0:0,0:0:0:0:
337,85,97663,6,0,P|375:26|381:95,1,180.000006866455,12|0,1:0|0:0,0:0:0:0:
458,255,97918,5,2,1:2:0:0:
160,208,100968,54,0,P|124:193|94:217,1,80,12|0,1:0|0:0,0:0:0:0:
179,191,101350,6,0,P|122:167|72:203,1,128,12|0,1:0|0:0,0:0:0:0:
200,172,101731,6,0,P|120:139|51:192,1,180.000006866455,12|0,1:0|0:0,0:0:0:0:
168,320,101985,5,8,1:0:0:0:
168,320,102113,2,0,L|295:331,1,120.000004577637,8|2,1:0|1:0,0:0:0:0:
400,296,102494,2,0,P|408:320|400:360,1,60.0000022888184,2|0,0:0|0:0,0:0:0:0:
360,184,102748,2,0,B|326:170|326:170|438:161,1,120.000004577637,2|8,1:0|1:0,0:0:0:0:
512,24,103257,6,0,L|506:96,1,60.0000022888184,0|2,0:0|1:0,0:0:0:0:
352,40,103511,2,0,L|348:0,2,40.000001525879,2|0|2,0:0|0:0|1:0,0:0:0:0:
248,120,103765,2,0,L|192:115,1,40,2|0,1:0|0:0,0:0:0:0:
136,72,103892,2,0,L|80:67,1,40
24,136,104019,5,8,1:0:0:0:
24,135,104146,2,0,P|15:164|20:193,1,60.0000022888184,8|0,1:0|0:0,0:0:0:0:
80,320,104401,1,2,1:0:0:0:
80,320,104528,2,0,L|20:325,1,60.0000022888184,8|0,1:0|0:0,0:0:0:0:
216,363,104782,2,0,P|235:307|208:256,1,120.000004577637,2|2,1:0|0:0,0:0:0:0:
360,296,105163,6,0,L|447:288,1,60.0000022888184,0|2,0:0|1:0,0:0:0:0:
512,280,105418,1,0,0:0:0:0:
352,208,105545,1,8,1:0:0:0:
368,384,105672,1,2,1:0:0:0:
488,176,105799,1,8,1:0:0:0:
512,384,105926,1,0,0:0:0:0:
352,208,106053,53,12,1:0:0:0:
352,208,106180,2,0,L|357:148,1,60.0000022888184,8|0,1:0|0:0,0:0:0:0:
452,29,106435,1,2,1:0:0:0:
452,29,106562,2,0,L|515:23,1,60.0000022888184,8|0,1:0|0:0,0:0:0:0:
304,8,106816,2,0,P|248:-11|197:15,1,120.000004577637,2|2,1:0|0:0,0:0:0:0:
96,68,107452,5,2,1:0:0:0:
106,187,107579,1,2,0:0:0:0:
208,256,107706,1,2,1:0:0:0:
0,248,107833,1,2,1:0:0:0:
96,68,107960,1,0,0:0:0:0:
208,256,108087,5,8,1:0:0:0:
208,256,108214,2,0,L|271:250,1,60.0000022888184,8|0,1:0|0:0,0:0:0:0:
424,208,108468,1,2,1:0:0:0:
424,208,108596,2,0,P|429:178|425:148,1,60.0000022888184,8|0,1:0|0:0,0:0:0:0:
464,368,108850,2,0,B|416:364|416:364|393:346|393:346|350:341,1,120.000004577637,2|2,1:0|0:0,0:0:0:0:
267,250,109485,5,2,1:0:0:0:
197,153,109613,1,2,0:0:0:0:
82,310,109740,1,2,1:0:0:0:
197,348,109867,1,2,1:0:0:0:
267,250,109994,1,0,0:0:0:0:
82,190,110121,53,8,1:0:0:0:
82,190,110248,2,0,L|75:118,1,60.0000022888184,8|0,1:0|0:0,0:0:0:0:
232,56,110502,1,2,1:0:0:0:
232,56,110629,2,0,L|160:49,1,60.0000022888184,8|0,1:0|0:0,0:0:0:0:
356,148,110884,2,0,P|375:92|348:40,1,120.000004577637,2|2,1:0|0:0,0:0:0:0:
197,153,111392,6,0,L|196:202,1,30.0000011444092,0|0,1:0|0:0,0:0:0:0:
264,152,111519,2,0,L|272:200,1,30.0000011444092,2|0,1:0|0:0,0:0:0:0:
192,240,111646,2,0,L|191:289,1,30.0000011444092,2|0,0:0|0:0,0:0:0:0:
280,232,111774,2,0,L|288:280,1,30.0000011444092,2|0,1:0|0:0,0:0:0:0:
192,320,111901,2,0,L|191:369,1,30.0000011444092,2|0,1:0|0:0,0:0:0:0:
296,312,112028,2,0,L|304:360,1,30.0000011444092
424,352,112155,5,2,1:0:0:0:
424,352,112282,1,2,1:0:0:0:
472,192,112409,2,0,L|413:177,1,60.0000022888184,8|0,1:0|0:0,0:0:0:0:
88,32,112663,1,2,1:0:0:0:
88,32,112790,1,2,1:0:0:0:
40,192,112918,2,0,L|98:206,1,60.0000022888184,8|0,1:0|0:0,0:0:0:0:
380,48,113172,5,2,1:0:0:0:
380,48,113299,1,2,1:0:0:0:
220,0,113426,2,0,L|206:58,1,60.0000022888184,8|0,1:0|0:0,0:0:0:0:
132,336,113680,1,2,1:0:0:0:
132,336,113807,1,2,1:0:0:0:
292,384,113935,2,0,L|306:326,1,60.0000022888184,8|0,1:0|0:0,0:0:0:0:
413,177,114189,53,6,1:0:0:0:
424,352,114316,1,2,1:0:0:0:
413,177,114443,2,0,L|353:172,1,60.0000022888184,8|0,1:0|0:0,0:0:0:0:
88,32,114697,1,2,1:0:0:0:
99,207,114824,1,2,1:0:0:0:
88,32,114952,2,0,L|148:27,1,60.0000022888184,8|0,1:0|0:0,0:0:0:0:
402,2,115206,5,2,1:0:0:0:
413,177,115333,1,2,1:0:0:0:
402,2,115460,2,0,L|342:7,1,60.0000022888184,8|0,1:0|0:0,0:0:0:0:
99,207,115714,1,2,1:0:0:0:
110,382,115841,1,2,1:0:0:0:
99,207,115968,2,0,L|159:212,1,60.0000022888184,8|0,1:0|0:0,0:0:0:0:
472,288,116223,5,2,1:0:0:0:
292,384,116350,1,2,1:0:0:0:
324,219,116477,2,0,P|332:187|380:171,1,60.0000022888184,8|0,1:0|0:0,0:0:0:0:
220,0,116731,1,2,1:0:0:0:
40,96,116858,1,2,1:0:0:0:
159,212,116985,2,0,P|182:193|188:165,1,60.0000022888184,8|0,1:0|0:0,0:0:0:0:
402,2,117240,5,2,1:0:0:0:
498,182,117367,1,2,1:0:0:0:
352,171,117494,2,0,P|323:165|304:142,1,60.0000022888184,8|0,1:0|0:0,0:0:0:0:
14,202,117748,1,2,1:0:0:0:
110,382,117875,1,2,1:0:0:0:
207,241,118002,2,0,P|188:218|160:213,1,60.0000022888184,8|0,1:0|0:0,0:0:0:0:
289,59,118257,53,6,1:0:0:0:
464,48,118384,1,2,1:0:0:0:
289,59,118511,2,0,L|284:119,1,60.0000022888184,8|0,1:0|0:0,0:0:0:0:
48,336,118765,1,2,1:0:0:0:
223,325,118892,1,2,1:0:0:0:
48,336,119019,2,0,L|43:276,1,60.0000022888184,8|0,1:0|0:0,0:0:0:0:
114,70,119274,5,2,1:0:0:0:
289,59,119401,1,2,1:0:0:0:
114,70,119528,2,0,L|119:130,1,60.0000022888184,8|0,1:0|0:0,0:0:0:0:
223,325,119782,1,2,1:0:0:0:
398,314,119909,1,2,1:0:0:0:
223,325,120036,2,0,L|228:265,1,60.0000022888184,8|0,1:0|0:0,0:0:0:0:
463,110,120290,5,2,1:0:0:0:
454,7,120418,1,2,1:0:0:0:
351,16,120545,1,8,1:0:0:0:
360,120,120672,1,0,1:0:0:0:
152,264,120799,1,2,1:0:0:0:
161,368,120926,1,2,1:0:0:0:
58,377,121053,1,8,1:0:0:0:
49,274,121180,1,0,1:0:0:0:
269,231,121307,5,2,1:0:0:0:
378,324,121435,1,2,1:0:0:0:
471,213,121562,1,8,1:0:0:0:
360,120,121689,1,0,1:0:0:0:
152,264,121816,1,8,1:0:0:0:
41,171,121943,1,2,1:0:0:0:
134,60,122070,1,8,1:0:0:0:
243,153,122197,1,2,1:0:0:0:
417,323,122324,53,12,1:0:0:0:
399,119,122452,1,2,1:0:0:0:
227,250,122579,1,8,1:0:0:0:
471,213,122706,1,2,1:0:0:0:
281,140,122833,1,8,1:0:0:0:
299,344,122960,1,2,1:0:0:0:
399,119,123087,2,0,L|436:48,1,60.0000022888184,8|2,1:0|1:0,0:0:0:0:
91,67,123341,5,8,1:0:0:0:
109,271,123468,1,2,1:0:0:0:
281,140,123596,1,8,1:0:0:0:
37,177,123723,1,2,1:0:0:0:
227,250,123850,1,8,1:0:0:0:
209,46,123977,1,2,1:0:0:0:
109,271,124104,2,0,L|72:342,1,60.0000022888184,8|2,1:0|1:0,0:0:0:0:
299,344,124358,5,8,1:0:0:0:
243,153,124485,1,2,1:0:0:0:
384,304,124613,1,8,1:0:0:0:
267,144,124740,1,2,1:0:0:0:
448,232,124867,1,8,1:0:0:0:
284,122,124994,1,2,1:0:0:0:
496,153,125121,2,0,P|505:124|504:94,1,60.0000022888184,8|2,1:0|1:0,0:0:0:0:
213,40,125375,5,8,1:0:0:0:
269,231,125502,1,2,1:0:0:0:
128,80,125629,1,8,1:0:0:0:
245,240,125757,1,2,1:0:0:0:
64,152,125884,1,8,1:0:0:0:
228,262,126011,1,2,1:0:0:0:
17,232,126138,2,0,P|8:261|9:291,1,60.0000022888184,8|2,1:0|1:0,0:0:0:0:
156,294,126392,54,0,L|174:317,1,30.0000011444092,8|0,0:0|0:0,0:0:0:0:
171,284,126519,2,0,L|186:309,1,30.0000011444092,2|0,0:0|0:0,0:0:0:0:
188,279,126646,2,0,L|200:305,1,30.0000011444092,8|0,0:0|0:0,0:0:0:0:
205,273,126774,2,0,L|215:300,1,30.0000011444092,2|0,0:0|0:0,0:0:0:0:
225,271,126901,2,0,L|233:299,1,30.0000011444092,8|0,0:0|0:0,0:0:0:0:
243,269,127028,2,0,L|248:297,1,30.0000011444092,2|0,0:0|0:0,0:0:0:0:
262,270,127155,2,0,L|265:298,1,30.0000011444092,8|0,0:0|0:0,0:0:0:0:
280,268,127282,2,0,L|280:298,1,30.0000011444092,2|0,0:0|0:0,0:0:0:0:
416,352,127409,6,0,L|394:330,1,30.0000011444092,8|0,0:0|0:0,0:0:0:0:
432,330,127536,2,0,L|408:312,1,30.0000011444092,2|0,0:0|0:0,0:0:0:0:
446,307,127663,2,0,L|421:291,1,30.0000011444092,8|0,0:0|0:0,0:0:0:0:
459,285,127790,2,0,L|432:271,1,30.0000011444092,2|0,0:0|0:0,0:0:0:0:
468,259,127918,2,0,L|440:247,1,30.0000011444092,8|0,0:0|0:0,0:0:0:0:
477,234,128045,2,0,L|449:225,1,30.0000011444092,2|0,0:0|0:0,0:0:0:0:
481,208,128172,2,0,L|452:201,1,30.0000011444092,8|0,0:0|0:0,0:0:0:0:
487,182,128299,2,0,L|457:176,1,30.0000011444092,2|0,0:0|0:0,0:0:0:0:
304,160,128426,6,0,L|329:143,1,30.0000011444092,8|0,0:0|0:0,0:0:0:0:
377,107,128553,2,0,L|351:123,1,30.0000011444092,2|0,0:0|0:0,0:0:0:0:
276,130,128680,2,0,L|299:110,1,30.0000011444092,8|0,0:0|0:0,0:0:0:0:
345,71,128807,2,0,L|321:90,1,30.0000011444092,2|0,0:0|0:0,0:0:0:0:
247,109,128935,2,0,L|268:87,1,30.0000011444092,8|0,0:0|0:0,0:0:0:0:
310,43,129062,2,0,L|288:63,1,30.0000011444092,2|0,0:0|0:0,0:0:0:0:
210,86,129189,2,0,L|230:63,1,30.0000011444092,8|0,0:0|0:0,0:0:0:0:
268,15,129316,2,0,L|247:37,1,30.0000011444092,8|0,0:0|0:0,0:0:0:0:
96,64,129443,5,8,0:0:0:0:
67,90,129507,1,0,0:0:0:0:
64,129,129570,1,2,0:0:0:0:
86,162,129634,1,0,0:0:0:0:
113,175,129697,1,8,0:0:0:0:
138,193,129761,1,0,0:0:0:0:
151,221,129824,1,2,0:0:0:0:
150,252,129888,1,0,0:0:0:0:
141,271,129952,53,8,0:0:0:0:
127,287,130015,1,0,0:0:0:0:
108,295,130079,1,2,0:0:0:0:
88,296,130142,1,0,0:0:0:0:
77,295,130206,1,8,0:0:0:0:
67,289,130269,1,0,0:0:0:0:
62,279,130333,1,2,0:0:0:0:
59,268,130396,1,0,0:0:0:0:
64,257,130460,6,0,L|72:241,12,15.0000005722046,8|0|0|0|0|0|0|0|0|0|0|0|0,0:0|0:0|0:0|0:0|0:0|0:0|0:0|0:0|0:0|0:0|0:0|0:0|0:0,0:0:0:0:
270,302,130968,6,0,L|286:310,6,15.0000005722046,8|0|0|0|0|0|0,0:0|0:0|0:0|0:0|0:0|0:0|0:0,0:0:0:0:
263,287,131223,5,0,0:0:0:0:
345,125,131350,54,0,L|344:108,6,15.0000005722046,8|0|0|0|0|0|0,0:0|0:0|0:0|0:0|0:0|0:0|0:0,0:0:0:0:
335,139,131604,5,0,0:0:0:0:
154,150,131731,6,0,L|139:159,6,15.0000005722046,8|0|0|0|0|0|0,0:0|0:0|0:0|0:0|0:0|0:0|0:0,0:0:0:0:
168,152,131985,6,0,L|178:51,1,95.9999970703126,0|12,0:0|1:0,0:0:0:0:
216,32,132621,54,0,P|182:12|146:25,1,80,8|0,1:0|0:0,0:0:0:0:
0,120,132875,1,2,1:0:0:0:
344,110,133002,2,0,P|411:74|475:116,1,160,2|2,0:0|1:0,0:0:0:0:
512,232,133384,1,0,0:0:0:0:
270,302,133511,6,0,L|258:166,1,120,8|0,1:0|0:0,0:0:0:0:
270,158,133765,1,0,0:0:0:0:
174,230,133892,1,2,1:0:0:0:
270,302,134019,1,2,0:0:0:0:
366,230,134146,1,2,1:0:0:0:
270,158,134274,1,2,1:0:0:0:
174,374,134401,1,0,0:0:0:0:
360,384,134528,5,8,1:0:0:0:
360,384,134655,2,0,L|439:377,1,80,8|0,1:0|0:0,0:0:0:0:
512,232,134909,1,2,1:0:0:0:
174,230,135036,2,0,P|105:195|42:238,1,160,2|2,0:0|1:0,0:0:0:0:
0,384,135418,1,0,0:0:0:0:
269,301,135545,6,0,P|302:308|283:336,1,80,8|0,1:0|0:0,0:0:0:0:
174,230,136053,1,2,0:0:0:0:
192,112,136180,1,2,1:0:0:0:
56,0,136307,1,2,1:0:0:0:
74,118,136435,1,0,0:0:0:0:
280,24,136562,53,8,1:0:0:0:
280,24,136689,2,0,L|359:30,1,80,8|0,1:0|0:0,0:0:0:0:
474,115,136943,1,2,1:0:0:0:
192,112,137070,2,0,B|160:80|160:40|160:40|120:88|152:136,1,160,2|2,0:0|1:0,1:0:0:0:
174,230,137452,1,0,0:0:0:0:
16,352,137579,6,0,P|-1:297|27:245,1,120,8|0,1:0|0:0,0:0:0:0:
47,231,137833,1,0,0:0:0:0:
174,230,137960,1,2,1:0:0:0:
134,358,138087,1,2,0:0:0:0:
279,315,138214,1,2,1:0:0:0:
285,165,138341,1,2,1:0:0:0:
140,113,138468,1,0,0:0:0:0:
392,240,138596,5,8,1:0:0:0:
392,240,138723,2,0,L|471:247,1,80,8|0,1:0|0:0,0:0:0:0:
512,384,138977,1,0,1:0:0:0:
277,295,139104,2,0,P|242:227|285:164,1,160,2|2,0:0|1:0,0:0:0:0:
408,112,139485,1,0,0:0:0:0:
280,24,139613,22,0,B|256:32|241:25|241:25|256:32|264:56,1,80,12|0,1:0|0:0,0:0:0:0:
334,246,139994,6,0,B|364:271|366:298|366:298|364:271|390:241,1,128,12|0,1:0|0:0,0:0:0:0:
488,104,140375,6,0,B|498:49|531:26|531:26|498:49|431:37,1,180.000006866455,12|0,1:0|0:0,0:0:0:0:
284,164,140629,5,8,1:0:0:0:
284,164,140757,2,0,L|205:158,1,80,8|0,1:0|0:0,0:0:0:0:
48,64,141011,1,2,1:0:0:0:
24,296,141138,2,0,P|97:319|151:266,1,160,2|2,0:0|1:0,0:0:0:0:
204,157,141519,1,0,0:0:0:0:
455,357,141646,6,0,P|398:373|347:345,1,120,8|0,1:0|0:0,0:0:0:0:
328,328,141901,2,0,L|320:240,1,80,0|2,0:0|1:0,0:0:0:0:
335,18,142155,1,2,0:0:0:0:
283,150,142282,1,2,1:0:0:0:
466,72,142409,1,2,1:0:0:0:
335,18,142536,1,0,0:0:0:0:
411,196,142663,5,8,1:0:0:0:
411,196,142790,2,0,L|490:190,1,80,8|0,1:0|0:0,0:0:0:0:
335,18,143045,1,2,1:0:0:0:
48,64,143172,2,0,P|26:116|106:106,1,160,2|2,0:0|1:0,0:0:0:0:
192,16,143553,1,0,0:0:0:0:
151,265,143680,6,0,L|145:344,1,80,8|0,1:0|0:0,0:0:0:0:
320,248,144189,1,2,1:0:0:0:
372,112,144316,1,2,0:0:0:0:
320,248,144443,1,2,1:0:0:0:
432,344,144570,1,0,0:0:0:0:
372,112,144697,53,8,1:0:0:0:
372,112,144824,2,0,P|335:97|296:104,1,80,8|0,1:0|0:0,0:0:0:0:
192,16,145079,1,2,1:0:0:0:
165,264,145206,2,0,B|248:288|242:224|325:249,1,160,2|2,0:0|1:0,0:0:0:0:
432,344,145587,1,0,0:0:0:0:
64,328,145714,6,0,P|36:276|53:221,1,120,8|0,1:0|0:0,0:0:0:0:
72,200,145968,1,0,0:0:0:0:
192,16,146096,1,2,1:0:0:0:
372,112,146223,2,0,P|389:148|383:187,1,80,2|2,0:0|1:0,0:0:0:0:
328,344,146477,1,2,1:0:0:0:
512,208,146604,1,0,0:0:0:0:
264,168,146731,5,8,1:0:0:0:
264,168,146858,2,0,L|176:160,1,80,8|0,1:0|0:0,0:0:0:0:
53,220,147113,1,2,1:0:0:0:
367,243,147240,2,0,P|408:179|372:112,1,160,2|2,0:0|1:0,0:0:0:0:
192,16,147621,1,0,0:0:0:0:
26,6,147748,22,0,B|-10:-7|-10:-7|14:22,1,80,12|0,1:0|0:0,0:0:0:0:
207,45,148129,6,0,B|255:4|255:4|193:15,1,128,12|0,1:0|0:0,0:0:0:0:
85,147,148511,6,0,B|101:235|101:235|131:151,1,180.000006866455,12|0,1:0|2:0,2:0:0:0:
367,243,148765,5,8,1:0:0:0:
367,243,148892,2,0,L|446:236,1,80,8|0,1:0|0:0,0:0:0:0:
504,144,149146,1,2,1:0:0:0:
272,184,149274,2,0,P|237:252|280:315,1,160,2|2,0:0|1:0,0:0:0:0:
368,368,149655,1,0,0:0:0:0:
144,288,149782,6,0,L|8:300,1,120,8|0,1:0|0:0,0:0:0:0:
0,288,150036,1,0,0:0:0:0:
72,192,150163,1,2,1:0:0:0:
144,288,150290,1,2,0:0:0:0:
72,384,150418,1,2,1:0:0:0:
0,288,150545,1,2,1:0:0:0:
216,384,150672,1,0,0:0:0:0:
216,192,150799,5,8,1:0:0:0:
216,192,150926,2,0,L|223:113,1,80,8|0,1:0|0:0,0:0:0:0:
320,40,151180,1,2,1:0:0:0:
512,136,151307,2,0,P|449:179|381:145,1,160,2|2,0:0|1:0,0:0:0:0:
320,40,151689,1,0,0:0:0:0:
72,192,151816,6,0,L|78:271,1,80,8|0,1:0|0:0,0:0:0:0:
296,296,152324,1,2,0:0:0:0:
360,192,152452,1,2,1:0:0:0:
240,160,152579,1,0,0:0:0:0:
184,264,152706,1,2,1:0:0:0:
384,360,152833,53,8,1:0:0:0:
384,360,152960,2,0,L|463:366,1,80,8|0,1:0|0:0,0:0:0:0:
488,232,153214,1,2,1:0:0:0:
371,36,153341,2,0,B|375:91|375:91|355:133|355:133|361:205,1,160,2|2,0:0|1:0,0:0:0:0:
488,232,153723,1,0,0:0:0:0:
256,64,153850,6,0,P|201:47|149:75,1,120,8|0,1:0|0:0,0:0:0:0:
128,96,154104,1,0,0:0:0:0:
114,216,154231,1,2,1:0:0:0:
3,263,154358,1,2,0:0:0:0:
210,288,154485,1,2,1:0:0:0:
16,144,154613,1,2,1:0:0:0:
256,64,154740,1,0,0:0:0:0:
210,288,154867,5,8,1:0:0:0:
210,288,154994,2,0,L|203:367,1,80,8|0,1:0|0:0,0:0:0:0:
114,216,155248,1,0,1:0:0:0:
380,127,155375,2,0,P|448:92|511:135,1,160,2|2,0:0|1:0,0:0:0:0:
440,256,155757,1,0,0:0:0:0:
142,83,155884,22,0,B|130:70|126:53|126:53|109:74|126:94,1,80,12|0,1:0|0:0,0:0:0:0:
88,232,156265,6,0,B|80:258|59:276|59:276|101:284|116:243,1,128,12|0,1:0|0:0,0:0:0:0:
248,192,156646,6,0,B|286:182|325:195|325:195|303:137|241:147,1,180.000006866455,12|0,1:0|0:0,0:0:0:0:
210,288,156901,5,8,1:0:0:0:
210,288,157028,2,0,L|204:367,1,80,8|0,1:0|0:0,0:0:0:0:
88,232,157282,1,2,1:0:0:0:
344,312,157409,2,0,B|424:302|407:364|493:354,1,160,2|2,0:0|1:0,0:0:0:0:
488,224,157790,1,0,0:0:0:0:
257,39,157918,6,0,P|229:91|246:147,1,120,8|0,1:0|0:0,0:0:0:0:
249,175,158172,1,0,0:0:0:0:
384,112,158299,1,2,1:0:0:0:
128,104,158426,2,0,L|49:110,1,80,2|2,0:0|1:0,0:0:0:0:
0,0,158680,1,2,1:0:0:0:
0,224,158807,1,0,0:0:0:0:
210,288,158935,5,8,1:0:0:0:
210,288,159062,2,0,L|290:295,1,80,8|0,1:0|0:0,0:0:0:0:
359,191,159316,1,2,1:0:0:0:
87,304,159443,2,0,P|66:368|134:365,1,160,2|2,0:0|1:0,0:0:0:0:
384,384,159824,1,0,0:0:0:0:
259,99,159952,6,0,P|243:135|248:174,1,80,8|0,1:0|0:0,0:0:0:0:
492,354,160460,1,2,0:0:0:0:
464,240,160587,1,2,1:0:0:0:
352,264,160714,1,2,1:0:0:0:
384,384,160841,1,0,0:0:0:0:
512,136,160968,53,8,1:0:0:0:
512,136,161096,2,0,P|517:96|501:60,1,80,8|0,1:0|0:0,0:0:0:0:
304,16,161350,1,2,1:0:0:0:
117,167,161477,2,0,P|180:210|248:176,1,160,2|2,0:0|1:0,0:0:0:0:
304,16,161858,1,0,0:0:0:0:
32,104,161985,6,0,P|4:155|21:211,1,120,8|0,1:0|0:0,0:0:0:0:
32,236,162240,1,0,0:0:0:0:
188,96,162367,1,2,1:0:0:0:
352,264,162494,2,0,L|447:272,1,80,2|2,0:0|1:0,0:0:0:0:
512,384,162748,1,2,1:0:0:0:
496,144,162875,1,0,0:0:0:0:
267,88,163002,5,8,1:0:0:0:
267,88,163129,2,0,L|187:96,1,80,8|0,1:0|0:0,0:0:0:0:
32,120,163384,1,2,1:0:0:0:
364,150,163511,2,0,P|432:185|496:144,1,160,2|2,0:0|1:0,0:0:0:0:
512,0,163892,1,0,0:0:0:0:
286,236,164019,22,0,B|260:222|260:222|266:285,1,80,12|0,1:0|0:0,0:0:0:0:
267,205,164401,6,0,B|241:191|241:191|252:318,1,128,12|0,1:0|0:0,0:0:0:0:
248,175,164782,6,0,B|222:161|222:161|237:328,1,180.000006866455,12|0,1:0|0:0,0:0:0:0:
328,352,165036,5,6,0:0:0:0:
328,352,165163,2,0,B|400:368|456:328|456:328|432:392|352:376,1,240.000009155274,2|2,0:0|1:0,0:0:0:0:
144,296,165545,2,0,P|99:293|61:317,1,90.0000034332277,2|0,0:0|0:0,0:0:0:0:
0,384,165799,1,2,1:0:0:0:
235,310,165926,1,0,1:0:0:0:
248,175,166053,6,0,L|242:95,1,80,8|0,1:0|0:0,0:0:0:0:
104,0,166307,2,0,L|98:79,1,80,2|0,1:0|0:0,0:0:0:0:
386,270,166562,2,0,L|392:191,1,80,8|0,1:0|0:0,0:0:0:0:
242,95,166816,2,0,L|248:175,1,80,2|0,1:0|0:0,0:0:0:0:
512,56,167070,5,2,0:0:0:0:
512,56,167197,2,0,B|469:15|429:56|429:56|403:20|403:20|363:62|314:20,1,240.000009155274,2|0,0:0|0:0,0:0:0:0:
136,112,167579,2,0,P|112:136|152:136,1,90.0000034332277,2|0,0:0|0:0,0:0:0:0:
242,95,167833,1,2,1:0:0:0:
80,8,167960,1,0,1:0:0:0:
58,242,168087,6,0,P|46:279|61:314,1,80,8|0,1:0|0:0,0:0:0:0:
251,168,168341,2,0,P|259:130|242:95,1,80,2|0,1:0|0:0,0:0:0:0:
234,309,168596,2,0,P|269:326|308:319,1,80,8|0,1:0|0:0,0:0:0:0:
455,129,168850,2,0,P|419:114|382:126,1,80,2|0,1:0|0:0,0:0:0:0:
416,248,169104,53,2,0:0:0:0:
416,248,169231,2,0,B|437:308|427:367|427:367|437:308|479:259,1,240.000009155274,2|2,0:0|1:0,0:0:0:0:
455,129,169613,2,0,L|470:40,1,90.0000034332277,2|0,0:0|0:0,0:0:0:0:
376,0,169867,1,2,1:0:0:0:
455,129,169994,1,0,1:0:0:0:
251,168,170121,6,0,L|171:162,1,80,8|0,1:0|0:0,0:0:0:0:
297,6,170375,2,0,L|376:0,1,80,2|0,1:0|0:0,0:0:0:0:
125,324,170629,2,0,L|46:330,1,80,8|0,1:0|0:0,0:0:0:0:
171,162,170884,2,0,L|251:168,1,80,2|0,1:0|0:0,0:0:0:0:
160,28,171138,5,2,0:0:0:0:
160,28,171265,2,0,B|84:21|84:21|69:4|69:4|-26:-4|-26:-4|3:30,1,240.000009155274,2|2,0:0|1:0,0:0:0:0:
29,161,171646,2,0,B|52:186|52:186|59:262,1,90.0000034332277,2|0,0:0|0:0,0:0:0:0:
45,330,171901,1,2,1:0:0:0:
171,162,172028,1,0,1:0:0:0:
234,309,172155,22,0,B|246:323|246:323|284:327|284:327|302:314,1,80,12|0,1:0|0:0,0:0:0:0:
208,322,172536,6,0,B|228:345|228:345|288:351|288:351|318:331,1,128,12|0,1:0|0:0,0:0:0:0:
183,332,172918,6,0,B|212:366|212:366|299:374|299:374|342:345,1,180.000006866455,12|0,1:0|0:0,0:0:0:0:
411,145,173172,5,2,0:0:0:0:
411,145,173299,2,0,B|337:129|334:215|294:221|251:220|229:160|275:100|325:167,1,240.000009155274,2|0,0:0|0:0,0:0:0:0:
440,272,173680,2,0,P|467:316|459:372,1,90.0000034332277,2|0,0:0|0:0,0:0:0:0:
338,347,173935,1,2,1:0:0:0:
183,332,174062,1,0,1:0:0:0:
128,104,174189,6,0,P|110:69|120:24,1,80,8|0,1:0|0:0,0:0:0:0:
172,258,174443,2,0,P|189:292|179:337,1,80,2|0,1:0|0:0,0:0:0:0:
229,158,174697,2,0,P|264:140|309:150,1,80,8|0,1:0|0:0,0:0:0:0:
75,202,174952,2,0,P|41:219|-4:209,1,80,2|0,1:0|0:0,0:0:0:0:
448,64,175206,5,2,0:0:0:0:
448,64,175333,2,0,B|488:80|500:119|500:119|475:218|379:201,1,240.000009155274,2|2,0:0|1:0,0:0:0:0:
361,69,175714,2,0,P|403:55|447:63,1,90.0000034332277,2|0,0:0|0:0,0:0:0:0:
512,0,175968,1,2,1:0:0:0:
302,146,176096,1,0,1:0:0:0:
75,202,176223,6,0,P|36:209|0:192,1,80,8|0,1:0|0:0,0:0:0:0:
116,30,176477,2,0,P|154:22|190:39,1,80,2|0,1:0|0:0,0:0:0:0:
261,318,176731,2,0,P|222:325|186:308,1,80,8|0,1:0|0:0,0:0:0:0:
302,146,176985,2,0,P|340:138|376:155,1,80,2|0,1:0|0:0,0:0:0:0:
466,353,177240,53,2,0:0:0:0:
261,318,177367,1,0,0:0:0:0:
376,155,177494,1,2,0:0:0:0:
484,172,177621,1,0,0:0:0:0:
512,0,177748,2,0,P|469:-8|429:10,1,90.0000034332277,2|0,0:0|0:0,0:0:0:0:
352,56,178002,1,2,1:0:0:0:
251,196,178129,1,0,1:0:0:0:
90,185,178257,6,0,P|51:188|17:168,1,80,8|0,1:0|0:0,0:0:0:0:
251,196,178511,2,0,P|290:192|324:211,1,80,2|0,1:0|0:0,0:0:0:0:
174,111,178765,2,0,P|169:72|188:38,1,80,8|0,1:0|0:0,0:0:0:0:
163,271,179019,2,0,P|166:310|146:343,1,80,2|0,1:0|0:0,0:0:0:0:
324,211,179274,6,0,L|403:204,1,80,2|0,0:0|0:0,0:0:0:0:
424,184,179464,1,0,0:0:0:0:
448,160,179528,1,2,0:0:0:0:
456,312,179655,1,0,0:0:0:0:
304,352,179782,1,2,0:0:0:0:
205,232,179909,1,0,0:0:0:0:
304,112,180036,1,2,0:0:0:0:
104,48,180163,1,0,0:0:0:0:
64,252,180290,22,0,B|97:254|97:254|100:261|100:261|138:264,1,80,12|0,1:0|0:0,0:0:0:0:
50,226,180672,6,0,B|103:230|103:230|108:241|108:241|168:246,1,128,12|0,1:0|0:0,0:0:0:0:
36,201,181053,6,0,B|115:207|115:207|122:224|122:224|209:232,1,180.000006866455,12|0,1:0|0:0,0:0:0:0:
378,128,181307,5,12,1:0:0:0:
378,128,181435,2,0,B|354:64|474:48|482:112|458:200|386:208,1,240.000009155274,8|2,1:0|1:0,0:0:0:0:
336,376,181816,2,0,P|319:334|323:290,1,90.0000034332277,2|0,0:0|0:0,0:0:0:0:
296,192,182070,1,2,1:0:0:0:
509,297,182197,1,0,1:0:0:0:
296,192,182324,6,0,L|216:198,1,80,8|0,1:0|0:0,0:0:0:0:
96,320,182579,2,0,L|175:326,1,80,2|0,1:0|0:0,0:0:0:0:
416,64,182833,2,0,L|337:58,1,80,8|0,1:0|0:0,0:0:0:0:
216,198,183087,2,0,L|296:192,1,80,2|0,1:0|0:0,0:0:0:0:
90,83,183341,5,8,1:0:0:0:
90,83,183468,2,0,B|82:51|58:35|58:35|66:75|98:123|18:115|106:243,1,240.000009155274,8|2,1:0|1:0,0:0:0:0:
175,326,183850,2,0,P|130:319|88:334,1,90.0000034332277,2|0,0:0|0:0,0:0:0:0:
0,384,184104,1,2,1:0:0:0:
86,211,184231,1,0,1:0:0:0:
272,264,184358,6,0,P|288:300|287:340,1,80,8|0,1:0|0:0,0:0:0:0:
398,361,184613,2,0,P|418:327|424:288,1,80,2|0,1:0|2:0,2:0:0:0:
212,112,184867,2,0,P|195:148|196:188,1,80,8|0,1:0|0:0,0:0:0:0:
85,210,185121,2,0,P|65:176|60:137,1,80,2|0,1:0|2:0,2:0:0:0:
352,56,185375,53,8,1:0:0:0:
352,56,185502,2,0,B|355:16|402:28|367:65|299:99|390:171|463:154|476:99|458:33,1,240.000009155274,8|2,1:0|1:0,0:0:0:0:
392,232,185884,2,0,L|401:343,1,90.0000034332277,2|0,0:0|0:0,0:0:0:0:
320,376,186138,1,2,1:0:0:0:
480,200,186265,1,0,1:0:0:0:
269,176,186392,6,0,P|231:168|196:185,1,80,8|0,1:0|0:0,0:0:0:0:
138,220,186646,2,0,P|152:180|189:156,1,88.000002685547,2|0,1:0|0:0,0:0:0:0:
111,216,186901,2,0,P|102:258|127:307,1,95.9999970703126,8|0,1:0|0:0,0:0:0:0:
172,369,187155,2,0,P|124:352|95:310,1,103.999995239258,2|0,1:0|0:0,0:0:0:0:
320,376,187409,6,0,P|374:357|406:309,1,111.999996582031,8|2,1:0|2:1,0:0:0:0:
453,225,187663,2,0,P|463:287|435:341,1,120.000004577637,2|2,1:0|2:1,0:0:0:0:
489,212,187918,2,0,P|470:152|420:113,1,128,8|2,1:0|2:1,0:0:0:0:
301,64,188172,2,0,P|373:50|439:80,1,136.000002593994,2|2,1:0|2:1,0:0:0:0:
128,72,188426,22,0,B|106:66|89:75|89:75|67:70|50:78,1,80,12|0,1:0|0:0,0:0:0:0:
152,48,188807,6,0,B|117:39|89:53|89:53|55:45|27:58,1,128,12|0,1:0|0:0,0:0:0:0:
179,27,189189,6,0,B|129:15|91:34|91:34|42:22|3:42,1,180.000006866455,12|0,1:0|0:0,0:0:0:0:
112,216,189443,5,8,1:0:0:0:
112,216,189570,2,0,B|85:282|137:326|137:326|181:274|143:205,1,240.000009155274,8|2,1:0|1:0,0:0:0:0:
280,0,189952,2,0,P|286:43|269:84,1,90.0000034332277,2|0,0:0|0:0,0:0:0:0:
232,168,190206,1,2,1:0:0:0:
179,27,190333,1,0,1:0:0:0:
385,58,190460,6,0,L|464:64,1,80,8|0,1:0|0:0,0:0:0:0:
463,262,190714,2,0,L|384:256,1,80,2|0,1:0|0:0,0:0:0:0:
233,365,190968,2,0,L|312:359,1,80,8|0,1:0|0:0,0:0:0:0:
311,161,191223,2,0,L|232:167,1,80,2|0,1:0|0:0,0:0:0:0:
51,268,191477,5,8,1:0:0:0:
51,268,191604,2,0,B|68:330|68:330|124:281|100:193|28:201,1,240.000009155274,8|2,1:0|1:0,0:0:0:0:
160,8,191985,2,0,P|151:51|166:93,1,90.0000034332277,2|0,0:0|0:0,0:0:0:0:
231,167,192240,1,2,1:0:0:0:
40,80,192367,1,0,1:0:0:0:
145,300,192494,6,0,P|180:317|220:319,1,80,8|0,1:0|2:0,2:0:0:0:
231,167,192748,2,0,P|196:186|156:188,1,80,2|0,1:0|0:0,0:0:0:0:
385,58,193002,2,0,P|424:60|460:77,1,80,8|0,1:0|2:0,2:0:0:0:
449,189,193257,2,0,P|409:191|374:210,1,80,2|0,1:0|0:0,0:0:0:0:
220,319,193511,53,8,1:0:0:0:
220,319,193638,2,0,B|236:312|236:312|235:328|235:328|252:313|252:313|251:329|251:329|268:315|268:315|267:331|267:331|284:316|284:316|283:332|283:332|300:318|300:318|298:333|298:333|316:319|316:319|314:335|314:335|331:328,1,240.000009155274,8|2,1:0|1:0,0:0:0:0:
449,189,194019,2,0,P|407:180|372:217,1,90.0000034332277,2|0,0:0|0:0,0:0:0:0:
441,306,194274,1,2,1:0:0:0:
460,77,194401,1,0,1:0:0:0:
264,37,194528,6,0,L|185:43,1,80,8|0,1:0|0:0,0:0:0:0:
186,241,194782,2,0,L|265:235,1,80,2|0,1:0|0:0,0:0:0:0:
112,344,195036,2,0,L|33:338,1,80,8|0,1:0|0:0,0:0:0:0:
34,140,195290,2,0,L|113:146,1,80,2|0,1:0|0:0,0:0:0:0:
328,72,195545,6,0,P|354:95|327:95,1,80,8|0,1:0|1:0,0:0:0:0:
320,128,195735,1,0,1:0:0:0:
311,161,195799,1,8,1:0:0:0:
249,264,195926,1,0,1:0:0:0:
329,354,196053,1,8,1:0:0:0:
441,306,196180,1,0,1:0:0:0:
426,186,196307,1,8,1:0:0:0:
311,161,196435,1,0,1:0:0:0:
176,111,196562,22,0,B|162:92|139:96|139:96|129:116|140:132,1,80,12|0,1:0|0:0,0:0:0:0:
190,109,196943,6,0,B|170:81|133:85|133:85|115:118|134:145,1,128,12|0,1:0|0:0,0:0:0:0:
202,101,197324,6,0,B|176:64|123:72|123:72|96:118|125:158,1,180.000006866455,12|0,1:0|0:0,0:0:0:0:
256,192,197579,12,0,199566,0:0:0:0:
168,272,199630,6,0,L|64:262,2,95.9999970703126,2|2|2,0:0|0:0|0:0,0:0:0:0:
360,304,201155,2,0,P|372:258|352:216,1,95.9999970703126,0|2,0:0|0:0,0:0:0:0:
440,32,202172,2,0,L|448:88,1,47.9999985351563,2|2,0:0|0:0,0:0:0:0:
360,112,202680,6,0,L|256:102,1,95.9999970703126,4|2,0:0|0:0,0:0:0:0:
48,40,203443,1,0,0:0:0:0:
96,136,203697,2,0,L|159:141,1,47.9999985351563,2|0,0:0|0:0,0:0:0:0:
264,104,204206,2,0,P|276:149|256:191,2,95.9999970703126,0|2|2,0:0|0:0|0:0,0:0:0:0:
72,262,205731,6,0,P|59:307|79:349,1,95.9999970703126,0|2,0:0|0:0,0:0:0:0:
264,288,206748,2,0,L|311:283,1,47.9999985351563,2|0,0:0|0:0,0:0:0:0:
376,352,207257,2,0,P|421:364|463:344,1,95.9999970703126,0|2,0:0|0:0,0:0:0:0:
448,152,208274,2,0,L|443:104,1,47.9999985351563,2|2,0:0|0:0,0:0:0:0:
360,56,208782,6,0,P|314:43|272:63,1,95.9999970703126,4|2,0:0|0:0,0:0:0:0:
56,160,209545,1,0,0:0:0:0:
152,168,209799,2,0,L|199:172,1,47.9999985351563,2|0,0:0|0:0,0:0:0:0:
224,264,210307,2,0,P|244:306|231:351,2,95.9999970703126,0|2|2,0:0|0:0|0:0,0:0:0:0:
416,304,211833,54,0,L|527:294,1,95.9999970703126,0|2,0:0|0:0,0:0:0:0:
440,136,212850,2,0,L|445:72,1,47.9999985351563,2|0,0:0|0:0,0:0:0:0:
336,144,213358,2,0,L|340:191,1,47.9999985351563
181,72,213867,2,0,P|223:51|268:64,1,95.9999970703126,2|2,0:0|0:0,0:0:0:0:
192,240,214884,6,0,P|150:261|105:248,1,95.9999970703126,4|2,0:0|0:0,0:0:0:0:
24,192,215646,1,0,0:0:0:0:
16,288,215901,2,0,L|10:351,1,47.9999985351563,2|0,0:0|0:0,0:0:0:0:
144,160,216409,2,0,L|135:64,2,95.9999970703126,0|2|2,0:0|0:0|0:0,0:0:0:0:
230,351,217935,6,0,P|272:372|317:359,1,95.9999970703126,0|2,0:0|0:0,0:0:0:0:
464,240,218952,2,0,L|416:235,1,47.9999985351563,2|0,0:0|0:0,0:0:0:0:
328,192,219460,2,0,P|307:150|320:105,1,95.9999970703126,0|2,0:0|0:0,0:0:0:0:
384,32,220223,1,0,0:0:0:0:
182,60,220477,2,0,L|134:64,1,47.9999985351563,2|2,0:0|0:0,0:0:0:0:
24,192,220985,6,0,P|3:234|16:279,1,95.9999970703126,4|2,0:0|0:0,0:0:0:0:
56,368,221747,1,0,0:0:0:0:
224,352,222001,2,0,L|271:348,1,47.9999985351563,2|0,0:0|0:0,0:0:0:0:
216,248,222510,2,0,L|168:244,1,47.9999985351563
376,216,223018,2,0,P|389:261|368:303,1,95.9999970703126,2|2,0:0|0:0,0:0:0:0:
288,144,224035,1,0,0:0:0:0:
288,144,224544,2,0,L|291:96,1,47.9999985351563,2|0,0:0|0:0,0:0:0:0:
160,32,225052,54,0,P|146:77|167:119,1,95.9999970703126,4|2,0:0|0:0,0:0:0:0:
400,240,226069,2,0,P|420:198|407:152,1,95.9999970703126,0|2,0:0|0:0,0:0:0:0:
72,240,227086,2,0,P|58:285|79:327,2,95.9999970703126,0|2|0,0:0|0:0|0:0,0:0:0:0:
240,208,228612,2,0,L|287:203,1,47.9999985351563,2|0,0:0|0:0,0:0:0:0:
400,144,229120,6,0,P|424:200|408:240,1,95.9999970703126,4|0,0:0|0:0,0:0:0:0:
144,312,230137,1,0,0:0:0:0:
144,312,230391,2,0,P|135:265|158:224,1,95.9999970703126
272,96,231154,2,0,P|295:136|286:183,1,95.9999970703126,2|0,0:0|0:0,0:0:0:0:
264,288,231917,1,0,0:0:0:0:
264,288,232171,2,0,L|359:279,1,95.9999970703126
464,112,233188,6,0,L|368:103,1,95.9999970703126,2|0,0:0|0:0,0:0:0:0:
264,96,233951,1,0,0:0:0:0:
160,120,234205,2,0,P|151:73|174:32,1,95.9999970703126
158,224,234968,1,0,0:0:0:0:
158,224,235222,2,0,L|62:232,2,95.9999970703126,2|0|0,0:0|0:0|0:0,0:0:0:0:
359,279,236747,1,0,0:0:0:0:
359,279,236997,1,0,0:0:0:0:
359,279,237247,6,0,P|382:238|373:191,1,95.9999970703126,2|0,0:0|0:0,0:0:0:0:
360,96,238009,1,0,0:0:0:0:
176,32,238263,2,0,P|152:72|161:119,1,95.9999970703126
144,312,239026,1,0,0:0:0:0:
144,312,239280,2,0,L|48:320,1,95.9999970703126,2|0,0:0|0:0,0:0:0:0:
8,208,240043,1,0,0:0:0:0:
240,224,240297,2,0,L|335:232,1,95.9999970703126
464,304,241341,54,0,P|487:263|478:216,1,95.9999970703126,2|0,0:0|0:0,0:0:0:0:
384,104,242388,1,2,0:0:0:0:
336,80,242801,1,0,0:0:0:0:
264,104,243190,1,0,0:0:0:0:
292,188,243578,2,0,L|220:194,1,71.9999978027344,2|0,0:0|0:0,0:0:0:0:
256,192,244061,12,12,248416,1:0:0:0:
