osu file format v14

[General]
AudioFilename: audio.mp3
AudioLeadIn: 0
PreviewTime: 92731
Countdown: 0
SampleSet: Soft
StackLeniency: 0.7
Mode: 0
LetterboxInBreaks: 0
WidescreenStoryboard: 1

[Editor]
DistanceSpacing: 0.6
BeatDivisor: 4
GridSize: 4
TimelineZoom: 1

[Metadata]
Title:rumrum triplets
TitleUnicode:rumrum triplets
Artist:yu_tokiwa.djw
ArtistUnicode:yu_tokiwa.djw
Creator:Fsjallink
Version:Normal
Source:beatmania IIDX 20 tricoro
Tags:ayel japanese video game pop electronic 脇田潤 jun wakita wac 常盤ゆう yu tokiwa loungecore murmur twins linus
BeatmapID:3617723
BeatmapSetID:1757985

[Difficulty]
HPDrainRate:3.5
CircleSize:3
OverallDifficulty:4
ApproachRate:5
SliderMultiplier:0.999999999999999
SliderTickRate:1

[Events]
//Background and Video events
0,0,"3383a3c4-7d06-405d-87ea-9ebb8a9629ba (2).png",0,0
//Break Periods
2,36681,37781
//Storyboard Layer 0 (Background)
//Storyboard Layer 1 (Fail)
//Storyboard Layer 2 (Pass)
//Storyboard Layer 3 (Foreground)
//Storyboard Layer 4 (Overlay)
//Storyboard Sound Samples

[TimingPoints]
231,312.5,4,2,0,60,1,0
10231,-100,4,2,0,70,0,0
16793,-133.333333333333,4,2,0,50,0,0
21481,-100,4,2,0,60,0,0
46481,-133.333333333333,4,2,0,50,0,0
51481,-100,4,2,0,60,0,0
61793,-100,4,2,0,50,0,0
63981,-100,4,2,0,60,0,0
65699,-133.333333333333,4,2,0,60,0,0
66481,-90.9090909090909,4,2,0,70,0,1
78981,-90.9090909090909,4,2,0,70,0,0
81481,-90.9090909090909,4,2,0,70,0,1
86481,-100,4,2,0,60,0,1
92574,-133.333333333333,4,2,0,50,0,0
97731,-100,4,2,0,60,0,0
102731,-90.9090909090909,4,2,0,70,0,1
112731,-100,4,2,0,60,0,0
118043,-100,4,2,0,50,0,0
120231,-100,4,2,0,60,0,0

[Colours]
Combo1 : 17,254,176
Combo2 : 173,255,95
Combo3 : 255,88,100
Combo4 : 255,94,55

[HitObjects]
256,192,2731,12,0,4606,0:0:0:0:
189,79,5231,6,0,P|273:70|295:68,1,99.9999999999999,0|0,1:0|1:0,0:0:0:0:
371,124,5856,2,0,P|375:173|381:223,1,99.9999999999999,0|2,1:0|1:2,0:0:0:0:
316,299,6481,2,0,P|266:303|216:309,1,99.9999999999999,0|0,1:0|1:0,0:0:0:0:
130,258,7106,2,0,P|125:208|119:158,1,99.9999999999999,0|2,1:0|1:2,0:0:0:0:
189,79,7731,5,0,1:0:0:0:
263,145,8043,1,0,1:0:0:0:
348,92,8356,2,0,P|412:114|456:124,1,99.9999999999999,0|2,1:0|1:2,0:0:0:0:
492,130,8824,1,0,1:2:0:0:
492,130,8981,2,0,P|495:78|497:64,2,50,0|0|0,1:0|1:0|1:0,0:0:0:0:
448,220,9606,2,0,P|453:280|468:335,1,99.9999999999999,0|4,1:0|1:3,0:0:0:0:
374,367,10231,6,0,P|334:337|276:305,1,99.9999999999999,4|10,1:2|0:0,0:0:0:0:
242,299,10699,2,0,P|177:308|124:315,1,99.9999999999999,2|8,1:2|1:2,0:0:0:0:
93,319,11168,1,4,1:2:0:0:
38,235,11481,5,10,0:0:0:0:
38,235,11637,2,0,P|42:176|36:132,1,99.9999999999999,2|8,1:2|1:2,0:0:0:0:
27,86,12106,1,0,1:0:0:0:
123,112,12418,1,4,1:2:0:0:
197,44,12731,6,0,P|235:32|303:26,1,99.9999999999999,10|10,0:0|1:2,0:0:0:0:
344,30,13199,1,0,1:0:0:0:
344,30,13356,2,0,P|343:67|338:141,1,99.9999999999999,0|0,1:0|1:0,0:0:0:0:
334,179,13824,1,0,1:0:0:0:
256,192,13981,12,2,16481,0:0:0:0:
204,258,17262,6,0,L|127:268,1,75.000002861023,2|2,0:0|0:0,0:0:0:0:
88,63,18668,2,0,L|170:54,1,75.000002861023,2|2,0:0|0:0,0:0:0:0:
279,149,19606,2,0,L|282:192,2,37.5000014305115,2|2|2,0:0|0:0|0:0,0:0:0:0:
275,111,20074,1,2,0:0:0:0:
137,163,21481,6,0,P|138:205|152:270,1,99.9999999999999,2|8,1:2|1:2,0:0:0:0:
228,322,22106,2,0,P|223:360|222:373,2,50,0|0|8,1:0|0:0|1:2,0:0:0:0:
254,279,22574,2,0,P|306:293|366:295,1,99.9999999999999,2|2,0:0|0:0,0:0:0:0:
443,337,23199,1,2,0:0:0:0:
477,242,23512,2,0,P|482:200|483:186,1,50,2|8,0:0|1:2,0:0:0:0:
482,142,23824,2,0,P|430:128|320:127,1,150,2|8,0:0|1:2,0:0:0:0:
263,196,24606,5,0,1:0:0:0:
263,196,24762,2,0,P|268:252|270:265,1,50,2|8,0:0|1:2,0:0:0:0:
271,295,25074,2,0,P|218:304|123:280,1,150,2|8,0:0|1:2,0:0:0:0:
37,234,25856,1,2,1:2:0:0:
85,146,26168,1,8,0:0:0:0:
25,66,26481,6,0,P|57:47|126:32,1,99.9999999999999,6|8,1:2|1:2,0:0:0:0:
214,57,27106,2,0,P|211:97|210:109,2,50,0|0|8,1:2|0:0|1:2,0:0:0:0:
239,13,27574,2,0,P|271:32|382:53,1,150,2|8,0:0|1:2,0:0:0:0:
430,47,28199,1,2,0:0:0:0:
354,176,28668,5,8,1:2:0:0:
354,176,28824,1,2,0:0:0:0:
354,176,28981,2,0,P|361:223|362:281,1,99.9999999999999,2|8,1:2|1:2,0:0:0:0:
282,335,29606,2,0,P|276:368|271:404,2,50,0|0|8,1:2|0:0|1:2,0:0:0:0:
261,289,30074,2,0,P|216:290|101:277,1,150,2|8,0:0|1:2,0:0:0:0:
62,268,30699,1,2,0:0:0:0:
138,139,31168,1,8,1:2:0:0:
216,201,31481,6,0,P|259:203|338:202,1,99.9999999999999,0|8,1:2|1:2,0:0:0:0:
408,241,32106,2,0,P|402:285|401:306,2,50,0|0|8,1:2|0:0|1:2,0:0:0:0:
442,205,32574,2,0,P|441:173|447:101,1,99.9999999999999,2|2,0:0|0:0,0:0:0:0:
353,66,33199,2,0,P|354:98|348:170,1,99.9999999999999,2|0,0:0|0:0,0:0:0:0:
320,207,33668,1,8,1:2:0:0:
225,174,33981,5,2,1:0:0:0:
225,174,34137,2,0,P|178:177|109:188,1,99.9999999999999,0|2,0:0|0:1,0:0:0:0:
86,276,34762,2,0,P|133:273|202:262,1,99.9999999999999,0|2,0:0|0:1,0:0:0:0:
234,276,35231,2,0,P|239:319|244:349,2,50,0|0|0,1:2|1:2|1:0,0:0:0:0:
246,227,35699,2,0,P|238:189|242:66,1,150,0|0,1:0|1:0,0:0:0:0:
253,30,36324,1,0,1:0:0:0:
253,30,36481,1,0,1:0:0:0:
358,103,38981,6,0,L|350:223,1,99.9999999999999,0|0,1:0|1:0,0:0:0:0:
259,241,39606,2,0,L|252:141,1,99.9999999999999,0|0,1:0|1:0,0:0:0:0:
162,96,40231,2,0,L|154:216,1,99.9999999999999,0|0,1:0|1:0,0:0:0:0:
137,294,40856,5,0,1:0:0:0:
212,359,41168,1,8,1:0:0:0:
301,314,41481,1,2,1:2:0:0:
383,370,41793,2,0,P|413:351|461:295,1,99.9999999999999,10|2,1:2|1:2,0:0:0:0:
486,263,42262,1,2,1:2:0:0:
486,263,42418,1,10,1:2:0:0:
435,176,42731,6,0,P|420:126|427:62,1,99.9999999999999,2|10,1:2|1:2,0:0:0:0:
338,23,43356,2,0,P|267:32|225:33,1,99.9999999999999,2|10,1:2|1:2,0:0:0:0:
188,29,43824,1,2,1:2:0:0:
188,29,43981,1,2,1:2:0:0:
124,105,44293,1,10,1:2:0:0:
198,171,44606,6,0,P|186:209|147:281,1,99.9999999999999,2|10,1:2|1:2,0:0:0:0:
59,272,45231,1,2,1:2:0:0:
59,272,45387,1,8,1:2:0:0:
59,272,45543,2,0,P|71:234|110:162,1,99.9999999999999,10|2,1:2|1:2,0:0:0:0:
197,168,46168,2,0,P|245:180|260:185,2,50,10|0|2,1:2|1:0|0:0,0:0:0:0:
50,135,47106,5,2,0:0:0:0:
70,283,47731,1,2,0:0:0:0:
217,256,48356,1,2,0:0:0:0:
197,107,48981,1,2,0:0:0:0:
86,208,49606,2,0,P|93:277|95:296,1,75.000002861023,2|0,0:0|0:0,0:0:0:0:
119,368,50231,2,0,P|178:349|237:349,2,112.500004291534,2|2|4,0:0|0:0|1:2,0:0:0:0:
33,317,51481,6,0,P|27:254|27:201,1,99.9999999999999,2|8,1:0|1:2,0:0:0:0:
125,204,52106,2,0,P|131:141|131:88,1,99.9999999999999,0|8,1:0|1:2,0:0:0:0:
120,55,52574,1,2,0:0:0:0:
120,55,52731,6,0,P|195:65|238:65,1,99.9999999999999,0|8,1:0|1:2,0:0:0:0:
296,1,53356,2,0,P|345:3|395:11,1,99.9999999999999,0|8,1:0|1:2,0:0:0:0:
444,18,53824,1,2,0:0:0:0:
444,18,53981,6,0,P|433:80|428:131,1,99.9999999999999,0|8,1:0|1:2,0:0:0:0:
508,177,54606,2,0,P|502:226|493:275,1,99.9999999999999,0|8,1:0|1:2,0:0:0:0:
464,316,55074,1,0,1:0:0:0:
464,316,55231,2,0,P|458:353|458:378,2,50,0|0|8,1:0|1:0|1:2,0:0:0:0:
382,257,55856,6,0,L|321:263,1,50,2|2,1:2|1:2,0:0:0:0:
304,303,56168,2,0,L|254:298,1,50,10|0,1:2|1:2,0:0:0:0:
213,269,56481,2,0,P|154:268|95:278,1,99.9999999999999,6|8,1:2|1:2,0:0:0:0:
41,204,57106,6,0,P|28:147|27:134,1,50,2|2,1:2|0:0,0:0:0:0:
81,70,57574,2,0,P|138:57|151:56,1,50,2|2,0:0|1:2,0:0:0:0:
215,109,58043,2,0,P|228:166|229:179,1,50,10|2,1:2|0:0,0:0:0:0:
170,239,58512,2,0,P|113:252|100:253,1,50,2|10,0:0|1:2,0:0:0:0:
252,323,59137,6,0,P|288:333|316:338,1,50,2|10,0:0|1:2,0:0:0:0:
391,294,59606,2,0,P|401:258|406:230,1,50,2|2,1:2|0:0,0:0:0:0:
348,162,60074,2,0,P|312:152|284:147,1,50,2|2,0:0|1:2,0:0:0:0:
208,191,60543,2,0,P|198:227|193:255,1,50,10|2,1:2|0:0,0:0:0:0:
242,328,61012,1,10,0:0:0:0:
242,328,61168,1,10,1:2:0:0:
335,293,61481,5,4,0:0:0:0:
290,203,61793,2,0,P|294:143|303:95,2,99.9999999999999,0|0|0,3:0|3:0|3:0,0:0:0:0:
198,244,62731,2,0,P|194:304|185:352,2,99.9999999999999,0|0|0,3:0|3:0|3:0,0:0:0:0:
137,164,63668,1,0,3:0:0:0:
256,192,63981,12,6,65543,1:2:0:0:
254,226,66481,6,0,P|249:152|261:2,1,220.000006713867,6|0,1:2|1:2,0:0:0:0:
373,46,67418,1,8,1:2:0:0:
373,46,67574,1,0,1:2:0:0:
373,46,67731,1,0,1:2:0:0:
302,130,68043,2,0,P|265:134|187:139,1,110.000003356934,10|2,1:2|1:2,0:0:0:0:
82,139,68668,1,10,1:2:0:0:
80,249,68981,6,0,P|87:307|108:374,1,110.000003356934,2|8,1:2|1:2,0:0:0:0:
210,370,69606,2,0,P|203:312|182:245,1,110.000003356934,0|10,1:2|1:2,0:0:0:0:
169,211,70074,1,2,0:0:0:0:
169,211,70231,2,0,P|229:222|293:229,1,110.000003356934,2|8,1:2|1:2,0:0:0:0:
370,286,70856,1,2,1:2:0:0:
370,286,71012,2,0,P|366:325|366:346,2,55.0000016784668,2|8|8,0:0|1:2|0:0,0:0:0:0:
418,259,71481,6,0,P|430:206|428:134,1,110.000003356934,6|8,1:2|1:2,0:0:0:0:
421,96,71949,1,2,1:2:0:0:
332,29,72262,2,0,P|301:32|224:63,1,110.000003356934,2|0,0:0|1:0,0:0:0:0:
180,89,72731,1,0,1:2:0:0:
250,173,73043,1,8,1:2:0:0:
157,233,73356,5,2,1:2:0:0:
85,149,73668,1,10,1:2:0:0:
3,222,73981,2,0,P|3:279|22:343,1,110.000003356934,2|8,1:2|1:2,0:0:0:0:
60,362,74449,2,0,P|110:357|181:348,1,110.000003356934,2|8,1:2|0:0,0:0:0:0:
211,314,74918,2,0,P|260:324|271:326,2,55.0000016784668,8|2|0,1:2|0:0|1:2,0:0:0:0:
137,232,75543,5,8,1:2:0:0:
137,232,75699,2,0,P|141:167|134:110,1,110.000003356934,2|2,1:2|1:2,0:0:0:0:
120,69,76168,1,10,1:2:0:0:
120,69,76324,1,4,1:2:0:0:
120,69,76481,6,0,P|183:83|352:71,1,220.000006713867,4|0,1:2|1:2,0:0:0:0:
435,125,77418,2,0,P|438:158|440:187,1,55.0000016784668,8|0,1:2|1:0,0:0:0:0:
490,200,77731,2,0,P|482:253|476:333,1,110.000003356934,0|8,1:2|1:2,0:0:0:0:
378,359,78356,1,0,1:2:0:0:
303,278,78668,1,8,1:2:0:0:
303,278,78824,1,0,1:2:0:0:
303,278,78981,6,0,L|234:292,1,55.0000016784668,6|0,1:2|1:0,0:0:0:0:
158,236,79449,1,0,1:2:0:0:
158,236,79606,2,0,L|144:167,1,55.0000016784668,6|0,1:2|1:0,0:0:0:0:
214,96,80074,1,0,1:2:0:0:
214,96,80231,2,0,L|283:82,2,55.0000016784668,6|10|2,1:2|0:0|1:2,0:0:0:0:
160,83,80699,2,0,P|123:48|14:60,1,165.0000050354,6|4,1:2|1:3,0:0:0:0:
5,157,81481,6,0,P|8:230|14:276,1,110.000003356934,6|8,1:2|1:2,0:0:0:0:
51,304,81949,2,0,P|98:288|171:275,1,110.000003356934,2|0,1:2|0:0,0:0:0:0:
204,304,82418,2,0,P|210:338|211:374,2,55.0000016784668,8|8|2,1:2|0:0|1:2,0:0:0:0:
235,191,83043,1,8,1:2:0:0:
235,191,83199,2,0,P|220:113|227:72,1,110.000003356934,2|2,1:2|0:2,0:0:0:0:
237,29,83668,1,8,1:2:0:0:
327,101,83981,5,0,1:2:0:0:
327,101,84137,2,0,P|370:86|457:79,1,110.000003356934,2|2,0:2|1:2,0:0:0:0:
496,168,84762,2,0,P|453:183|370:189,1,110.000003356934,10|8,1:2|0:0,0:0:0:0:
342,207,85231,2,0,P|349:242|352:281,1,55.0000016784668,0|0,1:2|1:0,0:0:0:0:
356,301,85543,1,8,1:2:0:0:
246,307,85856,2,0,P|172:297|119:291,1,110.000003356934,0|8,1:2|1:2,0:0:0:0:
86,289,86324,1,0,1:0:0:0:
86,289,86481,6,0,P|88:231|84:181,1,99.9999999999999,6|8,1:2|1:2,0:0:0:0:
61,91,87106,2,0,P|19:103|-8:106,2,50,0|0|12,1:2|1:0|1:2,0:0:0:0:
91,51,87574,2,0,P|131:39|246:45,1,150,8|8,1:0|1:2,0:0:0:0:
335,74,88356,2,0,P|370:66|404:57,2,50,0|2|12,1:2|1:2|1:2,0:0:0:0:
317,120,88824,6,0,P|322:185|341:239,1,99.9999999999999,2|4,1:2|0:0,0:0:0:0:
360,259,89293,1,8,1:2:0:0:
280,320,89606,2,0,P|260:338|236:367,2,50,0|8|12,1:2|0:0|1:2,0:0:0:0:
373,356,90231,1,2,1:0:0:0:
256,192,90543,12,2,92574,0:0:0:0:
154,241,93356,6,0,L|146:125,1,112.500004291534,2|2,0:0|0:0,0:0:0:0:
231,55,94293,2,0,L|317:49,3,75.000002861023,2|2|2|2,0:0|0:0|0:0|0:0,0:0:0:0:
434,127,95856,2,0,L|422:253,1,112.500004291534,2|2,0:0|0:0,0:0:0:0:
92,308,97731,6,0,P|149:301|192:284,1,99.9999999999999,0|2,1:2|1:2,0:0:0:0:
251,208,98356,2,0,P|301:217|314:217,2,50,0|0|2,1:2|0:0|1:2,0:0:0:0:
223,166,98824,2,0,P|230:100|238:54,1,99.9999999999999,2|0,0:0|0:0,0:0:0:0:
148,16,99449,2,0,P|141:82|133:128,1,99.9999999999999,2|0,0:0|0:0,0:0:0:0:
127,164,99918,1,2,1:2:0:0:
35,176,100231,6,0,P|36:221|41:248,1,50,0|2,1:2|0:0,0:0:0:0:
63,267,100543,2,0,P|62:312|57:339,1,50,2|0,1:2|0:0,0:0:0:0:
53,357,100856,2,0,P|110:358|163:361,1,99.9999999999999,0|2,1:2|1:2,0:0:0:0:
202,367,101324,1,2,0:0:0:0:
202,367,101481,1,0,1:0:0:0:
301,364,101793,5,8,1:2:0:0:
370,291,102106,2,0,L|362:234,1,50,10|10,0:0|0:0,0:0:0:0:
333,201,102418,2,0,L|341:144,1,50,10|2,0:0|1:2,0:0:0:0:
378,119,102731,1,2,1:2:0:0:
311,32,103043,6,0,P|265:45|196:50,1,110.000003356934,12|0,1:2|1:2,0:0:0:0:
99,88,103668,1,8,1:2:0:0:
99,88,103824,2,0,P|110:139|112:220,1,110.000003356934,8|0,0:0|0:0,0:0:0:0:
98,249,104293,1,8,1:2:0:0:
204,277,104606,1,2,1:2:0:0:
278,196,104918,1,10,1:2:0:0:
250,89,105231,5,0,1:2:0:0:
250,89,105387,1,0,1:0:0:0:
250,89,105543,2,0,P|289:74|362:74,1,110.000003356934,8|0,1:2|1:2,0:0:0:0:
443,140,106168,1,8,1:2:0:0:
443,140,106324,2,0,P|434:205|431:262,1,110.000003356934,8|0,0:0|0:0,0:0:0:0:
425,304,106793,1,10,1:2:0:0:
324,350,107106,2,0,P|292:354|268:354,1,55.0000016784668,2|2,1:2|0:0,0:0:0:0:
225,347,107418,1,10,1:2:0:0:
225,347,107574,1,2,1:1:0:0:
298,199,108043,6,0,P|247:194|167:209,1,110.000003356934,8|0,1:2|1:2,0:0:0:0:
98,262,108668,1,8,1:2:0:0:
98,262,108824,2,0,P|102:336|106:372,2,110.000003356934,8|2|0,0:0|1:2|1:0,0:0:0:0:
5,125,109918,5,8,1:2:0:0:
5,125,110074,2,0,P|16:87|136:35,1,165.0000050354,10|8,0:0|1:2,0:0:0:0:
164,64,110699,2,0,P|230:58|282:48,1,110.000003356934,2|8,1:2|0:0,0:0:0:0:
325,33,111168,1,8,1:2:0:0:
429,67,111481,5,0,1:2:0:0:
423,121,111637,1,0,1:2:0:0:
417,175,111793,1,4,1:2:0:0:
325,235,112106,2,0,P|330:294|331:299,2,55.0000016784668,0|0|8,1:0|1:0|1:2,0:0:0:0:
314,181,112574,1,0,1:0:0:0:
314,181,112731,2,0,P|255:176|197:192,1,99.9999999999999,6|8,1:2|1:2,0:0:0:0:
164,271,113356,6,0,P|166:310|170:343,1,50,2|2,1:2|0:0,0:0:0:0:
248,378,113824,2,0,P|287:376|320:372,1,50,2|2,0:0|1:2,0:0:0:0:
373,308,114293,2,0,P|371:269|367:236,1,50,10|2,1:2|0:0,0:0:0:0:
290,197,114762,2,0,P|251:199|218:203,1,50,2|10,0:0|1:2,0:0:0:0:
164,271,115231,1,0,1:2:0:0:
93,84,115856,6,0,P|88:41|88:24,2,50,2|2|10,1:2|0:0|1:2,0:0:0:0:
101,133,116324,1,2,0:0:0:0:
202,243,116793,2,0,P|227:242|252:238,1,50,10|2,1:2|0:0,0:0:0:0:
303,152,117262,2,0,P|302:127|298:102,1,50,10|8,0:2|1:2,0:0:0:0:
356,21,117731,1,4,0:0:0:0:
433,83,118043,6,0,P|471:101|531:115,2,99.9999999999999,0|0|0,3:0|3:0|3:0,0:0:0:0:
342,126,118981,2,0,P|324:164|310:224,2,99.9999999999999,0|0|0,3:0|3:0|3:0,0:0:0:0:
256,76,119918,1,0,3:0:0:0:
168,124,120231,5,6,1:2:0:0:
168,220,120543,1,6,1:2:0:0:
256,268,120856,1,6,1:2:0:0:
344,220,121168,1,6,1:2:0:0:
344,116,121481,1,6,1:2:0:0:
260,168,121793,1,6,1:2:0:0:
260,168,121950,5,6,1:2:0:0:
256,192,122106,12,2,123981,0:0:0:0:
