osu file format v14

[General]
AudioFilename: audio.mp3
AudioLeadIn: 0
PreviewTime: 92731
Countdown: 0
SampleSet: Soft
StackLeniency: 0.7
Mode: 0
LetterboxInBreaks: 0
WidescreenStoryboard: 1

[Editor]
DistanceSpacing: 0.6
BeatDivisor: 4
GridSize: 32
TimelineZoom: 1

[Metadata]
Title:rumrum triplets
TitleUnicode:rumrum triplets
Artist:yu_tokiwa.djw
ArtistUnicode:yu_tokiwa.djw
Creator:Fsjallink
Version:Hard
Source:beatmania IIDX 20 tricoro
Tags:ayel japanese video game pop electronic 脇田潤 jun wakita wac 常盤ゆう yu tokiwa loungecore murmur twins linus
BeatmapID:3621487
BeatmapSetID:1757985

[Difficulty]
HPDrainRate:4
CircleSize:3.8
OverallDifficulty:6
ApproachRate:8
SliderMultiplier:1.4
SliderTickRate:1

[Events]
//Background and Video events
0,0,"3383a3c4-7d06-405d-87ea-9ebb8a9629ba (2).png",0,0
//Break Periods
2,36680,38231
//Storyboard Layer 0 (Background)
//Storyboard Layer 1 (Fail)
//Storyboard Layer 2 (Pass)
//Storyboard Layer 3 (Foreground)
//Storyboard Layer 4 (Overlay)
//Storyboard Sound Samples

[TimingPoints]
231,312.5,4,2,0,60,1,0
10231,-100,4,2,0,70,0,0
16793,-133.333333333333,4,2,0,50,0,0
21481,-100,4,2,0,60,0,0
46481,-125,4,2,0,50,0,0
51481,-100,4,2,0,60,0,0
61793,-100,4,2,0,50,0,0
63981,-100,4,2,0,60,0,0
65699,-133.333333333333,4,2,0,60,0,0
66481,-90.9090909090909,4,2,0,70,0,1
78981,-100,4,2,0,70,0,0
81481,-100,4,2,0,70,0,1
86481,-100,4,2,0,60,0,1
92574,-166.666666666667,4,2,0,50,0,0
97731,-125,4,2,0,60,0,0
101949,-100,4,2,0,60,0,0
102731,-90.9090909090909,4,2,0,70,0,1
112731,-100,4,2,0,60,0,0
118043,-100,4,2,0,50,0,0
120231,-100,4,2,0,60,0,0

[Colours]
Combo1 : 17,254,176
Combo2 : 173,255,95
Combo3 : 255,88,100
Combo4 : 255,94,55

[HitObjects]
256,192,2731,12,0,4918,0:0:0:0:
385,63,5231,6,0,P|377:149|375:225,1,140,0|0,1:0|1:0,0:0:0:0:
261,332,5856,2,0,P|269:246|271:170,1,140,0|2,1:0|1:2,0:0:0:0:
187,45,6481,2,0,P|179:131|177:207,1,140,0|0,1:0|1:0,0:0:0:0:
63,314,7106,2,0,P|71:228|73:152,1,140,0|2,1:0|1:2,0:0:0:0:
72,174,7731,6,0,P|134:187|160:188,1,70,0|0,1:0|0:0,0:0:0:0:
200,128,8043,2,0,P|234:132|268:141,1,70,0|0,1:0|0:0,0:0:0:0:
331,205,8356,1,0,1:0:0:0:
331,205,8512,1,0,0:0:0:0:
393,148,8668,2,0,P|404:94|404:60,2,70,2|0|0,1:2|1:2|1:0,0:0:0:0:
433,222,9137,2,0,P|428:270|434:306,1,70,0|0,1:0|1:0,0:0:0:0:
369,348,9449,1,0,1:0:0:0:
369,348,9527,1,0,3:0:0:0:
369,348,9606,2,0,P|311:326|274:319,1,70,0|8,1:0|1:3,0:0:0:0:
219,324,9918,2,0,P|171:338|167:340,2,35,4|0|4,1:3|1:0|1:3,0:0:0:0:
236,244,10231,5,4,1:2:0:0:
236,244,10309,1,10,0:0:0:0:
236,244,10387,2,0,P|233:184|238:153,1,70,10|10,0:0|0:0,0:0:0:0:
225,62,10699,2,0,P|184:70|126:166,1,140,2|8,1:2|1:2,0:0:0:0:
34,178,11168,5,4,1:2:0:0:
34,178,11246,1,10,0:0:0:0:
34,178,11324,2,0,P|38:240|36:265,1,70,10|10,0:0|0:0,0:0:0:0:
105,319,11637,2,0,P|159:288|235:273,1,140,2|8,1:2|1:2,0:0:0:0:
330,295,12106,2,0,P|327:338|326:361,2,35,0|0|8,1:0|0:0|1:2,0:0:0:0:
424,271,12418,2,0,P|474:282|522:265,1,70,4|10,1:2|0:0,0:0:0:0:
494,180,12731,6,0,P|444:169|396:186,1,70,10|0,0:0|1:0,0:0:0:0:
404,177,12965,1,0,3:0:0:0:
404,177,13043,1,10,1:2:0:0:
310,206,13199,1,0,1:0:0:0:
224,157,13356,2,0,P|189:163|162:172,2,35,0|0|0,1:0|1:0|1:0,0:0:0:0:
304,101,13668,1,0,1:0:0:0:
257,15,13824,1,0,1:0:0:0:
256,192,13981,12,2,16481,0:0:0:0:
256,86,17262,6,0,P|256:54|257:18,2,52.5000020027161,2|2|2,0:0|0:0|0:0,0:0:0:0:
256,298,18668,2,0,P|256:330|255:366,2,52.5000020027161,2|2|2,0:0|0:0|0:0,0:0:0:0:
256,190,19606,6,0,P|215:179|188:165,1,52.5000020027161,2|2,0:0|0:0,0:0:0:0:
150,126,19918,1,2,0:0:0:0:
82,154,20074,1,2,0:0:0:0:
82,154,21481,6,0,P|80:232|93:317,1,140,2|8,1:2|1:2,0:0:0:0:
282,315,22106,2,0,P|279:362|272:394,2,70,0|0|8,1:0|0:0|1:2,0:0:0:0:
226,234,22574,1,2,0:0:0:0:
226,234,22731,2,0,P|219:172|228:132,2,70,0|2|8,1:0|0:0|1:2,0:0:0:0:
330,226,23199,2,0,P|383:207|488:200,1,140,2|2,0:0|0:0,0:0:0:0:
500,290,23668,1,8,1:2:0:0:
406,275,23824,2,0,P|388:184|391:113,1,140,2|0,0:0|0:0,0:0:0:0:
435,67,24293,1,8,1:2:0:0:
252,112,24606,5,0,1:0:0:0:
252,112,24762,2,0,P|261:177|253:212,1,70,2|8,0:0|1:2,0:0:0:0:
172,223,25074,2,0,P|107:213|31:240,1,140,2|0,0:0|1:0,0:0:0:0:
31,137,25543,1,8,1:2:0:0:
31,137,25699,2,0,P|28:72|39:46,1,70,2|2,1:2|1:2,0:0:0:0:
117,25,26012,1,8,0:0:0:0:
117,25,26090,1,8,0:0:0:0:
117,25,26168,2,0,P|178:33|212:35,1,70,8|2,0:0|1:2,0:0:0:0:
301,84,26481,6,0,P|241:101|210:178,1,140,6|8,1:2|1:2,0:0:0:0:
249,261,26949,1,2,0:0:0:0:
249,261,27106,2,0,P|187:273|158:284,2,70,0|0|8,1:2|0:0|1:2,0:0:0:0:
321,195,27574,2,0,P|375:207|465:219,1,140,2|0,0:0|0:0,0:0:0:0:
504,125,28043,2,0,P|507:67|504:30,1,70,8|2,1:2|0:0,0:0:0:0:
402,125,28356,6,0,P|399:183|405:291,1,140,0|8,1:2|1:2,0:0:0:0:
336,337,28824,1,2,0:0:0:0:
262,271,28981,2,0,P|208:258|116:309,1,140,2|8,1:2|1:2,0:0:0:0:
55,256,29449,1,2,0:0:0:0:
32,174,29606,1,0,1:2:0:0:
112,150,29762,1,0,0:0:0:0:
136,230,29918,1,8,1:2:0:0:
209,189,30074,6,0,P|261:206|373:210,1,140,2|0,0:0|0:0,0:0:0:0:
451,214,30543,2,0,P|460:275|459:299,1,70,8|2,1:2|0:0,0:0:0:0:
357,215,30856,2,0,P|350:157|357:52,1,140,0|8,1:2|1:2,0:0:0:0:
353,75,31481,6,0,P|281:77|208:83,1,140,0|8,1:2|1:2,0:0:0:0:
115,87,31949,1,2,0:0:0:0:
112,185,32106,2,0,P|116:238|117:260,2,70,0|0|8,1:2|0:0|1:2,0:0:0:0:
13,186,32574,2,0,P|27:255|17:342,1,140,2|2,0:0|0:0,0:0:0:0:
107,372,33043,1,8,1:2:0:0:
187,316,33199,2,0,P|237:331|330:341,1,140,2|0,0:0|0:0,0:0:0:0:
422,342,33668,1,8,1:2:0:0:
422,342,33981,5,2,1:0:0:0:
369,259,34137,2,0,P|361:204|361:174,1,70,0|8,0:0|1:2,0:0:0:0:
437,68,34449,2,0,P|434:102|428:137,1,70,2|0,0:1|1:2,0:0:0:0:
323,120,34762,2,0,P|263:121|227:215,1,140,0|2,0:0|0:1,0:0:0:0:
123,237,35231,6,0,P|110:170|111:144,1,70,0|0,1:2|1:2,0:0:0:0:
136,74,35543,1,0,1:0:0:0:
232,59,35699,2,0,P|228:93|218:127,1,70,0|0,1:0|1:0,0:0:0:0:
215,145,35934,1,0,1:0:0:0:
215,145,36012,1,0,1:0:0:0:
282,216,36168,1,0,1:0:0:0:
371,175,36324,2,0,P|451:183|453:183,1,70,0|0,1:0|1:0,0:0:0:0:
440,182,38981,6,0,P|425:280|413:340,1,140,0|0,1:0|1:0,0:0:0:0:
181,351,39606,2,0,P|196:253|208:193,1,140,0|0,1:0|1:0,0:0:0:0:
361,171,40231,2,0,P|346:269|334:329,1,140,0|0,1:0|1:0,0:0:0:0:
92,341,40856,1,0,1:0:0:0:
92,341,40934,1,0,1:0:0:0:
92,341,41012,2,0,L|104:280,5,35,0|0|8|0|0|0,1:0|1:0|1:0|1:0|1:0|1:0,0:0:0:0:
80,344,41481,6,0,P|29:319|28:226,1,140,2|10,1:2|1:2,0:0:0:0:
74,171,41949,1,0,0:0:0:0:
152,218,42106,1,2,1:2:0:0:
152,218,42262,2,0,P|210:215|243:210,1,70,2|10,1:2|1:2,0:0:0:0:
281,144,42574,2,0,P|259:219|293:278,1,140,2|2,0:0|0:0,0:0:0:0:
300,285,42965,1,0,1:2:0:0:
300,285,43043,2,0,P|380:278|399:274,1,70,10|8,1:2|1:2,0:0:0:0:
422,204,43356,6,0,P|342:197|323:193,1,70,2|2,1:2|0:0,0:0:0:0:
323,112,43668,1,10,1:2:0:0:
242,154,43824,2,0,P|195:172|104:141,1,140,2|0,1:2|0:0,0:0:0:0:
37,94,44293,2,0,P|60:44|68:13,1,70,10|0,1:2|1:0,0:0:0:0:
71,15,44527,1,0,1:0:0:0:
71,15,44606,1,2,1:2:0:0:
23,187,44918,6,0,P|27:254|54:329,1,140,10|2,1:2|1:2,0:0:0:0:
140,361,45387,1,8,1:2:0:0:
217,300,45543,2,0,P|214:222|206:207,1,70,10|0,1:2|1:0,0:0:0:0:
210,212,45777,1,0,1:0:0:0:
210,212,45856,1,2,1:2:0:0:
191,115,46012,1,0,1:0:0:0:
288,115,46168,2,0,P|346:114|373:103,1,70,10|0,1:2|1:0,0:0:0:0:
406,55,46481,6,0,P|395:153|397:185,1,112,2|2,0:0|0:0,0:0:0:0:
501,328,47106,2,0,P|512:230|510:198,1,112,2|0,0:0|0:0,0:0:0:0:
511,216,47731,6,0,P|459:248|389:239,1,112,2|2,0:0|0:0,0:0:0:0:
295,56,48356,2,0,P|347:24|417:33,1,112,2|0,0:0|0:0,0:0:0:0:
477,46,48824,1,2,0:0:0:0:
477,46,48981,6,0,P|458:100|455:167,1,112,2|0,0:0|0:0,0:0:0:0:
280,283,49606,2,0,P|299:229|302:162,1,112,2|0,0:0|0:0,0:0:0:0:
303,174,50231,6,0,P|208:205|131:192,2,168,2|2|4,0:0|0:0|1:2,0:0:0:0:
321,170,51246,1,0,1:0:0:0:
321,170,51324,1,0,1:0:0:0:
425,182,51481,6,0,P|419:241|437:348,1,140,2|8,1:0|1:2,0:0:0:0:
338,374,51949,1,2,0:0:0:0:
257,305,52106,2,0,P|198:297|109:355,1,140,0|8,1:0|1:2,0:0:0:0:
26,304,52574,1,2,0:0:0:0:
101,230,52731,2,0,P|88:177|106:86,1,140,0|8,1:0|1:2,0:0:0:0:
180,24,53199,1,2,0:0:0:0:
241,109,53356,2,0,P|295:100|316:93,1,70,0|0,1:0|0:0,0:0:0:0:
383,20,53668,2,0,P|329:11|308:4,1,70,8|2,1:2|0:0,0:0:0:0:
400,106,53981,6,0,P|439:91|463:-7,1,140,0|8,1:0|1:2,0:0:0:0:
504,81,54449,1,2,0:0:0:0:
504,81,54606,2,0,P|504:150|516:232,1,140,0|8,1:0|1:2,0:0:0:0:
452,288,55074,1,0,1:0:0:0:
388,222,55231,5,0,1:0:0:0:
310,292,55387,1,0,1:0:0:0:
233,220,55543,1,8,1:2:0:0:
421,185,55856,2,0,L|430:122,3,35,2|2|2|2,1:2|0:2|1:2|0:2,0:0:0:0:
383,120,56168,2,0,L|374:57,3,35,10|2|0|2,1:2|0:0|1:2|1:2,0:0:0:0:
416,48,56481,5,6,1:2:0:0:
227,140,56793,1,8,1:2:0:0:
46,31,57106,1,2,1:2:0:0:
46,31,57262,2,0,P|46:88|60:127,1,70,2|8,0:0|1:2,0:0:0:0:
133,146,57574,1,2,0:0:0:0:
133,146,57730,2,0,P|133:203|119:242,1,70,2|0,1:2|0:0,0:0:0:0:
50,256,58043,1,10,1:2:0:0:
50,256,58199,2,0,P|50:313|64:352,1,70,2|0,0:0|1:0,0:0:0:0:
134,366,58512,2,0,P|175:375|177:376,5,35,2|0|10|0|0|0,0:0|0:0|1:2|0:0|0:0|0:0,0:0:0:0:
210,353,58981,5,0,1:0:0:0:
293,191,59293,1,10,1:2:0:0:
405,340,59606,1,2,1:2:0:0:
405,340,59762,2,0,P|405:283|419:244,1,70,2|8,0:0|1:2,0:0:0:0:
492,225,60074,1,2,0:0:0:0:
492,225,60230,2,0,P|492:168|478:129,1,70,2|0,1:2|0:0,0:0:0:0:
409,115,60543,1,10,1:2:0:0:
409,115,60699,2,0,P|409:58|423:19,1,70,2|0,0:0|1:0,0:0:0:0:
496,11,61012,1,10,0:0:0:0:
496,11,61168,1,10,1:2:0:0:
324,71,61481,5,4,0:0:0:0:
456,195,61793,2,0,L|403:207,11,35,0|0|0|0|0|0|0|0|0|0|0|0,3:0|3:0|3:0|3:0|3:0|3:0|3:0|3:0|3:0|3:0|3:0|3:0,0:0:0:0:
394,240,62731,2,0,L|359:232,7,35,0|0|0|0|0|0|0|0,3:0|3:0|3:0|3:0|3:0|3:0|3:0|3:0,0:0:0:0:
324,202,63356,2,0,L|289:209,7,35,0|0|0|0|0|0|0|0,3:0|3:0|3:0|3:0|3:0|3:0|3:0|3:0,0:0:0:0:
257,242,63981,6,0,P|181:228|173:227,1,70,6|0,1:2|3:0,0:0:0:0:
124,164,64293,2,0,P|96:174|75:181,2,35,6|0|0,1:2|3:3|3:3,0:0:0:0:
198,110,64606,2,0,P|226:120|247:127,2,35,6|0|0,1:2|3:3|3:3,0:0:0:0:
130,49,64918,2,0,P|102:59|81:66,2,35,6|0|0,1:2|3:3|3:3,0:0:0:0:
210,4,65231,1,6,1:2:0:0:
230,9,65309,1,8,0:0:0:0:
250,14,65387,1,8,0:0:0:0:
270,18,65465,1,8,0:0:0:0:
290,22,65543,1,6,1:2:0:0:
290,22,66481,6,0,P|280:97|301:193,2,154.000004699707,6|8|0,1:2|1:2|1:2,0:0:0:0:
394,210,67418,1,8,1:2:0:0:
298,259,67574,1,0,1:2:0:0:
199,213,67731,2,0,P|158:203|98:198,1,77.0000023498536,0|8,1:2|0:2,0:0:0:0:
39,266,68043,6,0,P|77:320|160:311,1,154.000004699707,10|2,1:2|1:2,0:0:0:0:
261,281,68512,1,0,1:0:0:0:
261,281,68668,2,0,P|266:338|273:373,1,77.0000023498536,10|8,1:2|0:2,0:0:0:0:
377,351,68981,2,0,P|386:285|468:245,1,154.000004699707,2|8,1:2|1:2,0:0:0:0:
460,328,69449,1,0,1:0:0:0:
460,328,69606,1,0,1:2:0:0:
490,114,69918,5,10,1:2:0:0:
402,144,70074,1,2,0:0:0:0:
330,84,70231,2,0,P|277:71|231:61,1,77.0000023498536,2|0,1:2|1:0,0:0:0:0:
165,111,70543,2,0,P|160:171|158:214,1,77.0000023498536,8|2,1:2|0:0,0:0:0:0:
163,207,70777,1,2,0:0:0:0:
163,207,70856,1,2,1:2:0:0:
222,287,71012,2,0,P|281:272|306:261,2,77.0000023498536,2|8|8,0:0|1:2|0:0,0:0:0:0:
81,273,71481,6,0,P|48:220|70:106,1,154.000004699707,6|8,1:2|1:2,0:0:0:0:
163,179,71949,2,0,P|196:126|174:12,1,154.000004699707,2|2,1:2|0:0,0:0:0:0:
286,9,72418,1,8,1:2:0:0:
325,100,72574,2,0,P|309:142|331:248,1,154.000004699707,0|2,1:0|0:0,0:0:0:0:
425,277,73043,2,0,P|476:261|512:258,1,77.0000023498536,8|0,1:2|0:0,0:0:0:0:
495,358,73356,1,2,1:2:0:0:
403,180,73668,1,10,1:2:0:0:
256,317,73981,6,0,P|189:329|102:319,1,154.000004699707,2|8,1:2|1:2,0:0:0:0:
51,234,74449,2,0,P|43:176|73:79,1,154.000004699707,2|8,1:2|0:0,0:0:0:0:
156,134,74918,1,8,1:2:0:0:
151,233,75074,2,0,P|206:239|243:237,1,77.0000023498536,2|0,0:0|1:2,0:0:0:0:
327,249,75387,2,0,P|330:291|330:305,2,38.5000011749268,8|0|8,1:2|1:0|1:2,0:0:0:0:
425,229,75699,2,0,P|414:169|436:70,1,154.000004699707,2|2,1:2|1:2,0:0:0:0:
349,20,76168,1,10,1:2:0:0:
283,95,76324,1,4,1:2:0:0:
283,95,76402,1,0,1:0:0:0:
283,95,76481,6,0,P|206:85|128:81,1,154.000004699707,4|8,1:2|1:2,0:0:0:0:
50,142,76949,2,0,P|51:200|61:239,1,77.0000023498536,0|0,0:0|1:2,0:0:0:0:
135,264,77262,1,8,0:2:0:0:
221,231,77418,1,8,1:2:0:0:
242,320,77574,1,0,1:0:0:0:
327,284,77731,2,0,P|384:281|463:340,2,154.000004699707,0|8|0,1:2|1:2|1:2,0:0:0:0:
72,339,78668,5,8,1:2:0:0:
36,253,78824,1,0,1:2:0:0:
36,253,78902,1,0,1:2:0:0:
36,253,78981,2,0,L|42:168,1,70,6|0,1:2|1:0,0:0:0:0:
172,77,79449,5,0,1:2:0:0:
172,77,79527,1,0,1:2:0:0:
172,77,79606,2,0,L|178:162,1,70,6|0,1:2|1:0,0:0:0:0:
311,263,80074,5,0,1:2:0:0:
311,263,80152,1,0,1:2:0:0:
311,263,80231,2,0,L|317:178,2,70,6|10|2,1:2|0:0|1:2,0:0:0:0:
259,329,80699,2,0,P|211:298|107:313,1,140,6|8,1:2|1:3,0:0:0:0:
69,241,81168,2,0,P|84:199|81:152,1,70,4|8,1:3|0:0,0:0:0:0:
70,49,81481,6,0,P|10:89|24:177,1,140,6|8,1:2|1:2,0:0:0:0:
115,205,81949,2,0,P|175:165|161:77,1,140,2|0,1:2|0:0,0:0:0:0:
161,5,82418,1,8,1:2:0:0:
250,45,82574,1,8,0:0:0:0:
348,40,82731,2,0,P|401:24|501:43,1,140,2|8,1:2|1:2,0:0:0:0:
443,124,83199,2,0,P|390:140|290:121,1,140,2|2,1:2|0:2,0:0:0:0:
216,166,83668,1,8,1:2:0:0:
469,350,83981,5,0,1:2:0:0:
378,312,84137,2,0,P|376:241|405:170,2,140,2|2|10,0:2|1:2|1:2,0:0:0:0:
292,360,84918,2,0,P|278:304|281:264,1,70,8|8,1:2|0:0,0:0:0:0:
227,207,85231,5,0,1:2:0:0:
159,287,85387,1,0,1:0:0:0:
76,222,85543,1,8,1:2:0:0:
349,196,85856,2,0,P|337:137|351:42,1,140,0|8,1:2|1:2,0:0:0:0:
254,21,86324,1,0,1:0:0:0:
254,21,86402,1,0,1:0:0:0:
254,21,86481,6,0,P|186:34|160:33,1,70,6|0,1:2|0:0,0:0:0:0:
116,102,86793,1,8,1:2:0:0:
36,44,86949,2,0,P|21:100|23:133,1,70,4|0,0:0|1:2,0:0:0:0:
76,193,87262,1,0,1:0:0:0:
76,193,87418,1,12,1:2:0:0:
172,178,87574,2,0,P|172:241|130:337,1,140,8|4,1:0|0:0,0:0:0:0:
212,382,88043,1,8,1:2:0:0:
248,291,88199,2,0,P|259:233|252:197,1,70,8|0,0:0|1:2,0:0:0:0:
261,124,88512,1,2,1:2:0:0:
349,164,88668,1,12,1:2:0:0:
434,117,88824,6,0,P|404:176|415:263,1,140,2|4,1:2|0:0,0:0:0:0:
384,343,89293,2,0,P|330:326|290:321,1,70,8|0,1:2|1:0,0:0:0:0:
291,319,89527,1,0,1:0:0:0:
291,319,89606,1,0,1:2:0:0:
197,346,89762,2,0,P|162:353|129:365,1,70,8|12,0:0|1:2,0:0:0:0:
38,330,90074,1,0,1:0:0:0:
111,264,90231,1,2,1:0:0:0:
256,192,90387,12,2,92574,0:0:0:0:
403,169,93356,5,2,0:0:0:0:
398,206,93512,1,2,0:0:0:0:
394,243,93668,1,2,0:0:0:0:
391,280,93824,1,2,0:0:0:0:
276,331,94293,6,0,P|216:345|188:348,3,83.9999974365235,2|2|2|2,0:0|0:0|0:0|0:0,0:0:0:0:
129,219,95856,5,2,0:0:0:0:
93,204,96012,1,2,0:0:0:0:
79,239,96168,1,2,0:0:0:0:
113,254,96324,1,2,0:0:0:0:
230,223,97731,6,0,P|209:139|219:96,1,112,0|2,1:2|1:2,0:0:0:0:
231,41,98199,1,2,0:0:0:0:
231,41,98356,2,0,P|180:34|155:32,2,56,0|0|2,1:2|0:0|1:2,0:0:0:0:
303,93,98824,2,0,P|347:71|418:62,1,112,2|0,0:0|0:0,0:0:0:0:
488,103,99293,1,2,1:2:0:0:
488,103,99449,2,0,P|478:211|483:232,1,112,2|0,0:0|0:0,0:0:0:0:
507,291,99918,1,2,1:2:0:0:
380,326,100231,5,0,1:2:0:0:
294,312,100387,2,0,P|245:329|216:333,2,56,2|2|0,0:0|1:2|0:0,0:0:0:0:
303,229,100856,2,0,P|303:186|307:156,1,56,0|2,1:2|0:0,0:0:0:0:
374,154,101168,2,0,P|374:111|370:81,1,56,2|2,1:2|0:0,0:0:0:0:
322,44,101481,6,0,P|235:72|230:98,1,112,0|8,1:0|1:2,0:0:0:0:
212,161,101949,1,8,0:0:0:0:
128,152,102106,2,0,P|67:142|28:140,2,70,10|10|10,0:0|0:0|0:0,0:0:0:0:
155,232,102574,1,2,1:2:0:0:
155,232,102652,1,2,1:2:0:0:
155,232,102731,2,0,P|150:283|149:320,1,77.0000023498536,2|0,1:2|1:0,0:0:0:0:
247,369,103043,6,0,P|289:365|334:267,1,154.000004699707,12|0,1:2|1:2,0:0:0:0:
267,201,103512,1,0,1:0:0:0:
351,147,103668,1,8,1:2:0:0:
422,216,103824,2,0,P|423:263|431:302,2,77.0000023498536,8|0|0,0:0|1:2|0:0,0:0:0:0:
509,166,104293,2,0,P|522:113|490:18,1,154.000004699707,8|2,1:2|1:2,0:0:0:0:
399,21,104762,1,2,0:0:0:0:
399,21,104840,1,2,0:0:0:0:
399,21,104918,2,0,P|333:34|296:32,1,77.0000023498536,10|0,1:2|1:0,0:0:0:0:
249,102,105231,2,0,P|250:154|256:192,1,77.0000023498536,0|0,1:2|0:0,0:0:0:0:
171,235,105543,2,0,P|170:183|164:145,1,77.0000023498536,8|0,1:2|1:0,0:0:0:0:
135,62,105856,5,0,1:2:0:0:
52,118,106012,1,0,1:0:0:0:
92,209,106168,1,8,1:2:0:0:
19,277,106324,2,0,P|65:322|166:299,1,154.000004699707,8|0,0:0|0:0,0:0:0:0:
248,295,106793,6,0,P|249:334|246:367,2,38.5000011749268,10|2|2,1:2|0:0|0:0,0:0:0:0:
191,211,107106,1,2,1:2:0:0:
191,211,107184,1,2,0:0:0:0:
191,211,107262,2,0,P|206:165|207:128,1,77.0000023498536,2|10,0:0|1:2,0:0:0:0:
155,51,107574,1,2,1:1:0:0:
448,114,108043,6,0,P|446:57|457:24,2,77.0000023498536,8|0|0,1:2|1:1|1:2,0:0:0:0:
380,188,108512,1,0,0:0:0:0:
456,252,108668,1,8,1:2:0:0:
394,330,108824,2,0,P|348:351|266:273,1,154.000004699707,8|2,0:0|1:2,0:0:0:0:
285,198,109293,1,8,1:2:0:0:
199,240,109449,1,0,1:0:0:0:
199,240,109527,1,0,1:0:0:0:
199,240,109606,2,0,P|192:190|201:131,1,77.0000023498536,0|0,1:2|0:0,0:0:0:0:
110,108,109918,1,8,1:2:0:0:
189,47,110074,6,0,P|243:31|346:45,1,154.000004699707,10|8,0:0|0:0,0:0:0:0:
337,142,110543,1,8,1:2:0:0:
433,114,110699,2,0,P|501:112|542:109,1,77.0000023498536,2|0,1:2|1:2,0:0:0:0:
507,212,111012,1,8,0:0:0:0:
507,212,111168,2,0,P|448:216|410:243,1,77.0000023498536,8|2,1:2|2:0,0:0:0:0:
360,314,111481,5,0,1:2:0:0:
279,231,111637,1,0,1:2:0:0:
218,328,111793,1,4,1:2:0:0:
30,191,112106,6,0,P|33:254|35:292,1,77.0000023498536,0|0,1:0|1:0,0:0:0:0:
36,289,112340,1,0,0:0:0:0:
36,289,112418,1,8,1:2:0:0:
136,344,112574,1,0,1:0:0:0:
123,239,112731,2,0,P|111:185|133:92,1,140,6|8,1:2|1:2,0:0:0:0:
324,24,113356,5,2,1:2:0:0:
324,24,113512,2,0,P|324:81|310:120,1,70,2|8,0:0|1:2,0:0:0:0:
237,139,113824,1,2,0:0:0:0:
237,139,113980,2,0,P|237:196|251:235,1,70,2|0,1:2|0:0,0:0:0:0:
320,249,114293,1,10,1:2:0:0:
320,249,114449,2,0,P|320:306|306:345,1,70,2|0,0:0|1:2,0:0:0:0:
241,370,114762,1,2,0:0:0:0:
241,370,114918,1,10,1:2:0:0:
60,346,115231,5,0,1:2:0:0:
230,282,115543,1,8,1:2:0:0:
393,361,115856,2,0,P|445:372|465:374,3,70,2|2|10|2,1:2|0:0|1:2|0:0,0:0:0:0:
194,339,116793,5,10,1:2:0:0:
194,339,116949,2,0,P|194:282|180:243,1,70,2|0,0:0|1:2,0:0:0:0:
107,224,117261,1,10,0:2:0:0:
107,224,117417,2,0,P|107:167|121:128,1,70,8|0,1:2|0:0,0:0:0:0:
188,107,117731,5,4,0:0:0:0:
369,98,118043,2,0,L|372:133,11,35,0|0|0|0|0|0|0|0|0|0|0|0,3:0|3:0|3:0|3:0|3:0|3:0|3:0|3:0|3:0|3:0|3:0|3:0,0:0:0:0:
333,157,118981,2,0,L|330:192,7,35,0|0|0|0|0|0|0|0,3:0|3:0|3:0|3:0|3:0|3:0|3:0|3:0,0:0:0:0:
369,214,119606,2,0,L|372:249,7,35,0|0|0|0|0|0|0|0,3:0|3:0|3:0|3:0|3:0|3:0|3:0|3:0,0:0:0:0:
358,292,120231,6,0,P|295:287|259:277,1,70,6|0,1:2|3:3,0:0:0:0:
205,322,120543,2,0,P|209:371|211:379,2,35,6|0|0,1:2|3:3|3:3,0:0:0:0:
124,279,120856,2,0,P|120:230|118:222,2,35,6|0|0,1:2|3:3|3:3,0:0:0:0:
51,335,121168,2,0,P|55:384|57:392,2,35,6|0|0,1:2|3:3|3:3,0:0:0:0:
4,256,121481,1,6,1:2:0:0:
6,235,121559,1,8,0:0:0:0:
8,214,121637,1,8,0:0:0:0:
11,193,121715,1,8,0:0:0:0:
13,172,121793,2,0,L|19:93,1,70,6|6,1:2|1:2,0:0:0:0:
256,192,122106,12,2,123981,0:0:0:0:
