osu file format v14

[General]
AudioFilename: audio.mp3
AudioLeadIn: 0
PreviewTime: 92731
Countdown: 0
SampleSet: Soft
StackLeniency: 0.7
Mode: 0
LetterboxInBreaks: 0
WidescreenStoryboard: 0

[Editor]
DistanceSpacing: 0.3
BeatDivisor: 4
GridSize: 32
TimelineZoom: 1.5

[Metadata]
Title:rumrum triplets
TitleUnicode:rumrum triplets
Artist:yu_tokiwa.djw
ArtistUnicode:yu_tokiwa.djw
Creator:Fsjallink
Version:Cuddle
Source:beatmania IIDX 20 tricoro
Tags:ayel japanese video game pop electronic 脇田潤 jun wakita wac 常盤ゆう yu tokiwa loungecore murmur twins linus
BeatmapID:3597653
BeatmapSetID:1757985

[Difficulty]
HPDrainRate:6
CircleSize:4
OverallDifficulty:8
ApproachRate:9
SliderMultiplier:1.8
SliderTickRate:1

[Events]
//Background and Video events
0,0,"3383a3c4-7d06-405d-87ea-9ebb8a9629ba (2).png",0,0
//Break Periods
2,36681,38381
//Storyboard Layer 0 (Background)
//Storyboard Layer 1 (Fail)
//Storyboard Layer 2 (Pass)
//Storyboard Layer 3 (Foreground)
//Storyboard Layer 4 (Overlay)
//Storyboard Sound Samples

[TimingPoints]
231,312.5,4,2,0,60,1,0
10231,-100,4,2,0,70,0,0
16793,-166.666666666667,4,2,0,50,0,0
21481,-100,4,2,0,60,0,0
46481,-133.333333333333,4,2,0,50,0,0
51481,-100,4,2,0,60,0,0
61793,-100,4,2,0,50,0,0
63981,-100,4,2,0,60,0,0
65699,-133.333333333333,4,2,0,60,0,0
66481,-100,4,2,0,70,0,1
78981,-100,4,2,0,70,0,0
81481,-100,4,2,0,70,0,1
86481,-100,4,2,0,60,0,1
92574,-166.666666666667,4,2,0,50,0,0
97731,-133.333333333333,4,2,0,60,0,0
102731,-100,4,2,0,70,0,1
112731,-100,4,2,0,60,0,0
118043,-100,4,2,0,50,0,0
120231,-100,4,2,0,60,0,0

[Colours]
Combo1 : 17,254,176
Combo2 : 173,255,95
Combo3 : 255,88,100
Combo4 : 255,94,55

[HitObjects]
256,192,2731,12,0,4918,0:0:0:0:
337,314,5231,6,0,P|374:272|403:235,1,90,0|0,1:0|0:0,0:0:0:0:
339,47,5543,2,0,P|302:89|273:126,1,90,0|0,1:0|0:0,0:0:0:0:
441,178,5856,2,0,P|399:141|362:112,1,90,0|0,1:0|0:0,0:0:0:0:
222,177,6168,2,0,P|264:214|301:243,1,90,2|0,1:2|0:0,0:0:0:0:
237,308,6481,6,0,P|184:332|129:362,1,90,0|0,1:0|0:0,0:0:0:0:
68,323,6793,1,0,1:0:0:0:
68,323,6949,1,0,0:0:0:0:
60,232,7106,2,0,P|52:186|38:125,1,90,0|0,1:0|0:0,0:0:0:0:
107,14,7418,2,0,P|115:60|129:121,1,90,2|0,1:2|1:2,0:0:0:0:
198,154,7731,6,0,P|256:137|316:122,1,90,0|0,1:0|0:0,0:0:0:0:
366,93,8043,1,0,1:0:0:0:
357,182,8199,1,0,0:0:0:0:
267,191,8356,2,0,P|234:86|231:70,1,90,0|0,1:0|0:0,0:0:0:0:
216,18,8668,1,2,1:2:0:0:
216,18,8824,1,0,1:2:0:0:
135,59,8981,6,0,P|84:80|43:95,1,90,0|0,1:0|1:0,0:0:0:0:
35,180,9293,1,0,1:0:0:0:
74,260,9449,1,0,1:0:0:0:
74,260,9527,1,0,3:0:0:0:
74,260,9606,1,0,1:0:0:0:
156,225,9762,1,8,1:3:0:0:
122,141,9918,1,4,1:3:0:0:
122,141,9996,1,0,1:0:0:0:
122,141,10074,1,4,1:3:0:0:
210,157,10231,5,4,1:2:0:0:
239,168,10309,1,10,0:0:0:0:
269,173,10387,1,10,0:0:0:0:
300,176,10465,1,10,0:0:0:0:
331,175,10543,2,0,P|395:165|434:159,1,90,10|2,0:0|1:2,0:0:0:0:
395,53,10856,1,8,1:2:0:0:
293,68,11012,1,8,1:2:0:0:
254,258,11168,5,4,1:2:0:0:
285,262,11246,1,10,0:0:0:0:
316,262,11324,1,10,0:0:0:0:
347,262,11402,1,10,0:0:0:0:
378,258,11481,1,10,0:0:0:0:
485,225,11637,1,2,1:2:0:0:
485,225,11715,1,0,1:0:0:0:
485,225,11793,6,0,P|478:283|464:350,1,90,8|8,1:2|1:2,0:0:0:0:
309,310,12106,2,0,P|313:265|321:220,1,90,0|8,1:0|1:2,0:0:0:0:
316,121,12418,1,4,1:2:0:0:
316,121,12496,1,10,0:0:0:0:
316,121,12574,1,10,0:0:0:0:
246,204,12731,5,10,0:0:0:0:
171,140,12887,1,0,1:0:0:0:
171,140,12965,1,0,3:0:0:0:
171,140,13043,1,10,1:2:0:0:
229,49,13199,1,0,1:0:0:0:
316,121,13356,5,0,1:0:0:0:
316,121,13434,1,0,1:0:0:0:
316,121,13512,1,0,1:0:0:0:
383,237,13668,1,0,1:0:0:0:
503,177,13824,1,0,1:0:0:0:
256,192,13902,12,2,16481,0:0:0:0:
171,316,17262,5,2,0:0:0:0:
127,247,17418,1,2,0:0:0:0:
146,168,17574,1,2,0:0:0:0:
393,61,18668,1,2,0:0:0:0:
485,79,18824,1,2,0:0:0:0:
393,61,18981,1,2,0:0:0:0:
414,345,19606,5,2,0:0:0:0:
368,278,19762,1,2,0:0:0:0:
288,261,19918,1,2,0:0:0:0:
212,289,20074,1,2,0:0:0:0:
68,328,21481,6,0,P|69:236|73:143,1,180,2|8,1:2|1:2,0:0:0:0:
78,58,21949,1,0,0:0:0:0:
155,104,22106,1,0,1:0:0:0:
288,82,22262,1,0,1:0:0:0:
321,212,22418,1,8,1:2:0:0:
190,247,22574,1,2,0:0:0:0:
249,314,22731,6,0,P|299:315|348:314,1,90,0|0,1:0|0:0,0:0:0:0:
427,357,23043,1,8,1:2:0:0:
427,357,23199,2,0,P|423:306|416:256,1,90,2|0,1:2|1:0,0:0:0:0:
510,297,23512,2,0,P|513:232|507:116,1,180,0|0,1:0|0:0,0:0:0:0:
417,49,23981,2,0,P|363:54|220:83,2,180,0|8|0,1:0|1:2|1:0,0:0:0:0:
487,118,24762,1,8,0:0:0:0:
431,240,24918,1,8,1:2:0:0:
313,174,25074,1,0,1:0:0:0:
311,268,25231,5,0,1:0:0:0:
185,316,25387,1,0,1:0:0:0:
141,182,25543,1,8,1:2:0:0:
151,167,25621,1,2,1:2:0:0:
159,151,25699,1,2,1:2:0:0:
167,134,25777,1,2,1:2:0:0:
161,116,25856,1,2,1:2:0:0:
155,98,25934,1,2,1:2:0:0:
148,81,26012,1,8,0:0:0:0:
141,64,26090,1,8,0:0:0:0:
127,66,26168,2,0,P|49:76|4:85,1,90,8|2,0:0|1:2,0:0:0:0:
134,219,26481,6,0,P|224:223|321:230,1,180,6|8,1:2|1:2,0:0:0:0:
374,163,26949,1,2,0:0:0:0:
462,253,27106,1,0,1:2:0:0:
369,338,27262,1,0,1:0:0:0:
284,245,27418,1,8,1:2:0:0:
262,337,27574,6,0,P|172:341|75:348,1,180,0|0,1:0|0:0,0:0:0:0:
21,270,28043,1,8,1:2:0:0:
102,185,28199,1,2,0:0:0:0:
149,285,28356,2,0,P|146:344|139:402,1,90,0|0,1:2|0:0,0:0:0:0:
87,179,28668,2,0,P|90:120|97:62,1,90,8|0,1:2|0:0,0:0:0:0:
209,43,28981,6,0,P|220:135|223:227,1,180,0|8,1:2|1:2,0:0:0:0:
296,291,29449,1,2,0:0:0:0:
193,356,29606,1,0,1:2:0:0:
142,247,29762,1,8,0:0:0:0:
256,175,29918,1,8,1:2:0:0:
116,221,30074,1,0,1:0:0:0:
116,221,30231,5,0,1:2:0:0:
142,72,30387,1,0,0:0:0:0:
4,126,30543,1,8,1:2:0:0:
31,20,30699,2,0,P|119:32|247:32,1,180,2|0,0:0|0:0,0:0:0:0:
329,49,31168,2,0,P|382:39|453:31,1,90,8|0,1:2|0:0,0:0:0:0:
394,153,31481,6,0,P|311:146|202:149,1,180,0|8,1:2|1:2,0:0:0:0:
148,209,31949,1,2,0:0:0:0:
195,345,32106,1,0,1:2:0:0:
333,306,32262,1,8,0:0:0:0:
291,168,32418,1,8,1:2:0:0:
371,208,32574,2,0,P|349:289|338:386,2,180,0|2|2,1:0|0:0|0:0,0:0:0:0:
438,147,33356,2,0,P|500:164|535:179,1,90,0|0,1:2|0:0,0:0:0:0:
320,281,33668,2,0,P|258:264|223:249,1,90,8|0,1:2|0:0,0:0:0:0:
199,170,33981,5,2,1:0:0:0:
99,230,34137,1,8,0:0:0:0:
8,156,34293,1,8,1:2:0:0:
101,240,34449,2,0,P|95:300|91:349,1,90,2|0,1:1|1:2,0:0:0:0:
195,162,34762,2,0,P|201:102|205:53,1,90,2|8,1:0|1:2,0:0:0:0:
108,107,35074,6,0,P|179:120|315:135,1,180,2|0,0:1|1:2,0:0:0:0:
422,101,35543,2,0,P|418:52|418:37,3,45,0|0|0|0,1:0|1:0|1:0|1:0,0:0:0:0:
429,120,35856,1,0,1:0:0:0:
434,137,35934,1,0,1:0:0:0:
438,154,36012,1,0,1:0:0:0:
441,171,36090,1,0,1:0:0:0:
437,188,36168,1,0,1:0:0:0:
431,204,36246,1,0,1:0:0:0:
424,220,36324,1,0,1:0:0:0:
417,236,36402,1,0,1:0:0:0:
409,252,36481,1,0,1:0:0:0:
404,289,38981,6,0,P|333:287|223:298,1,180,0|0,1:0|1:0,0:0:0:0:
108,95,39606,2,0,P|179:97|289:86,1,180,0|0,1:0|1:0,0:0:0:0:
141,266,40231,2,0,P|137:197|134:170,1,90,0|0,1:0|0:0,0:0:0:0:
371,117,40543,2,0,P|373:162|377:207,1,90,0|0,1:0|0:0,0:0:0:0:
256,242,40856,1,0,1:0:0:0:
253,224,40934,1,0,1:0:0:0:
251,206,41012,1,0,1:0:0:0:
251,188,41090,1,0,1:0:0:0:
252,170,41168,1,8,1:0:0:0:
254,152,41246,1,0,0:0:0:0:
256,134,41324,1,0,1:0:0:0:
254,116,41402,1,0,0:0:0:0:
253,97,41481,6,0,P|254:40|256:-9,1,90,2|0,1:2|0:0,0:0:0:0:
147,119,41793,2,0,P|146:176|144:225,1,90,10|0,1:2|0:0,0:0:0:0:
68,278,42106,1,2,1:2:0:0:
1,210,42262,1,2,1:2:0:0:
1,210,42340,1,0,1:2:0:0:
1,210,42418,1,10,1:2:0:0:
59,153,42574,2,0,P|156:166|248:187,1,180,2|2,0:0|0:0,0:0:0:0:
253,188,42965,1,0,1:2:0:0:
269,194,43043,2,0,P|261:253|253:291,1,90,10|8,1:2|1:2,0:0:0:0:
320,358,43356,5,2,1:2:0:0:
399,298,43512,2,0,P|395:220|401:112,1,180,2|2,0:0|1:2,0:0:0:0:
405,100,43902,1,0,1:0:0:0:
415,84,43981,2,0,P|491:78|529:77,1,90,2|0,1:2|0:0,0:0:0:0:
432,219,44293,2,0,P|356:225|318:226,1,90,10|0,1:2|0:0,0:0:0:0:
255,179,44606,6,0,P|259:101|253:-7,2,180,2|10|2,1:2|1:2|1:2,0:0:0:0:
192,236,45387,1,8,1:2:0:0:
96,116,45543,1,10,1:2:0:0:
36,171,45699,1,0,1:0:0:0:
36,171,45777,1,0,1:0:0:0:
36,171,45856,1,2,1:2:0:0:
124,291,46012,1,0,1:0:0:0:
42,267,46168,1,10,1:2:0:0:
182,143,46324,1,0,1:0:0:0:
200,234,46481,6,0,P|204:290|209:324,1,67.5000025749208,2|0,0:0|0:0,0:0:0:0:
375,222,46793,2,0,P|371:166|366:132,1,67.5000025749208,2|0,0:0|0:0,0:0:0:0:
287,177,47106,2,0,P|290:239|303:330,1,135.000005149842,2|0,0:0|0:0,0:0:0:0:
465,99,47731,6,0,P|461:155|456:189,1,67.5000025749208,2|0,0:0|0:0,0:0:0:0:
290,87,48043,2,0,P|294:31|299:-3,1,67.5000025749208,2|0,0:0|0:0,0:0:0:0:
378,42,48356,2,0,P|375:104|362:195,1,135.000005149842,2|0,0:0|0:0,0:0:0:0:
284,170,48824,1,2,0:0:0:0:
290,87,48981,2,0,P|211:91|143:100,1,135.000005149842,2|0,0:0|0:0,0:0:0:0:
80,127,49449,1,2,0:0:0:0:
101,206,49606,2,0,P|168:208|235:216,1,135.000005149842,2|0,0:0|0:0,0:0:0:0:
441,361,50231,6,0,P|440:293|452:227,1,135.000005149842,2|0,0:0|0:0,0:0:0:0:
337,137,50699,2,0,P|336:205|348:271,1,135.000005149842,2|0,0:0|0:0,0:0:0:0:
293,349,51168,1,4,1:2:0:0:
293,349,51246,1,0,1:0:0:0:
293,349,51324,1,0,1:0:0:0:
213,298,51481,6,0,P|158:308|29:320,1,180,2|8,1:0|1:2,0:0:0:0:
3,197,51949,1,0,0:0:0:0:
129,204,52106,2,0,P|124:279|131:387,1,180,0|8,1:0|1:2,0:0:0:0:
240,321,52574,1,0,0:0:0:0:
248,194,52731,2,0,P|253:119|246:11,1,180,0|8,1:0|1:2,0:0:0:0:
139,24,53199,1,2,0:0:0:0:
150,141,53356,1,0,1:0:0:0:
34,158,53512,1,8,0:0:0:0:
22,41,53668,1,8,1:2:0:0:
22,41,53824,1,0,1:0:0:0:
88,98,53981,6,0,P|84:179|91:281,1,180,0|8,1:0|1:2,0:0:0:0:
144,360,54449,1,2,0:0:0:0:
204,280,54606,2,0,P|275:291|397:324,1,180,0|8,1:0|1:2,0:0:0:0:
452,251,55074,1,2,1:2:0:0:
470,153,55231,2,0,P|478:86|480:37,2,90,0|0|8,1:0|1:0|1:2,0:0:0:0:
431,244,55699,1,0,1:0:0:0:
372,159,55856,1,2,1:2:0:0:
349,162,55935,1,2,0:2:0:0:
326,164,56013,1,2,1:2:0:0:
303,167,56091,1,2,0:2:0:0:
284,192,56169,1,10,1:2:0:0:
252,190,56247,1,2,0:0:0:0:
229,188,56325,1,0,1:2:0:0:
206,185,56403,1,2,1:2:0:0:
183,183,56481,5,6,1:2:0:0:
154,356,56793,1,8,1:2:0:0:
389,281,57106,1,2,1:2:0:0:
277,259,57262,1,2,0:0:0:0:
370,68,57574,1,2,0:0:0:0:
482,46,57730,1,2,1:2:0:0:
274,182,58043,1,10,1:2:0:0:
162,160,58199,1,2,0:0:0:0:
110,22,58512,2,0,P|172:12|179:11,5,45,2|0|10|0|0|0,0:0|0:0|1:2|0:0|0:0|0:0,0:0:0:0:
92,22,58981,5,0,1:0:0:0:
17,213,59293,1,10,1:2:0:0:
223,159,59606,1,2,1:2:0:0:
121,132,59762,1,2,0:0:0:0:
250,335,60074,1,2,0:0:0:0:
277,233,60230,1,2,1:2:0:0:
66,357,60543,1,10,1:2:0:0:
168,384,60699,1,2,0:0:0:0:
39,177,61012,1,10,0:0:0:0:
12,279,61168,1,10,1:2:0:0:
383,208,61481,5,4,0:0:0:0:
246,81,61793,2,0,L|207:39,3,45,0|0|0|0,3:0|3:0|3:0|3:0,3:0:0:0:
312,29,62106,2,0,L|367:16,5,45,2|0|0|0|0|0,3:2|3:0|3:0|3:0|3:0|3:0,3:0:0:0:
325,114,62574,2,0,L|308:167,5,45,2|0|0|0|0|0,3:2|3:0|3:0|3:0|3:0|3:0,3:0:0:0:
232,174,63043,2,0,L|248:227,5,45,2|0|0|0|0|0,3:2|3:0|3:0|3:0|3:0|3:0,3:0:0:0:
326,239,63512,2,0,L|309:292,5,45,2|0|0|0|0|0,3:2|3:0|3:0|3:0|3:0|3:0,3:0:0:0:
286,301,63981,5,6,1:2:0:0:
255,294,64059,1,0,3:0:0:0:
224,287,64137,1,0,3:0:0:0:
193,279,64215,1,0,3:0:0:0:
164,292,64293,1,6,1:2:0:0:
152,263,64371,1,0,3:0:0:0:
140,234,64449,1,0,3:0:0:0:
129,204,64527,1,0,3:0:0:0:
100,189,64606,1,6,1:2:0:0:
116,162,64684,1,0,3:0:0:0:
133,136,64762,1,0,3:0:0:0:
152,110,64840,1,0,3:0:0:0:
146,79,64918,1,6,1:2:0:0:
178,76,64996,1,0,3:0:0:0:
209,75,65074,1,0,3:0:0:0:
241,76,65152,1,0,3:0:0:0:
265,56,65231,1,6,1:2:0:0:
285,80,65309,1,8,0:0:0:0:
304,105,65387,1,8,0:0:0:0:
324,128,65465,1,8,0:0:0:0:
359,132,65543,5,6,1:2:0:0:
359,132,65699,2,2,P|351:229|350:352,1,202.500007724762,2|2,0:1|0:2,0:1:0:0:
353,135,66481,6,0,P|359:64|353:8,1,90,6|0,1:2|0:0,0:0:0:0:
171,149,66793,2,0,P|165:220|171:276,1,90,8|0,1:2|0:0,0:0:0:0:
265,232,67106,2,0,P|268:142|262:34,1,180,0|8,1:2|1:2,0:0:0:0:
162,15,67574,1,0,1:2:0:0:
103,107,67731,1,0,1:2:0:0:
103,107,67887,1,8,0:2:0:0:
186,175,68043,6,0,P|241:159|285:144,1,90,10|0,1:2|0:0,0:0:0:0:
323,53,68356,1,2,1:2:0:0:
323,53,68512,1,0,1:0:0:0:
430,64,68668,2,0,P|424:130|424:185,1,90,10|8,1:2|0:2,0:0:0:0:
346,229,68981,2,0,P|272:257|178:316,1,180,2|8,1:2|1:2,0:0:0:0:
80,329,69449,2,0,P|27:292|-3:265,2,90,0|0|0,0:0|1:2|0:0,0:0:0:0:
170,360,69918,5,10,1:2:0:0:
224,256,70074,1,2,0:0:0:0:
339,278,70231,1,2,1:2:0:0:
163,357,70387,1,0,1:0:0:0:
109,175,70543,1,8,1:2:0:0:
224,256,70699,1,0,1:0:0:0:
224,256,70777,1,0,1:0:0:0:
224,256,70856,5,2,1:2:0:0:
311,182,71012,1,2,0:0:0:0:
332,307,71168,1,8,1:2:0:0:
332,307,71324,1,8,0:0:0:0:
425,234,71481,6,0,P|423:166|440:56,1,180,6|8,1:2|1:2,0:0:0:0:
316,128,71949,2,0,P|314:196|331:306,1,180,2|2,1:2|0:0,0:0:0:0:
411,349,72418,1,8,1:2:0:0:
264,230,72574,1,0,1:0:0:0:
182,264,72731,2,0,P|122:292|68:324,2,90,0|2|8,1:2|0:0|1:2,0:0:0:0:
262,179,73199,1,0,0:0:0:0:
205,75,73356,2,0,P|149:52|99:42,1,90,2|0,1:2|0:0,0:0:0:0:
20,149,73668,2,0,P|76:172|126:182,1,90,10|0,1:2|0:0,0:0:0:0:
265,169,73981,6,0,P|339:183|451:236,1,180,2|8,1:2|1:2,0:0:0:0:
500,293,74449,2,0,P|482:353|468:389,2,90,2|0|8,1:2|1:2|0:0,0:0:0:0:
433,189,74918,2,0,P|451:129|465:93,1,90,8|2,1:2|0:0,0:0:0:0:
423,13,75231,1,4,1:2:0:0:
358,122,75387,1,8,1:2:0:0:
358,122,75465,1,0,1:0:0:0:
358,122,75543,1,8,1:2:0:0:
277,15,75699,1,6,1:2:0:0:
272,100,75856,5,0,1:2:0:0:
272,100,75934,1,0,1:2:0:0:
272,100,76012,1,2,1:2:0:0:
456,106,76168,1,10,1:2:0:0:
453,128,76246,1,0,1:0:0:0:
450,150,76324,1,4,1:2:0:0:
448,172,76402,1,0,1:0:0:0:
445,194,76481,6,0,P|436:262|432:318,1,90,4|0,1:2|0:0,0:0:0:0:
306,341,76793,2,0,P|237:326|198:323,1,90,8|0,1:2|0:0,0:0:0:0:
151,263,77106,1,0,1:2:0:0:
136,110,77262,1,8,0:2:0:0:
288,100,77418,1,8,1:2:0:0:
303,252,77574,1,0,1:0:0:0:
356,325,77731,6,0,P|419:281|496:193,1,180,0|8,1:2|1:2,0:0:0:0:
494,101,78199,1,8,1:2:0:0:
494,101,78277,1,0,1:0:0:0:
494,101,78356,2,0,P|489:49|492:-13,1,90,0|0,1:2|0:0,0:0:0:0:
392,150,78668,1,8,1:2:0:0:
352,76,78824,1,0,1:2:0:0:
352,76,78902,1,0,1:2:0:0:
352,76,78981,5,6,1:2:0:0:
267,48,79137,2,0,P|208:60|151:75,1,90,0|8,1:0|0:0,0:0:0:0:
162,193,79449,1,0,1:2:0:0:
162,193,79527,1,0,1:2:0:0:
162,193,79606,5,6,1:2:0:0:
247,165,79762,2,0,P|306:177|363:192,1,90,0|8,1:0|0:0,0:0:0:0:
373,324,80074,1,0,1:2:0:0:
373,324,80152,1,0,1:2:0:0:
373,324,80231,5,6,1:2:0:0:
385,121,80387,1,10,0:0:0:0:
245,280,80543,1,2,1:2:0:0:
233,137,80699,2,0,P|232:72|241:18,1,90,6|0,1:2|1:0,0:0:0:0:
237,20,80934,1,0,1:0:0:0:
223,21,81012,1,8,1:3:0:0:
209,23,81090,1,4,1:3:0:0:
195,24,81168,2,0,P|133:34|99:41,1,90,4|8,1:3|0:0,0:0:0:0:
46,161,81481,6,0,P|44:238|54:354,1,180,6|8,1:2|1:2,0:0:0:0:
164,294,81949,2,0,P|165:222|156:101,1,180,2|0,1:2|0:0,0:0:0:0:
80,93,82418,1,8,1:2:0:0:
80,93,82574,1,8,0:0:0:0:
90,194,82731,2,0,P|148:202|281:210,1,180,2|8,1:2|1:2,0:0:0:0:
282,293,83199,2,0,P|211:298|156:293,1,90,2|0,1:2|1:2,0:0:0:0:
208,120,83512,2,0,P|253:121|303:129,2,90,2|8|2,1:2|1:2|0:2,0:0:0:0:
107,180,83981,5,0,1:2:0:0:
18,110,84137,1,2,0:2:0:0:
113,54,84293,1,8,1:2:0:0:
104,186,84449,2,0,P|98:252|86:301,1,90,2|0,1:2|1:2,0:0:0:0:
197,384,84762,2,0,P|203:318|215:269,1,90,10|8,1:2|1:2,0:0:0:0:
331,156,85074,6,0,P|333:246|323:335,1,180,2|0,1:2|1:0,0:0:0:0:
223,378,85543,2,0,P|170:370|113:358,1,90,8|0,1:2|0:0,0:0:0:0:
68,274,85856,1,0,1:2:0:0:
68,274,85934,1,0,1:0:0:0:
68,274,86012,1,0,1:0:0:0:
157,173,86168,1,8,1:2:0:0:
157,173,86246,1,0,1:0:0:0:
157,173,86324,1,0,1:0:0:0:
157,173,86402,1,0,1:0:0:0:
157,173,86481,6,0,P|164:111|164:43,1,90,6|0,1:2|0:0,0:0:0:0:
281,13,86793,2,0,P|274:75|274:143,2,90,8|4|0,1:2|0:0|1:2,0:0:0:0:
373,43,87262,1,0,1:0:0:0:
270,211,87418,1,12,1:2:0:0:
368,187,87574,2,0,P|432:182|480:175,2,90,8|0|4,1:0|1:2|0:0,0:0:0:0:
265,191,88043,1,8,1:2:0:0:
265,191,88199,2,0,P|201:196|153:203,1,90,8|0,0:0|1:2,0:0:0:0:
99,163,88512,5,2,1:2:0:0:
165,359,88668,1,12,1:2:0:0:
225,288,88824,2,0,P|218:234|216:97,1,180,2|4,1:2|0:0,0:0:0:0:
260,34,89293,1,8,1:2:0:0:
399,0,89449,1,0,1:0:0:0:
352,157,89606,1,0,1:2:0:0:
430,99,89762,5,8,0:0:0:0:
250,130,89918,1,12,1:2:0:0:
359,265,90074,1,0,1:0:0:0:
359,265,90152,1,0,1:0:0:0:
359,265,90231,1,2,1:0:0:0:
256,192,90309,12,2,92574,0:0:0:0:
423,256,93356,5,2,0:0:0:0:
383,326,93512,1,2,0:0:0:0:
335,260,93668,1,2,0:0:0:0:
302,334,93824,1,2,0:0:0:0:
332,149,94293,2,0,P|394:140|439:131,3,107.999996704102,2|2|2|2,0:0|0:0|0:0|0:0,0:0:0:0:
236,121,95856,5,2,0:0:0:0:
213,198,96012,1,2,0:0:0:0:
132,194,96168,1,2,0:0:0:0:
109,271,96324,1,2,0:0:0:0:
109,271,97731,6,0,P|92:208|86:177,1,67.5000025749208,0|0,1:2|0:0,0:0:0:0:
87,118,98043,1,2,1:2:0:0:
87,118,98199,1,0,0:0:0:0:
170,146,98356,2,0,P|241:166|250:168,2,67.5000025749208,0|0|2,1:2|0:0|1:2,0:0:0:0:
194,61,98824,2,0,P|258:74|338:97,1,135.000005149842
390,151,99293,1,2,1:2:0:0:
448,85,99449,2,0,P|469:35|478:2,2,67.5000025749208,0|0|0,0:0|1:2|0:0,0:0:0:0:
416,167,99918,2,0,P|421:218|446:320,1,135.000005149842,2|0,1:2|1:2,0:0:0:0:
374,359,100387,5,0,0:0:0:0:
374,359,100543,1,2,1:2:0:0:
322,288,100699,2,0,P|274:304|230:310,1,67.5000025749208,0|0,0:0|1:2,0:0:0:0:
186,255,101012,1,0,0:0:0:0:
186,255,101168,2,0,P|170:207|164:163,1,67.5000025749208,2|0,1:2|0:0,0:0:0:0:
80,207,101481,2,0,P|94:269|102:367,1,135.000005149842,0|8,1:0|1:2,0:0:0:0:
184,368,101949,1,8,0:0:0:0:
250,310,102106,5,10,0:0:0:0:
245,293,102184,1,2,0:0:0:0:
241,276,102262,1,10,0:0:0:0:
236,259,102340,1,2,0:0:0:0:
241,243,102418,1,10,0:0:0:0:
246,227,102496,1,2,0:0:0:0:
251,211,102574,1,2,1:2:0:0:
257,195,102652,1,2,1:2:0:0:
263,183,102731,6,0,P|316:206|353:230,1,90,2|0,1:2|1:0,0:0:0:0:
157,276,103043,2,0,P|104:253|67:229,1,90,12|0,1:2|0:0,0:0:0:0:
64,152,103356,1,0,1:2:0:0:
111,16,103512,1,0,1:0:0:0:
246,64,103668,1,8,1:2:0:0:
325,53,103824,6,0,P|368:43|452:33,2,90,8|0|0,0:0|1:2|0:0,0:0:0:0:
244,96,104293,2,0,P|252:154|260:195,1,90,8|0,1:2|0:0,0:0:0:0:
345,232,104606,1,2,1:2:0:0:
366,225,104684,1,2,0:0:0:0:
387,218,104762,1,2,0:0:0:0:
409,214,104840,1,2,0:0:0:0:
431,210,104918,1,10,1:2:0:0:
500,266,105074,2,0,P|493:323|481:374,2,90,0|0|0,1:0|1:2|1:0,0:0:0:0:
451,177,105543,6,0,P|458:120|470:69,1,90,8|0,1:2|1:0,0:0:0:0:
422,17,105856,1,0,1:2:0:0:
346,128,106012,1,0,1:0:0:0:
238,46,106168,1,8,1:2:0:0:
245,135,106324,2,0,P|258:238|261:317,1,180,8|0,0:0|0:0,0:0:0:0:
351,341,106793,1,10,1:2:0:0:
343,310,106871,1,2,0:0:0:0:
320,288,106949,1,2,0:0:0:0:
291,275,107027,1,2,0:0:0:0:
259,279,107106,5,2,1:2:0:0:
241,281,107184,1,2,0:0:0:0:
223,284,107262,1,2,0:0:0:0:
205,284,107340,1,2,0:0:0:0:
187,281,107418,1,10,1:2:0:0:
131,204,107574,6,0,P|121:141|120:80,2,90,2|0|0,1:1|1:2|1:0,0:0:0:0:
152,291,108043,1,8,1:2:0:0:
234,256,108199,1,0,1:1:0:0:
367,282,108356,1,0,1:2:0:0:
247,344,108512,1,2,0:0:0:0:
114,318,108668,1,8,1:2:0:0:
46,242,108824,6,0,P|36:179|35:118,1,90,8|0,0:0|1:2,0:0:0:0:
110,4,109137,2,0,P|120:67|121:128,1,90,2|8,1:2|1:2,0:0:0:0:
30,64,109449,2,0,P|125:50|250:35,1,180,0|0,1:0|0:0,0:0:0:0:
298,49,109918,1,8,1:2:0:0:
246,202,110074,1,0,1:0:0:0:
180,139,110231,5,0,1:2:0:0:
333,189,110387,1,8,0:0:0:0:
207,291,110543,1,8,1:2:0:0:
294,324,110699,2,0,P|350:338|384:344,2,90,2|0|8,1:2|1:2|0:0,0:0:0:0:
203,275,111168,1,8,1:2:0:0:
73,328,111324,1,2,2:0:0:0:
16,257,111481,5,0,1:2:0:0:
163,355,111637,1,0,1:2:0:0:
211,182,111793,1,4,1:2:0:0:
128,247,111949,1,0,1:0:0:0:
128,247,112027,1,0,1:0:0:0:
128,247,112106,1,0,1:0:0:0:
79,85,112262,1,0,1:0:0:0:
249,132,112418,1,8,1:2:0:0:
271,130,112496,1,0,1:0:0:0:
293,129,112574,1,0,1:0:0:0:
315,128,112652,1,0,1:0:0:0:
337,127,112731,6,0,P|408:123|461:123,2,90,6|0|8,1:2|0:0|1:2,0:0:0:0:
463,318,113356,5,2,1:2:0:0:
365,332,113512,1,2,0:0:0:0:
222,203,113824,1,2,0:0:0:0:
320,217,113980,1,2,1:2:0:0:
182,326,114293,1,10,1:2:0:0:
84,340,114449,1,2,0:0:0:0:
281,290,114762,2,0,P|274:346|272:390,2,90,2|10|0,0:0|1:2|0:0,0:0:0:0:
336,223,115231,1,0,1:2:0:0:
308,29,115856,5,2,1:2:0:0:
406,18,116012,1,2,0:0:0:0:
371,110,116168,1,10,1:2:0:0:
468,96,116324,1,2,0:0:0:0:
209,203,116793,1,10,1:2:0:0:
306,217,116949,1,2,0:0:0:0:
50,116,117262,1,10,0:2:0:0:
147,102,117418,1,8,1:2:0:0:
0,222,117731,5,4,0:0:0:0:
260,259,118043,2,0,L|212:303,3,45,2|0|0|0,3:2|3:0|3:0|3:0,3:0:0:0:
238,372,118356,2,0,L|300:390,5,45,2|0|0|0|0|0,3:2|3:0|3:0|3:0|3:0|3:0,3:0:0:0:
353,353,118824,2,0,L|338:290,5,45,2|0|0|0|0|0,3:2|3:0|3:0|3:0|3:0|3:0,3:0:0:0:
419,277,119293,2,0,L|434:214,5,45,2|0|0|0|0|0,3:2|3:0|3:0|3:0|3:0|3:0,3:0:0:0:
361,186,119762,2,0,L|350:142,5,45,2|0|0|0|0|0,3:2|3:0|3:0|3:0|3:0|3:0,3:0:0:0:
365,112,120231,5,6,1:2:0:0:
335,100,120309,1,0,3:0:0:0:
304,90,120387,1,0,3:0:0:0:
273,81,120465,1,0,3:0:0:0:
257,53,120543,1,6,1:2:0:0:
230,71,120621,1,0,3:0:0:0:
204,90,120699,1,0,3:0:0:0:
179,111,120777,1,0,3:0:0:0:
147,108,120856,1,6,1:2:0:0:
146,141,120934,1,0,3:0:0:0:
147,173,121012,1,0,3:0:0:0:
149,205,121090,1,0,3:0:0:0:
128,231,121168,1,6,1:2:0:0:
154,249,121246,1,0,3:0:0:0:
181,268,121324,1,0,3:0:0:0:
209,284,121402,1,0,3:0:0:0:
222,312,121481,1,6,1:2:0:0:
251,301,121559,1,8,0:0:0:0:
282,290,121637,1,8,0:0:0:0:
312,276,121715,1,8,0:0:0:0:
342,284,121793,1,6,1:2:0:0:
256,192,121949,5,6,1:2:0:0:
256,192,122027,12,2,123981,0:0:0:0:
