osu file format v14

[General]
AudioFilename: audio.mp3
AudioLeadIn: 0
PreviewTime: 92731
Countdown: 0
SampleSet: Soft
StackLeniency: 0.7
Mode: 0
LetterboxInBreaks: 0
WidescreenStoryboard: 1

[Editor]
Bookmarks: 231,81481
DistanceSpacing: 0.3
BeatDivisor: 4
GridSize: 16
TimelineZoom: 1.8

[Metadata]
Title:rumrum triplets
TitleUnicode:rumrum triplets
Artist:yu_tokiwa.djw
ArtistUnicode:yu_tokiwa.djw
Creator:Fsjallink
Version:Ayel's Insane
Source:beatmania IIDX 20 tricoro
Tags:ayel japanese video game pop electronic 脇田潤 jun wakita wac 常盤ゆう yu tokiwa loungecore murmur twins linus
BeatmapID:3630244
BeatmapSetID:1757985

[Difficulty]
HPDrainRate:5
CircleSize:4
OverallDifficulty:8
ApproachRate:8.5
SliderMultiplier:1.6
SliderTickRate:1

[Events]
//Background and Video events
0,0,"3383a3c4-7d06-405d-87ea-9ebb8a9629ba (2).png",0,0
//Break Periods
2,16681,20806
2,36680,38306
//Storyboard Layer 0 (Background)
//Storyboard Layer 1 (Fail)
//Storyboard Layer 2 (Pass)
//Storyboard Layer 3 (Foreground)
//Storyboard Layer 4 (Overlay)
//Storyboard Sound Samples

[TimingPoints]
231,312.5,4,2,0,60,1,0
10231,-100,4,2,0,70,0,0
16793,-100,4,2,0,50,0,0
21481,-100,4,2,0,60,0,0
38981,-111.111111111111,4,2,0,60,0,0
41481,-90.9090909090909,4,2,0,60,0,0
46481,-111.111111111111,4,2,0,50,0,0
51481,-100,4,2,0,60,0,0
61793,-100,4,2,0,50,0,0
63981,-100,4,2,0,60,0,0
65699,-100,4,2,0,60,0,0
66481,-86.9565217391304,4,2,0,70,0,1
78981,-86.9565217391304,4,2,0,70,0,0
81481,-90.9090909090909,4,2,0,70,0,1
86481,-90.9090909090909,4,2,0,60,0,1
92574,-100,4,2,0,50,0,0
93356,-133.333333333333,4,2,0,50,0,0
97731,-100,4,2,0,60,0,0
102731,-100,4,2,0,70,0,1
112731,-100,4,2,0,60,0,0
118043,-100,4,2,0,50,0,0
120231,-100,4,2,0,60,0,0

[Colours]
Combo1 : 17,254,176
Combo2 : 173,255,95
Combo3 : 255,88,100
Combo4 : 255,94,55

[HitObjects]
97,349,5231,6,0,P|131:330|186:332,1,80,0|0,1:0|0:0,0:0:0:0:
246,286,5543,2,0,P|280:305|335:303,1,80,0|0,1:0|0:0,0:0:0:0:
406,288,5856,2,0,P|412:253|406:192,1,80,0|0,1:0|0:0,0:0:0:0:
311,136,6168,2,0,P|303:169|311:230,1,80,2|0,1:2|0:0,0:0:0:0:
387,76,6481,6,0,P|361:51|302:38,1,80,0|0,1:0|0:0,0:0:0:0:
232,63,6793,1,0,1:0:0:0:
232,63,6949,1,0,0:0:0:0:
133,92,7106,2,0,L|117:12,1,80,0|0,1:0|0:0,0:0:0:0:
200,153,7418,2,0,L|184:237,1,80,2|0,1:2|1:2,0:0:0:0:
98,233,7731,6,0,P|56:217|-2:206,1,80,0|0,1:0|0:0,0:0:0:0:
63,334,8043,2,0,P|105:318|163:307,1,80,0|0,1:0|0:0,0:0:0:0:
228,357,8356,2,0,B|268:370|268:370|308:357,1,80,0|0,1:0|0:0,0:0:0:0:
365,295,8668,2,0,B|404:284|404:284|441:295,1,80,2|0,1:2|1:2,0:0:0:0:
498,226,8981,5,0,1:0:0:0:
479,127,9137,1,0,1:0:0:0:
382,108,9293,1,0,1:0:0:0:
307,163,9449,5,0,1:0:0:0:
290,184,9527,1,0,3:0:0:0:
267,195,9606,1,0,1:0:0:0:
242,196,9684,1,0,3:0:0:0:
216,192,9762,1,8,1:3:0:0:
190,182,9840,1,0,3:0:0:0:
172,169,9918,2,0,L|180:115,1,40,4|0,1:3|1:0,0:0:0:0:
90,24,10074,2,0,L|102:83,1,40,4|0,1:3|0:0,0:0:0:0:
17,110,10231,6,0,L|9:149,5,40,4|10|10|10|10|0,1:2|0:0|0:0|0:0|0:0|0:0,0:0:0:0:
28,194,10699,2,0,L|67:201,5,40,2|0|8|0|8|0,3:2|3:0|3:2|3:0|3:2|3:0,3:0:0:0:
97,242,11168,2,0,L|89:281,5,40,4|10|10|10|10|0,1:2|0:0|0:0|0:0|0:0|0:0,0:0:0:0:
114,320,11636,2,0,L|153:327,5,40,2|0|8|0|8|0,3:2|3:0|3:2|3:0|3:2|3:0,3:0:0:0:
250,301,12106,6,0,B|295:237|232:158,1,120,0|0,1:0|0:0,0:0:0:0:
253,188,12418,2,0,P|205:175|150:166,1,80,4|10,1:2|0:0,0:0:0:0:
132,66,12731,1,10,0:0:0:0:
239,25,12887,5,0,1:0:0:0:
274,22,12965,1,0,3:0:0:0:
308,30,13043,1,10,1:2:0:0:
326,55,13121,1,0,3:0:0:0:
327,88,13199,1,0,1:0:0:0:
353,118,13277,1,0,3:0:0:0:
391,123,13356,6,0,P|455:101|474:15,1,160,2|0,1:2|1:0,0:0:0:0:
246,104,13824,1,0,1:0:0:0:
256,192,13902,12,2,16481,0:0:0:0:
89,313,21481,5,2,1:2:0:0:
89,313,21793,1,8,1:2:0:0:
89,313,22106,5,0,1:0:0:0:
56,220,22262,1,0,0:0:0:0:
151,196,22418,1,8,1:2:0:0:
174,295,22574,2,0,P|229:308|271:304,1,80,2|0,0:0|1:0,0:0:0:0:
312,219,22887,2,0,P|295:164|271:129,1,80,2|8,0:0|1:2,0:0:0:0:
181,132,23199,2,0,P|141:172|123:211,1,80,2|0,0:0|1:0,0:0:0:0:
306,242,23512,2,0,B|366:243|397:193|462:193,1,160,2|2,0:0|0:0,0:0:0:0:
445,286,23981,6,0,L|427:369,2,80,0|0|8,1:0|0:0|1:2,0:0:0:0:
315,152,24449,1,0,0:0:0:0:
315,152,24606,2,0,L|232:134,1,80,0|2,1:0|0:0,0:0:0:0:
404,80,24918,2,0,L|487:62,1,80,8|2,1:2|0:0,0:0:0:0:
498,61,25152,1,0,0:0:0:0:
498,61,25231,5,0,1:0:0:0:
420,186,25387,1,0,1:0:0:0:
297,64,25543,1,8,1:2:0:0:
274,244,25699,5,2,1:2:0:0:
251,276,25777,1,2,1:2:0:0:
221,291,25856,1,2,1:2:0:0:
184,290,25934,1,2,1:2:0:0:
145,268,26012,1,8,0:0:0:0:
132,233,26090,1,8,0:0:0:0:
133,189,26168,2,0,P|140:145|134:108,1,80,8|2,0:0|1:2,0:0:0:0:
3,64,26481,6,0,P|-6:143|7:221,1,160,6|8,1:2|1:2,0:0:0:0:
21,318,26949,1,2,0:0:0:0:
110,371,27106,2,0,P|149:377|190:370,1,80,0|0,1:2|0:0,0:0:0:0:
305,316,27418,1,8,1:2:0:0:
396,361,27574,1,2,0:0:0:0:
221,269,27731,2,0,P|215:217|218:167,1,80,0|0,1:2|0:0,0:0:0:0:
385,182,28043,2,0,P|391:234|388:284,1,80,8|2,1:2|0:0,0:0:0:0:
206,366,28356,1,0,1:2:0:0:
30,62,28668,5,8,1:2:0:0:
130,32,28824,1,2,0:0:0:0:
208,110,28981,2,0,L|197:276,1,160,2|8,1:2|1:2,0:0:0:0:
77,279,29449,5,2,0:0:0:0:
121,188,29606,1,0,1:2:0:0:
233,180,29762,1,0,0:0:0:0:
299,260,29918,1,8,1:2:0:0:
410,250,30074,2,0,P|428:177|409:89,1,160,2|0,0:0|0:0,0:0:0:0:
307,75,30543,5,8,1:2:0:0:
237,159,30699,1,2,0:0:0:0:
108,86,30856,2,0,B|1:63,1,80,0|0,1:2|0:0,0:0:0:0:
92,175,31168,1,8,1:2:0:0:
197,76,31324,1,0,0:0:0:0:
173,239,31481,6,0,B|196:346,1,80,0|0,1:2|0:0,0:0:0:0:
324,243,31793,2,0,B|340:164,1,80,8|2,1:2|0:0,0:0:0:0:
397,30,32106,5,0,1:2:0:0:
294,57,32262,1,0,0:0:0:0:
323,154,32418,1,8,1:2:0:0:
440,128,32574,2,0,P|475:109|516:108,1,80,2|0,0:0|1:2,0:0:0:0:
391,235,32887,2,0,P|356:254|315:255,1,80,2|8,0:0|1:2,0:0:0:0:
221,208,33199,2,0,B|171:175|104:186|69:237,1,160,2|0,0:0|0:0,0:0:0:0:
127,351,33668,2,0,P|149:315|153:271,1,80,8|0,1:2|0:0,0:0:0:0:
76,115,33981,5,2,1:0:0:0:
225,222,34137,2,0,L|317:237,1,80,0|8,0:0|1:2,0:0:0:0:
483,302,34449,2,0,L|391:317,1,80,2|0,0:1|1:2,0:0:0:0:
315,328,34762,1,0,0:0:0:0:
395,224,34918,1,8,1:2:0:0:
291,146,35074,2,0,B|266:76|266:76|308:-16,1,160,2|0,0:1|1:2,0:0:0:0:
316,8,35465,1,0,1:0:0:0:
316,8,35543,2,0,P|264:15|212:18,1,80,0|0,1:0|1:0,0:0:0:0:
125,54,35856,5,0,1:0:0:0:
144,81,35934,1,0,1:0:0:0:
151,109,36012,1,0,1:0:0:0:
151,136,36090,1,0,1:0:0:0:
139,162,36168,2,0,L|89:158,4,40,0|0|0|0|0,1:0|1:0|1:0|1:0|1:0,0:0:0:0:
481,332,38981,6,0,L|316:359,1,143.999995605469,0|0,1:0|1:0,0:0:0:0:
369,253,39606,2,0,L|226:229,1,143.999995605469,0|0,1:0|1:0,0:0:0:0:
225,332,40231,2,0,L|82:355,1,143.999995605469,0|0,1:0|1:0,0:0:0:0:
148,194,40856,1,0,1:0:0:0:
131,232,40934,1,0,1:0:0:0:
98,250,41012,1,0,1:0:0:0:
58,247,41090,1,0,1:0:0:0:
22,220,41168,2,0,L|17:178,3,35.9999989013672,8|0|0|0,1:0|0:0|1:0|0:0,0:0:0:0:
37,157,41481,6,0,P|31:114|37:64,1,88.000002685547,2|0,1:2|0:0,0:0:0:0:
208,22,41793,2,0,P|212:65|206:109,1,88.000002685547,10|0,1:2|0:0,0:0:0:0:
208,129,42027,1,0,1:0:0:0:
208,129,42106,1,2,1:2:0:0:
141,224,42262,2,0,P|184:239|232:235,1,88.000002685547,2|10,1:2|1:2,0:0:0:0:
347,203,42574,6,0,P|285:216|262:337,1,176.000005371094,2|2,0:0|0:0,0:0:0:0:
260,340,42965,1,0,1:2:0:0:
285,322,43043,2,0,P|328:319|369:334,1,88.000002685547,10|8,1:2|1:2,0:0:0:0:
472,364,43356,1,2,1:2:0:0:
443,266,43512,2,0,P|433:183|442:87,1,176.000005371094,2|2,0:0|1:2,0:0:0:0:
465,81,43902,1,0,1:0:0:0:
448,55,43981,6,0,B|419:2|335:-6|275:42,1,176.000005371094,2|10,1:2|1:2,0:0:0:0:
40,202,44606,2,0,B|69:255|153:263|213:215,1,176.000005371094,2|10,1:2|1:2,0:0:0:0:
317,181,45231,5,2,1:2:0:0:
153,144,45387,1,8,1:2:0:0:
291,70,45543,1,10,1:2:0:0:
224,221,45699,2,0,L|231:269,2,44.0000013427735,0|0|2,1:0|1:0|1:2,0:0:0:0:
200,66,46012,5,0,1:0:0:0:
242,145,46168,1,10,1:2:0:0:
322,160,46324,1,0,1:0:0:0:
397,114,46481,6,0,L|467:100,1,71.9999978027344,2|0,0:0|0:0,0:0:0:0:
363,253,46793,1,2,0:0:0:0:
363,253,47106,2,0,L|208:221,1,143.999995605469,2|0,0:0|0:0,0:0:0:0:
14,94,47731,6,0,L|-1:19,1,71.9999978027344,2|0,0:0|0:0,0:0:0:0:
146,112,48043,1,2,0:0:0:0:
146,112,48356,2,0,L|114:267,1,143.999995605469,2|0,0:0|0:0,0:0:0:0:
89,363,48824,1,2,0:0:0:0:
204,299,48981,6,0,B|271:271|271:271|339:293,1,143.999995605469,2|0,0:0|0:0,0:0:0:0:
407,358,49449,1,2,0:0:0:0:
407,358,49606,2,0,P|468:343|489:243,1,143.999995605469,2|0,0:0|0:0,0:0:0:0:
406,232,50074,1,0,0:0:0:0:
378,141,50231,2,0,P|364:66|379:-11,2,143.999995605469,2|0|0,0:0|0:0|0:0,0:0:0:0:
117,55,51168,2,0,L|127:-1,2,35.9999989013672,4|0|0,1:2|1:0|1:0,0:0:0:0:
0,127,51481,6,0,B|39:122|39:122|100:180|100:180|141:172,1,160,2|8,1:0|1:2,0:0:0:0:
7,216,51949,1,2,0:0:0:0:
196,100,52106,2,0,B|232:174|232:174|199:256,1,160,0|8,1:0|1:2,0:0:0:0:
167,344,52574,1,2,0:0:0:0:
295,244,52731,6,0,B|334:247|334:247|391:192|391:192|432:197,1,160,0|8,1:0|1:2,0:0:0:0:
306,153,53199,1,2,0:0:0:0:
500,274,53356,2,0,B|529:198|529:198|503:118,1,160,0|8,1:0|1:2,0:0:0:0:
387,60,53824,5,2,0:0:0:0:
310,137,53981,2,0,P|271:144|222:133,1,80,0|0,1:0|0:0,0:0:0:0:
0,37,54293,2,0,P|39:30|88:41,1,80,8|2,1:2|0:0,0:0:0:0:
136,177,54606,2,0,B|139:114|167:81|163:15,1,160,0|8,1:0|1:2,0:0:0:0:
225,151,55074,5,0,1:0:0:0:
318,201,55231,1,0,1:0:0:0:
392,131,55387,1,0,1:0:0:0:
344,36,55543,1,8,1:2:0:0:
241,51,55699,1,0,0:0:0:0:
225,150,55856,6,0,P|231:193|225:233,1,80,2|2,1:2|1:2,0:0:0:0:
173,327,56168,1,10,1:2:0:0:
51,321,56324,2,0,P|46:281|52:241,1,80,0|6,1:2|1:2,0:0:0:0:
167,95,56637,5,0,0:0:0:0:
110,165,56793,2,0,L|33:147,1,80,8|0,1:2|0:0,0:0:0:0:
186,74,57106,2,0,B|247:71|280:113|368:111,1,160,2|8,1:2|1:2,0:0:0:0:
490,179,57574,2,0,P|423:188|375:290,1,160,2|0,0:0|0:0,0:0:0:0:
285,354,58043,2,0,L|265:188,1,160,10|0,1:2|1:0,0:0:0:0:
192,320,58512,2,0,L|113:306,1,80,2|10,0:0|1:2,0:0:0:0:
14,237,58824,2,0,L|92:223,1,80,0|0,0:0|1:0,0:0:0:0:
158,151,59137,6,0,B|176:114|176:114|169:57,1,80,0|10,0:0|1:2,0:0:0:0:
76,102,59449,1,0,0:0:0:0:
270,96,59606,2,0,B|342:92|381:149|360:208,1,160,2|8,1:2|1:2,0:0:0:0:
272,351,60074,2,0,P|263:293|272:185,1,160,2|0,0:0|0:0,0:0:0:0:
443,95,60543,2,0,P|452:153|443:261,1,160,10|0,1:2|1:0,0:0:0:0:
386,348,61012,1,10,0:0:0:0:
229,51,61481,5,4,0:0:0:0:
229,51,61793,2,0,L|188:59,3,40,2|0|0|0,3:2|3:0|3:0|3:0,3:0:0:0:
169,81,62106,2,0,L|184:136,5,40,2|0|0|0|0|0,3:2|3:0|3:0|3:0|3:0|3:0,3:0:0:0:
208,146,62574,2,0,L|193:201,5,40,2|0|0|0|0|0,3:2|3:0|3:0|3:0|3:0|3:0,3:0:0:0:
170,213,63043,2,0,L|185:268,5,40,2|0|0|0|0|0,3:2|3:0|3:0|3:0|3:0|3:0,3:0:0:0:
210,277,63512,2,0,L|195:332,5,40,2|0|0|0|0|0,3:2|3:0|3:0|3:0|3:0|3:0,3:0:0:0:
202,336,63981,5,6,1:2:0:0:
299,372,64137,1,0,3:0:0:0:
370,294,64293,2,0,L|357:239,2,40,6|0|0,1:2|3:0|3:0,0:0:0:0:
467,327,64606,2,0,L|476:365,2,40,6|0|0,1:2|3:0|3:0,0:0:0:0:
471,211,64918,5,6,1:2:0:0:
478,183,64996,1,0,3:0:0:0:
466,151,65074,1,0,3:0:0:0:
347,57,65231,1,6,1:2:0:0:
341,91,65309,1,8,0:0:0:0:
357,118,65387,1,8,0:0:0:0:
489,26,65543,1,6,1:2:0:0:
91,345,66012,6,0,B|55:362|55:362|-9:347,2,80,0|2|0,0:0|0:2|0:0,0:0:0:0:
197,211,66481,6,0,P|205:163|198:115,1,92.0000017547608,6|0,1:2|0:0,0:0:0:0:
45,172,66793,2,0,P|39:217|47:262,1,92.0000017547608,8|0,1:2|0:0,0:0:0:0:
171,306,67106,2,0,B|247:311|277:252|359:259,1,184.000003509522,0|8,1:2|1:2,0:0:0:0:
498,277,67574,1,0,1:2:0:0:
416,344,67731,1,0,1:2:0:0:
416,344,67887,1,8,0:2:0:0:
426,197,68043,6,0,B|415:154|415:154|432:101,1,92.0000017547608,10|0,1:2|0:0,0:0:0:0:
512,160,68356,1,2,1:2:0:0:
512,160,68512,1,0,1:0:0:0:
329,148,68668,2,0,L|225:124,1,92.0000017547608,10|8,1:2|0:2,0:0:0:0:
113,94,68981,2,0,B|194:83|244:151|202:230,1,184.000003509522,2|8,1:2|1:2,0:0:0:0:
92,285,69449,2,0,L|112:195,2,92.0000017547608,0|0|0,0:0|1:2|0:0,0:0:0:0:
2,272,69918,5,10,1:2:0:0:
75,372,70074,1,2,0:0:0:0:
186,303,70231,2,0,B|234:303|234:303|273:328,1,92.0000017547608,2|0,1:2|1:0,0:0:0:0:
345,383,70543,1,8,1:2:0:0:
426,343,70699,2,0,L|472:354,2,46.0000008773804,0|0|2,0:0|0:0|1:2,0:0:0:0:
328,118,71012,5,2,0:0:0:0:
411,165,71168,1,8,1:2:0:0:
355,242,71324,1,8,0:0:0:0:
274,197,71481,6,0,B|198:202|168:143|86:150,1,184.000003509522,6|8,1:2|1:2,0:0:0:0:
4,102,71949,2,0,P|-1:154|8:198,1,92.0000017547608,2|0,1:2|1:2,0:0:0:0:
192,135,72262,2,0,P|199:89|194:44,2,92.0000017547608,2|8|0,0:0|1:2|1:0,0:0:0:0:
117,237,72731,1,0,1:2:0:0:
117,237,72887,1,2,0:0:0:0:
56,326,73043,1,8,1:2:0:0:
155,363,73199,6,0,P|202:376|253:371,1,92.0000017547608,0|2,0:0|1:2,0:0:0:0:
326,216,73512,1,2,1:2:0:0:
320,239,73590,1,2,0:2:0:0:
324,263,73668,1,10,1:2:0:0:
390,346,73824,1,0,0:0:0:0:
502,331,73981,6,0,P|519:241|509:149,1,184.000003509522,2|8,1:2|1:2,0:0:0:0:
384,122,74449,1,2,1:2:0:0:
299,188,74606,2,0,P|292:245|303:301,1,92.0000017547608,0|8,1:2|0:0,0:0:0:0:
490,152,74918,2,0,P|494:106|488:60,1,92.0000017547608,8|2,1:2|0:0,0:0:0:0:
369,30,75231,5,0,1:2:0:0:
294,115,75387,2,0,L|306:176,2,46.0000008773804,8|0|8,1:2|1:0|1:2,0:0:0:0:
197,58,75699,1,2,1:2:0:0:
132,145,75856,2,0,L|85:155,2,46.0000008773804,0|0|2,1:2|1:2|1:2,0:0:0:0:
211,209,76168,5,10,1:2:0:0:
223,234,76246,1,0,1:0:0:0:
228,261,76324,1,4,1:2:0:0:
228,286,76402,1,0,1:0:0:0:
222,311,76481,6,0,L|131:292,1,92.0000017547608,4|0,1:2|0:0,0:0:0:0:
283,118,76793,2,0,P|382:132|399:230,1,184.000003509522,8|0,1:2|1:2,0:0:0:0:
321,250,77262,1,8,0:2:0:0:
358,148,77418,1,8,1:2:0:0:
321,250,77574,1,0,1:0:0:0:
231,191,77731,6,0,B|189:175|189:175|130:194,1,92.0000017547608,0|0,1:2|0:0,0:0:0:0:
191,366,78043,2,0,P|195:321|187:276,1,92.0000017547608,8|8,1:2|0:2,0:0:0:0:
29,149,78356,2,0,P|25:194|33:239,1,92.0000017547608,0|0,1:2|0:0,0:0:0:0:
100,300,78668,1,8,1:2:0:0:
265,197,78824,6,0,L|256:247,2,46.0000008773804,0|0|6,1:2|1:2|1:2,0:0:0:0:
347,263,79137,2,0,L|452:234,1,92.0000017547608,0|8,1:0|0:0,0:0:0:0:
249,105,79449,6,0,L|258:155,2,46.0000008773804,0|0|6,1:2|1:2|1:2,0:0:0:0:
154,171,79762,2,0,L|49:142,1,92.0000017547608,0|8,1:0|0:0,0:0:0:0:
247,22,80074,6,0,L|238:72,2,46.0000008773804,0|0|6,1:2|1:2|1:2,0:0:0:0:
352,84,80387,1,10,0:0:0:0:
455,72,80543,1,2,1:2:0:0:
352,84,80699,2,0,P|341:140|357:239,1,138.000002632141,6|0,1:2|1:0,0:0:0:0:
363,232,81012,1,8,1:3:0:0:
381,237,81090,1,4,1:3:0:0:
400,239,81168,2,0,B|448:229|501:225,1,92.0000017547608,4|8,1:3|0:0,0:0:0:0:
235,264,81481,6,0,L|251:359,1,88.000002685547,6|0,1:2|0:0,0:0:0:0:
344,312,81793,1,8,1:2:0:0:
152,348,81949,2,0,P|107:350|68:333,2,88.000002685547,2|0|0,1:2|1:2|0:0,0:0:0:0:
227,275,82418,5,8,1:2:0:0:
237,181,82574,1,8,0:0:0:0:
169,115,82731,2,0,P|129:99|-1:129,1,176.000005371094,2|8,1:2|1:2,0:0:0:0:
249,169,83199,2,0,B|263:127|263:127|255:82,1,88.000002685547,2|0,1:2|1:2,0:0:0:0:
81,184,83512,2,0,B|54:267|54:267|81:353,1,176.000005371094,2|0,0:2|1:2,0:0:0:0:
209,352,83981,5,0,1:2:0:0:
282,262,84137,2,0,L|188:248,1,88.000002685547,2|8,0:2|1:2,0:0:0:0:
374,170,84449,2,0,L|461:157,1,88.000002685547,2|0,1:2|1:2,0:0:0:0:
376,58,84762,2,0,B|318:39|247:97|272:167,1,176.000005371094,10|8,1:2|0:0,0:0:0:0:
287,174,85152,1,2,0:3:0:0:
287,174,85231,5,0,1:2:0:0:
360,257,85387,1,0,1:0:0:0:
476,238,85543,2,0,P|485:198|479:136,1,88.000002685547,8|0,1:2|0:0,0:0:0:0:
410,59,85856,2,0,L|421:5,2,44.0000013427735,0|0|0,1:2|1:0|1:0,0:0:0:0:
289,71,86168,1,8,1:2:0:0:
258,87,86246,1,0,1:0:0:0:
229,92,86324,1,0,1:0:0:0:
197,90,86402,1,0,1:0:0:0:
167,78,86481,6,0,B|126:35|52:35|14:90,1,176.000005371094,6|8,1:2|1:2,0:0:0:0:
1,184,86949,1,4,0:0:0:0:
1,214,87027,1,2,0:3:0:0:
15,241,87106,1,0,1:2:0:0:
95,296,87262,5,0,1:0:0:0:
196,275,87418,1,12,1:2:0:0:
245,178,87574,2,0,P|252:146|253:85,1,88.000002685547,8|0,1:0|1:2,0:0:0:0:
392,180,87887,2,0,P|385:212|384:273,1,88.000002685547,4|8,0:0|1:2,0:0:0:0:
431,341,88199,2,0,L|480:349,2,44.0000013427735,8|0|0,0:0|0:0|1:2,0:0:0:0:
297,264,88512,5,2,1:2:0:0:
473,226,88668,1,12,1:2:0:0:
380,79,88824,2,0,B|328:84|282:147|213:156,1,176.000005371094,2|4,1:2|0:0,0:0:0:0:
68,87,89293,2,0,P|61:46|64:0,1,88.000002685547,8|0,1:2|1:0,0:0:0:0:
161,92,89606,1,0,1:2:0:0:
115,173,89762,1,8,0:0:0:0:
25,170,89918,1,12,1:2:0:0:
150,254,90074,2,0,L|144:302,2,44.0000013427735,0|0|2,1:0|1:0|1:0,0:0:0:0:
256,192,90309,12,2,92574,0:0:0:0:
159,67,93356,5,2,0:0:0:0:
149,151,93512,1,2,0:0:0:0:
80,101,93668,1,2,0:0:0:0:
159,67,93824,2,0,B|211:59|283:117|263:192,1,180.000006866455,2|2,0:0|0:0,0:0:0:0:
147,335,94606,5,2,0:0:0:0:
281,303,94918,1,2,0:0:0:0:
417,272,95231,1,2,0:0:0:0:
449,38,95856,5,2,0:0:0:0:
362,61,96012,1,2,0:0:0:0:
387,147,96168,1,2,0:0:0:0:
473,125,96324,1,2,0:0:0:0:
235,204,97731,6,0,L|251:95,1,80,0|0,1:2|0:0,0:0:0:0:
264,42,98043,1,2,1:2:0:0:
264,42,98199,1,2,0:0:0:0:
153,154,98356,2,0,P|113:148|73:153,1,80,0|0,1:2|0:0,0:0:0:0:
34,247,98668,1,2,1:2:0:0:
90,331,98824,2,0,P|180:341|275:322,1,160,2|0,0:0|0:0,0:0:0:0:
341,267,99293,5,2,1:2:0:0:
449,306,99449,2,0,L|468:407,1,80,2|0,0:0|1:2,0:0:0:0:
327,255,99762,1,0,0:0:0:0:
327,255,99918,2,0,L|341:176,1,80,2|0,1:2|0:0,0:0:0:0:
476,43,100231,5,0,1:2:0:0:
410,112,100387,1,2,0:0:0:0:
310,86,100543,2,0,P|270:77|213:76,1,80,2|0,1:2|0:0,0:0:0:0:
130,8,100856,2,0,P|121:48|120:105,1,80,0|2,1:2|0:0,0:0:0:0:
171,174,101168,1,2,1:2:0:0:
103,244,101324,1,2,0:0:0:0:
164,317,101481,2,0,B|221:314|255:264|327:259,1,160,0|8,1:0|1:2,0:0:0:0:
447,332,101949,5,8,0:0:0:0:
424,312,102027,1,2,0:3:0:0:
409,284,102106,1,10,0:0:0:0:
400,258,102184,1,2,0:0:0:0:
393,226,102262,1,10,0:0:0:0:
394,194,102340,1,2,0:0:0:0:
404,167,102418,2,0,L|408:114,3,40,10|2|2|2,0:0|0:0|1:2|1:2,0:0:0:0:
408,104,102731,6,0,L|507:80,1,80,2|0,1:2|1:0,0:0:0:0:
312,75,103043,1,12,1:2:0:0:
312,75,103199,1,0,0:0:0:0:
270,158,103356,2,0,L|162:134,1,80,0|0,1:2|1:0,0:0:0:0:
82,224,103668,1,8,1:2:0:0:
88,122,103824,2,0,B|141:105|207:166|174:234,1,160,8|0,0:0|0:0,0:0:0:0:
9,287,104293,5,8,1:2:0:0:
92,363,104449,1,0,0:0:0:0:
203,311,104606,1,2,1:2:0:0:
226,296,104684,1,2,0:0:0:0:
254,292,104762,1,2,0:0:0:0:
283,295,104840,1,2,0:0:0:0:
308,306,104918,1,10,1:2:0:0:
453,357,105074,1,0,1:0:0:0:
387,241,105231,6,0,P|380:200|379:152,1,80,0|0,1:2|0:0,0:0:0:0:
497,48,105543,2,0,P|503:87|505:127,1,80,8|0,1:2|1:0,0:0:0:0:
503,144,105777,1,0,0:0:0:0:
503,144,105856,5,0,1:2:0:0:
482,241,106012,1,0,1:0:0:0:
382,260,106168,1,8,1:2:0:0:
293,197,106324,2,0,B|251:151|176:155|136:210,1,160,8|0,0:0|0:0,0:0:0:0:
73,260,106793,5,10,1:2:0:0:
58,232,106871,1,2,0:0:0:0:
52,202,106949,1,2,0:0:0:0:
57,167,107027,1,2,0:0:0:0:
69,135,107106,2,0,L|22:127,3,40,2|2|2|2,1:2|0:0|0:0|0:0,0:0:0:0:
150,94,107418,1,10,1:2:0:0:
150,94,107496,1,2,0:0:0:0:
150,94,107574,2,0,P|161:52|161:9,2,80,2|0|0,1:1|1:2|1:0,0:0:0:0:
237,117,108043,5,8,1:2:0:0:
333,72,108199,1,0,1:1:0:0:
415,130,108356,1,0,1:2:0:0:
323,183,108512,1,0,0:0:0:0:
332,84,108668,1,8,1:2:0:0:
493,152,108824,6,0,L|480:252,1,80,8|0,0:0|1:2,0:0:0:0:
398,373,109137,2,0,L|387:293,1,80,2|8,1:2|1:2,0:0:0:0:
265,241,109449,2,0,B|214:249|180:296|122:315,1,160,0|0,1:0|0:0,0:0:0:0:
36,255,109918,2,0,P|33:214|38:164,1,80,8|10,1:2|0:0,0:0:0:0:
6,85,110231,5,0,1:2:0:0:
81,18,110387,1,8,0:0:0:0:
177,52,110543,1,8,1:2:0:0:
201,147,110699,5,2,1:2:0:0:
230,160,110777,1,0,1:0:0:0:
265,160,110856,1,0,1:2:0:0:
400,116,111012,1,8,0:0:0:0:
312,68,111168,1,8,1:2:0:0:
350,213,111324,1,2,2:0:0:0:
501,80,111481,5,0,1:2:0:0:
501,80,111637,1,0,1:2:0:0:
402,131,111793,1,4,1:2:0:0:
484,212,111949,2,0,L|527:201,2,40,0|0|0,1:0|1:0|1:0,0:0:0:0:
421,298,112262,5,0,1:0:0:0:
397,326,112340,1,0,0:0:0:0:
363,332,112418,1,8,1:2:0:0:
326,316,112496,1,0,1:0:0:0:
300,283,112574,1,0,1:0:0:0:
263,267,112652,1,0,1:0:0:0:
225,278,112731,2,0,P|139:289|64:302,1,160,6|8,1:2|1:2,0:0:0:0:
104,48,113356,5,2,1:2:0:0:
117,148,113512,1,2,0:0:0:0:
306,81,113824,5,2,0:0:0:0:
406,68,113980,1,2,1:2:0:0:
267,331,114293,5,10,1:2:0:0:
254,231,114449,1,2,0:0:0:0:
78,319,114762,6,0,P|26:310|-25:303,2,80,2|10|0,0:0|1:2|0:0,0:0:0:0:
164,276,115231,1,0,1:2:0:0:
316,33,115856,5,2,1:2:0:0:
408,27,116012,1,2,0:0:0:0:
463,105,116168,1,10,1:2:0:0:
370,118,116324,1,2,0:0:0:0:
90,148,116793,5,10,1:2:0:0:
67,51,116949,1,2,0:0:0:0:
325,233,117262,5,10,0:2:0:0:
302,330,117418,1,8,1:2:0:0:
250,58,117731,5,4,0:0:0:0:
250,58,118043,2,0,L|209:66,3,40,2|0|0|0,3:2|3:0|3:0|3:0,3:0:0:0:
190,88,118356,2,0,L|205:143,5,40,2|0|0|0|0|0,3:2|3:0|3:0|3:0|3:0|3:0,3:0:0:0:
229,153,118824,2,0,L|214:208,5,40,2|0|0|0|0|0,3:2|3:0|3:0|3:0|3:0|3:0,3:0:0:0:
191,220,119293,2,0,L|206:275,5,40,2|0|0|0|0|0,3:2|3:0|3:0|3:0|3:0|3:0,3:0:0:0:
231,284,119762,2,0,L|216:339,5,40,2|0|0|0|0|0,3:2|3:0|3:0|3:0|3:0|3:0,3:0:0:0:
205,335,120231,5,6,1:2:0:0:
93,354,120387,1,0,3:0:0:0:
19,276,120543,2,0,L|-35:290,2,40,6|0|0,1:2|3:0|3:0,0:0:0:0:
101,209,120856,2,0,L|155:223,2,40,6|0|0,1:2|3:0|3:0,0:0:0:0:
11,159,121168,5,6,1:2:0:0:
0,136,121246,1,0,3:0:0:0:
8,112,121324,1,0,3:0:0:0:
146,38,121481,1,6,1:2:0:0:
158,61,121559,1,8,0:0:0:0:
148,87,121637,1,8,0:0:0:0:
100,195,121793,1,6,1:2:0:0:
31,21,121949,1,6,1:2:0:0:
256,192,122027,12,2,123981,0:0:0:0:
