osu file format v14

[General]
AudioFilename: audio.mp3
AudioLeadIn: 0
PreviewTime: -1
Countdown: 1
SampleSet: Soft
StackLeniency: 1
Mode: 0
LetterboxInBreaks: 0
WidescreenStoryboard: 0

[Editor]
DistanceSpacing: 2
BeatDivisor: 4
GridSize: 16
TimelineZoom: 1

[Metadata]
Title:The lost dedicated
TitleUnicode:The lost dedicated
Artist:yst
ArtistUnicode:yst
Creator:Razito
Version:Lost
Source:THE BMS FIGHTERS 2010
Tags:BMS
BeatmapID:1500302
BeatmapSetID:709630

[Difficulty]
HPDrainRate:4
CircleSize:2
OverallDifficulty:3
ApproachRate:5
SliderMultiplier:2
SliderTickRate:1

[Events]
//Background and Video events
//Break Periods
//Storyboard Layer 0 (Background)
//Storyboard Layer 1 (Fail)
//Storyboard Layer 2 (Pass)
//Storyboard Layer 3 (Foreground)
//Storyboard Sound Samples

[TimingPoints]
1770,447.761194029851,4,2,0,100,1,0
30426,-66.6666666666667,4,2,0,100,0,0
102068,-50,4,2,0,100,0,1
116396,-50,4,2,0,100,0,0

[Colours]
Combo1 : 83,83,83
Combo2 : 192,192,192
Combo3 : 255,255,255
Combo4 : 128,128,128

[HitObjects]
64,144,1770,6,0,B|51:220|149:284|149:284|182:256|182:256,1,200
208,208,2441,1,2,0:0:0:0:
224,112,2665,1,2,0:0:0:0:
272,144,2889,1,2,0:0:0:0:
304,192,3113,1,2,0:0:0:0:
432,176,3561,6,0,B|445:252|347:316|347:316|314:288|314:288,1,200
288,240,4232,1,2,0:0:0:0:
272,144,4456,1,2,0:0:0:0:
224,176,4680,1,2,0:0:0:0:
192,224,4904,1,2,0:0:0:0:
80,64,5352,6,0,B|112:128|176:96|224:224|224:224,1,200
240,272,6023,1,2,0:0:0:0:
336,272,6247,1,2,0:0:0:0:
320,208,6471,1,2,0:0:0:0:
272,160,6695,1,2,0:0:0:0:
432,64,7143,6,0,B|400:128|336:96|288:224|288:224,1,200
272,272,7814,1,2,0:0:0:0:
144,272,8038,1,2,0:0:0:0:
160,208,8262,1,2,0:0:0:0:
208,160,8486,1,2,0:0:0:0:
272,144,8710,1,2,0:0:0:0:
336,160,8934,1,2,0:0:0:0:
96,224,9605,5,2,0:0:0:0:
112,160,9829,1,2,0:0:0:0:
160,112,10053,1,2,0:0:0:0:
224,96,10277,1,2,0:0:0:0:
304,96,10725,6,0,P|304:304|304:304,1,200
416,224,11396,1,2,0:0:0:0:
400,160,11620,1,2,0:0:0:0:
352,112,11844,1,2,0:0:0:0:
288,96,12068,1,2,0:0:0:0:
208,96,12516,6,0,P|208:304|208:304,1,200,2|2,0:0|0:0,0:0:0:0:
80,240,13187,1,2,0:0:0:0:
128,304,13411,1,2,0:0:0:0:
208,336,13635,1,2,0:0:0:0:
432,240,13859,1,2,0:0:0:0:
384,304,14083,1,2,0:0:0:0:
304,336,14307,1,2,0:0:0:0:
160,272,16098,5,0,0:0:0:0:
160,272,16210,1,0,0:0:0:0:
160,272,16322,1,0,0:0:0:0:
144,144,16546,1,0,0:0:0:0:
256,192,16770,1,4,0:0:0:0:
256,64,16993,1,0,0:0:0:0:
256,192,17217,1,4,0:0:0:0:
352,144,17441,1,0,0:0:0:0:
256,304,17665,1,4,0:0:0:0:
96,192,17889,5,0,0:0:0:0:
96,192,18001,1,0,0:0:0:0:
96,192,18113,1,0,0:0:0:0:
176,96,18337,1,0,0:0:0:0:
256,192,18561,1,4,0:0:0:0:
160,288,18784,1,0,0:0:0:0:
336,304,19008,1,4,0:0:0:0:
336,96,19232,1,0,0:0:0:0:
176,96,19456,1,4,0:0:0:0:
176,304,19680,5,0,0:0:0:0:
176,304,19792,1,0,0:0:0:0:
176,304,19904,1,0,0:0:0:0:
96,192,20128,1,0,0:0:0:0:
256,192,20352,1,4,0:0:0:0:
176,304,20575,1,0,0:0:0:0:
336,304,20799,1,4,0:0:0:0:
400,192,21023,1,0,0:0:0:0:
256,192,21247,1,4,0:0:0:0:
256,80,21471,5,0,0:0:0:0:
256,80,21583,1,0,0:0:0:0:
256,80,21695,1,0,0:0:0:0:
144,192,21919,1,0,0:0:0:0:
256,80,22143,1,4,0:0:0:0:
256,192,22367,1,0,0:0:0:0:
256,80,22590,1,4,0:0:0:0:
368,192,22814,1,0,0:0:0:0:
256,80,23038,1,4,0:0:0:0:
64,96,23262,6,0,L|96:208,1,100
64,96,23710,2,0,L|96:208,1,100
64,96,24158,2,0,L|96:208,1,100
64,96,24605,2,0,L|96:208,1,100
91,192,25053,1,0,0:0:0:0:
64,96,25277,1,0,0:0:0:0:
91,192,25501,2,0,L|64:80,1,100
91,192,25949,2,0,L|64:80,1,100
91,192,26396,2,0,L|64:80,1,100
96,192,26844,1,0,0:0:0:0:
96,192,27068,1,0,0:0:0:0:
64,96,27292,2,0,L|96:192,1,100
64,96,27740,2,0,L|96:192,1,100
64,96,28187,2,0,L|96:192,1,100
96,192,28635,5,0,0:0:0:0:
224,192,29307,5,0,0:0:0:0:
256,224,29531,1,0,0:0:0:0:
288,192,29755,1,0,0:0:0:0:
256,160,29978,1,0,0:0:0:0:
256,80,30202,1,0,0:0:0:0:
112,192,30426,5,4,0:0:0:0:
256,304,30650,1,0,0:0:0:0:
256,304,30874,1,0,0:0:0:0:
400,192,31098,1,0,0:0:0:0:
256,304,31322,1,0,0:0:0:0:
112,192,31546,1,0,0:0:0:0:
256,80,31770,1,0,0:0:0:0:
256,80,31993,1,0,0:0:0:0:
400,192,32217,5,4,0:0:0:0:
256,304,32441,1,0,0:0:0:0:
400,320,32665,1,0,0:0:0:0:
400,80,32889,1,0,0:0:0:0:
112,80,33113,1,0,0:0:0:0:
112,320,33337,1,0,0:0:0:0:
256,320,33561,1,0,0:0:0:0:
256,192,33784,1,0,0:0:0:0:
256,320,34008,5,4,0:0:0:0:
256,192,34232,1,0,0:0:0:0:
256,320,34456,1,0,0:0:0:0:
400,192,34680,1,0,0:0:0:0:
256,192,34904,1,0,0:0:0:0:
256,320,35128,1,0,0:0:0:0:
112,192,35352,1,0,0:0:0:0:
256,192,35575,1,0,0:0:0:0:
256,320,35799,5,4,0:0:0:0:
256,192,36023,1,0,0:0:0:0:
256,64,36247,1,0,0:0:0:0:
192,112,36471,1,0,0:0:0:0:
256,64,36695,1,0,0:0:0:0:
304,112,36919,1,0,0:0:0:0:
256,64,37143,1,0,0:0:0:0:
144,160,37367,1,0,0:0:0:0:
256,64,37590,5,4,0:0:0:0:
352,192,37814,2,0,P|336:288|288:288,1,150.000005722046
256,288,38262,5,0,0:0:0:0:
256,192,38486,1,0,0:0:0:0:
144,192,38710,1,0,0:0:0:0:
256,192,38934,1,0,0:0:0:0:
256,80,39158,1,0,0:0:0:0:
256,192,39381,1,2,0:0:0:0:
368,192,39605,5,0,0:0:0:0:
256,192,39829,1,0,0:0:0:0:
256,304,40053,1,0,0:0:0:0:
