osu file format v14

[General]
AudioFilename: audio110.mp3
AudioLeadIn: 0
PreviewTime: 27644
Countdown: 1
SampleSet: Soft
StackLeniency: 0.7
Mode: 3
LetterboxInBreaks: 0
SpecialStyle: 0
WidescreenStoryboard: 0

[Editor]
DistanceSpacing: 1
BeatDivisor: 4
GridSize: 16
TimelineZoom: 1

[Metadata]
Title:The lost dedicated
TitleUnicode:The lost dedicated
Artist:yst
ArtistUnicode:yst
Creator:Cheburelka
Version:Lv. 10 1.1x
Source:
Tags:
BeatmapID:2100155
BeatmapSetID:1003461

[Difficulty]
HPDrainRate:8
CircleSize:4
OverallDifficulty:8
ApproachRate:5
SliderMultiplier:1.4
SliderTickRate:1

[Events]
//Background and Video events
0,0,"bg.png",0,0
//Break Periods
//Storyboard Layer 0 (Background)
//Storyboard Layer 1 (Fail)
//Storyboard Layer 2 (Pass)
//Storyboard Layer 3 (Foreground)
//Storyboard Sound Samples

[TimingPoints]
66,407.055630936228,4,2,0,15,1,0
106104,814.111261872455,4,2,0,15,1,0

[HitObjects]
64,0,1695,128,0,2101:0:0:0:0:
192,0,1695,128,0,2101:0:0:0:0:
448,192,2305,1,0,0:0:0:0:
320,192,2508,1,0,0:0:0:0:
192,192,2712,1,0,0:0:0:0:
64,192,2915,1,0,0:0:0:0:
192,0,3323,128,0,3729:0:0:0:0:
448,0,3323,128,0,3729:0:0:0:0:
64,192,3933,1,0,0:0:0:0:
192,192,4136,1,0,0:0:0:0:
320,192,4340,1,0,0:0:0:0:
192,192,4544,1,0,0:0:0:0:
448,192,4747,1,0,0:0:0:0:
64,0,4951,128,0,5357:0:0:0:0:
448,0,4951,128,0,5357:0:0:0:0:
320,192,5561,1,0,0:0:0:0:
192,192,5765,1,0,0:0:0:0:
448,192,5968,1,0,0:0:0:0:
192,192,6172,1,0,0:0:0:0:
64,0,6579,128,0,6985:0:0:0:0:
192,0,6579,128,0,6985:0:0:0:0:
448,192,7189,1,0,0:0:0:0:
320,192,7393,1,0,0:0:0:0:
192,192,7596,1,0,0:0:0:0:
448,192,7800,1,0,0:0:0:0:
320,192,8004,1,0,0:0:0:0:
64,0,8207,128,0,8614:0:0:0:0:
192,0,8207,128,0,8614:0:0:0:0:
448,192,8817,1,0,0:0:0:0:
320,192,9021,1,0,0:0:0:0:
448,192,9225,1,0,0:0:0:0:
320,192,9428,1,0,0:0:0:0:
64,0,9835,128,0,10243:0:0:0:0:
448,0,9835,128,0,10243:0:0:0:0:
320,192,10445,1,0,0:0:0:0:
448,192,10649,1,0,0:0:0:0:
192,192,10853,1,0,0:0:0:0:
64,192,11056,1,0,0:0:0:0:
320,192,11260,1,0,0:0:0:0:
192,0,11464,128,0,11871:0:0:0:0:
320,0,11464,128,0,11871:0:0:0:0:
448,192,12074,1,0,0:0:0:0:
320,192,12277,1,0,0:0:0:0:
192,192,12481,1,0,0:0:0:0:
64,192,12685,1,0,0:0:0:0:
192,0,13092,128,0,13499:0:0:0:0:
448,0,13092,128,0,13499:0:0:0:0:
320,192,13703,1,0,0:0:0:0:
192,192,13905,1,0,0:0:0:0:
448,192,14109,1,0,0:0:0:0:
320,192,14313,1,0,0:0:0:0:
192,192,14516,1,0,0:0:0:0:
64,192,14720,1,0,0:0:0:0:
448,192,14720,1,0,0:0:0:0:
320,192,14822,1,0,0:0:0:0:
192,192,14924,1,0,0:0:0:0:
64,192,15025,1,0,0:0:0:0:
320,192,15127,1,0,0:0:0:0:
448,192,15127,1,0,0:0:0:0:
192,192,15229,1,0,0:0:0:0:
320,192,15331,1,0,0:0:0:0:
64,192,15432,1,0,0:0:0:0:
192,192,15534,1,0,0:0:0:0:
448,192,15534,1,0,0:0:0:0:
320,192,15635,1,0,0:0:0:0:
64,192,15737,1,0,0:0:0:0:
448,192,15839,1,0,0:0:0:0:
192,192,15941,1,0,0:0:0:0:
320,192,15941,1,0,0:0:0:0:
64,192,16043,1,0,0:0:0:0:
448,192,16145,1,0,0:0:0:0:
320,192,16246,1,0,0:0:0:0:
64,192,16348,1,0,0:0:0:0:
448,192,16348,1,0,0:0:0:0:
192,192,16450,1,0,0:0:0:0:
320,192,16552,1,0,0:0:0:0:
448,192,16654,1,0,0:0:0:0:
64,192,16755,1,0,0:0:0:0:
192,192,16755,1,0,0:0:0:0:
448,192,16857,1,0,0:0:0:0:
320,192,16959,1,0,0:0:0:0:
192,192,17061,1,0,0:0:0:0:
64,192,17162,1,0,0:0:0:0:
448,192,17162,1,0,0:0:0:0:
320,192,17264,1,0,0:0:0:0:
192,192,17365,1,0,0:0:0:0:
448,192,17467,1,0,0:0:0:0:
192,192,17569,1,0,0:0:0:0:
320,192,17569,1,0,0:0:0:0:
64,192,17671,1,0,0:0:0:0:
448,192,17773,1,0,0:0:0:0:
192,192,17875,1,0,0:0:0:0:
64,192,17976,1,0,0:0:0:0:
320,192,17976,1,0,0:0:0:0:
192,192,18078,1,0,0:0:0:0:
448,192,18180,1,0,0:0:0:0:
320,192,18282,1,0,0:0:0:0:
64,192,18384,1,0,0:0:0:0:
192,192,18384,1,0,0:0:0:0:
448,192,18485,1,0,0:0:0:0:
320,192,18587,1,0,0:0:0:0:
192,192,18689,1,0,0:0:0:0:
320,192,18791,1,0,0:0:0:0:
448,192,18791,1,0,0:0:0:0:
64,192,18892,1,0,0:0:0:0:
192,192,18994,1,0,0:0:0:0:
320,192,19095,1,0,0:0:0:0:
64,192,19197,1,0,0:0:0:0:
448,192,19197,1,0,0:0:0:0:
192,192,19299,1,0,0:0:0:0:
320,192,19401,1,0,0:0:0:0:
64,192,19503,1,0,0:0:0:0:
192,192,19605,1,0,0:0:0:0:
448,192,19605,1,0,0:0:0:0:
320,192,19706,1,0,0:0:0:0:
448,192,19808,1,0,0:0:0:0:
192,192,19910,1,0,0:0:0:0:
64,192,20012,1,0,0:0:0:0:
320,192,20012,1,0,0:0:0:0:
448,192,20114,1,0,0:0:0:0:
320,192,20215,1,0,0:0:0:0:
192,192,20317,1,0,0:0:0:0:
64,192,20419,1,0,0:0:0:0:
448,192,20419,1,0,0:0:0:0:
320,192,20521,1,0,0:0:0:0:
192,192,20622,1,0,0:0:0:0:
64,192,20724,1,0,0:0:0:0:
320,192,20825,1,0,0:0:0:0:
448,192,20825,1,0,0:0:0:0:
192,192,20927,1,0,0:0:0:0:
320,192,21029,1,0,0:0:0:0:
448,192,21131,1,0,0:0:0:0:
64,192,21233,1,0,0:0:0:0:
192,192,21233,1,0,0:0:0:0:
320,192,21335,1,0,0:0:0:0:
192,192,21436,1,0,0:0:0:0:
64,192,21538,1,0,0:0:0:0:
320,192,21640,1,0,0:0:0:0:
448,192,21640,1,0,0:0:0:0:
192,192,21742,1,0,0:0:0:0:
320,192,21844,1,0,0:0:0:0:
64,192,21945,1,0,0:0:0:0:
192,192,22047,1,0,0:0:0:0:
448,192,22047,1,0,0:0:0:0:
320,192,22149,1,0,0:0:0:0:
192,192,22250,1,0,0:0:0:0:
64,192,22352,1,0,0:0:0:0:
320,192,22454,1,0,0:0:0:0:
448,192,22454,1,0,0:0:0:0:
192,192,22555,1,0,0:0:0:0:
64,192,22657,1,0,0:0:0:0:
192,192,22759,1,0,0:0:0:0:
320,192,22861,1,0,0:0:0:0:
448,192,22861,1,0,0:0:0:0:
64,192,22963,1,0,0:0:0:0:
192,192,23065,1,0,0:0:0:0:
320,192,23166,1,0,0:0:0:0:
64,192,23268,1,0,0:0:0:0:
448,192,23268,1,0,0:0:0:0:
192,192,23370,1,0,0:0:0:0:
320,192,23472,1,0,0:0:0:0:
64,192,23574,1,0,0:0:0:0:
320,192,23675,1,0,0:0:0:0:
448,192,23675,1,0,0:0:0:0:
192,192,23777,1,0,0:0:0:0:
320,192,23879,1,0,0:0:0:0:
64,192,23980,1,0,0:0:0:0:
192,192,24082,1,0,0:0:0:0:
448,192,24082,1,0,0:0:0:0:
320,192,24184,1,0,0:0:0:0:
192,192,24285,1,0,0:0:0:0:
64,192,24387,1,0,0:0:0:0:
320,192,24489,1,0,0:0:0:0:
448,192,24489,1,0,0:0:0:0:
192,192,24591,1,0,0:0:0:0:
64,192,24693,1,0,0:0:0:0:
448,192,24795,1,0,0:0:0:0:
192,192,24896,1,0,0:0:0:0:
320,192,24896,1,0,0:0:0:0:
64,192,24998,1,0,0:0:0:0:
448,192,25100,1,0,0:0:0:0:
192,192,25202,1,0,0:0:0:0:
64,192,25304,1,0,0:0:0:0:
320,192,25304,1,0,0:0:0:0:
192,192,25405,1,0,0:0:0:0:
320,192,25507,1,0,0:0:0:0:
448,192,25609,1,0,0:0:0:0:
64,192,25710,1,0,0:0:0:0:
320,192,25710,1,0,0:0:0:0:
192,192,25812,1,0,0:0:0:0:
448,192,25914,1,0,0:0:0:0:
192,192,26015,1,0,0:0:0:0:
64,0,26117,128,0,26525:0:0:0:0:
320,0,26117,128,0,26525:0:0:0:0:
448,0,26728,128,0,26932:0:0:0:0:
320,0,26932,128,0,27135:0:0:0:0:
192,0,27135,128,0,27339:0:0:0:0:
448,0,27339,128,0,27542:0:0:0:0:
64,0,27542,128,0,27745:0:0:0:0:
192,192,27745,1,0,0:0:0:0:
448,192,27745,1,0,0:0:0:0:
320,192,27847,1,0,0:0:0:0:
64,192,27949,1,0,0:0:0:0:
192,192,27949,1,0,0:0:0:0:
448,192,28051,1,0,0:0:0:0:
64,192,28153,1,0,0:0:0:0:
320,192,28153,1,0,0:0:0:0:
192,192,28255,1,0,0:0:0:0:
320,192,28356,1,0,0:0:0:0:
448,192,28356,1,0,0:0:0:0:
64,192,28458,1,0,0:0:0:0:
192,192,28560,1,0,0:0:0:0:
448,192,28560,1,0,0:0:0:0:
320,192,28662,1,0,0:0:0:0:
64,192,28764,1,0,0:0:0:0:
192,192,28764,1,0,0:0:0:0:
448,192,28865,1,0,0:0:0:0:
64,192,28967,1,0,0:0:0:0:
320,192,28967,1,0,0:0:0:0:
192,192,29068,1,0,0:0:0:0:
320,192,29170,1,0,0:0:0:0:
448,192,29170,1,0,0:0:0:0:
64,192,29272,1,0,0:0:0:0:
192,192,29374,1,0,0:0:0:0:
448,192,29374,1,0,0:0:0:0:
320,192,29475,1,0,0:0:0:0:
64,192,29577,1,0,0:0:0:0:
192,192,29577,1,0,0:0:0:0:
448,192,29679,1,0,0:0:0:0:
192,192,29781,1,0,0:0:0:0:
320,192,29781,1,0,0:0:0:0:
64,192,29883,1,0,0:0:0:0:
320,192,29985,1,0,0:0:0:0:
448,192,29985,1,0,0:0:0:0:
192,192,30086,1,0,0:0:0:0:
64,192,30188,1,0,0:0:0:0:
448,192,30188,1,0,0:0:0:0:
320,192,30290,1,0,0:0:0:0:
192,192,30392,1,0,0:0:0:0:
448,192,30392,1,0,0:0:0:0:
64,192,30494,1,0,0:0:0:0:
192,192,30595,1,0,0:0:0:0:
320,192,30595,1,0,0:0:0:0:
448,192,30697,1,0,0:0:0:0:
64,192,30798,1,0,0:0:0:0:
320,192,30798,1,0,0:0:0:0:
192,192,30900,1,0,0:0:0:0:
320,192,31002,1,0,0:0:0:0:
448,192,31002,1,0,0:0:0:0:
64,192,31104,1,0,0:0:0:0:
192,192,31205,1,0,0:0:0:0:
448,192,31205,1,0,0:0:0:0:
320,192,31307,1,0,0:0:0:0:
64,192,31409,1,0,0:0:0:0:
192,192,31409,1,0,0:0:0:0:
448,192,31511,1,0,0:0:0:0:
64,192,31613,1,0,0:0:0:0:
320,192,31613,1,0,0:0:0:0:
192,192,31715,1,0,0:0:0:0:
320,192,31816,1,0,0:0:0:0:
448,192,31816,1,0,0:0:0:0:
64,192,31918,1,0,0:0:0:0:
192,192,32020,1,0,0:0:0:0:
448,192,32020,1,0,0:0:0:0:
320,192,32122,1,0,0:0:0:0:
64,192,32224,1,0,0:0:0:0:
192,192,32224,1,0,0:0:0:0:
448,192,32325,1,0,0:0:0:0:
64,192,32427,1,0,0:0:0:0:
320,192,32427,1,0,0:0:0:0:
192,192,32528,1,0,0:0:0:0:
320,192,32630,1,0,0:0:0:0:
448,192,32630,1,0,0:0:0:0:
64,192,32732,1,0,0:0:0:0:
192,192,32834,1,0,0:0:0:0:
448,192,32834,1,0,0:0:0:0:
320,192,32935,1,0,0:0:0:0:
64,192,33037,1,0,0:0:0:0:
192,192,33037,1,0,0:0:0:0:
448,192,33139,1,0,0:0:0:0:
64,192,33241,1,0,0:0:0:0:
192,192,33241,1,0,0:0:0:0:
320,192,33343,1,0,0:0:0:0:
448,192,33343,1,0,0:0:0:0:
64,192,33445,1,0,0:0:0:0:
192,192,33445,1,0,0:0:0:0:
320,192,33546,1,0,0:0:0:0:
448,192,33546,1,0,0:0:0:0:
64,192,33648,1,0,0:0:0:0:
192,192,33648,1,0,0:0:0:0:
320,192,33750,1,0,0:0:0:0:
448,192,33750,1,0,0:0:0:0:
64,192,33852,1,0,0:0:0:0:
192,192,33852,1,0,0:0:0:0:
320,192,33954,1,0,0:0:0:0:
448,192,33954,1,0,0:0:0:0:
64,192,34055,1,0,0:0:0:0:
192,192,34055,1,0,0:0:0:0:
320,192,34157,1,0,0:0:0:0:
448,192,34157,1,0,0:0:0:0:
64,192,34258,1,0,0:0:0:0:
192,192,34258,1,0,0:0:0:0:
448,192,34360,1,0,0:0:0:0:
64,192,34462,1,0,0:0:0:0:
320,192,34462,1,0,0:0:0:0:
448,192,34564,1,0,0:0:0:0:
64,0,34665,128,0,34716:0:0:0:0:
192,0,34665,128,0,34716:0:0:0:0:
320,0,34665,128,0,34716:0:0:0:0:
448,192,34767,1,0,0:0:0:0:
64,192,34869,1,0,0:0:0:0:
320,192,34869,1,0,0:0:0:0:
192,192,34971,1,0,0:0:0:0:
320,192,35073,1,0,0:0:0:0:
448,192,35073,1,0,0:0:0:0:
64,192,35175,1,0,0:0:0:0:
192,192,35276,1,0,0:0:0:0:
448,192,35276,1,0,0:0:0:0:
320,192,35378,1,0,0:0:0:0:
64,192,35480,1,0,0:0:0:0:
192,192,35480,1,0,0:0:0:0:
448,192,35582,1,0,0:0:0:0:
64,192,35684,1,0,0:0:0:0:
320,192,35684,1,0,0:0:0:0:
192,192,35785,1,0,0:0:0:0:
320,192,35886,1,0,0:0:0:0:
448,192,35886,1,0,0:0:0:0:
64,192,35988,1,0,0:0:0:0:
320,192,36090,1,0,0:0:0:0:
448,192,36090,1,0,0:0:0:0:
192,192,36192,1,0,0:0:0:0:
64,192,36294,1,0,0:0:0:0:
320,192,36294,1,0,0:0:0:0:
448,192,36395,1,0,0:0:0:0:
64,192,36497,1,0,0:0:0:0:
320,192,36497,1,0,0:0:0:0:
192,192,36599,1,0,0:0:0:0:
64,192,36701,1,0,0:0:0:0:
448,192,36701,1,0,0:0:0:0:
320,192,36803,1,0,0:0:0:0:
192,192,36905,1,0,0:0:0:0:
448,192,36905,1,0,0:0:0:0:
64,192,37006,1,0,0:0:0:0:
192,192,37108,1,0,0:0:0:0:
320,192,37108,1,0,0:0:0:0:
448,192,37210,1,0,0:0:0:0:
64,192,37312,1,0,0:0:0:0:
192,192,37312,1,0,0:0:0:0:
320,192,37414,1,0,0:0:0:0:
64,192,37515,1,0,0:0:0:0:
448,192,37515,1,0,0:0:0:0:
192,192,37616,1,0,0:0:0:0:
320,192,37718,1,0,0:0:0:0:
448,192,37718,1,0,0:0:0:0:
64,192,37820,1,0,0:0:0:0:
192,192,37922,1,0,0:0:0:0:
448,192,37922,1,0,0:0:0:0:
320,192,38024,1,0,0:0:0:0:
64,192,38125,1,0,0:0:0:0:
448,192,38125,1,0,0:0:0:0:
192,192,38227,1,0,0:0:0:0:
64,192,38329,1,0,0:0:0:0:
320,192,38329,1,0,0:0:0:0:
448,192,38431,1,0,0:0:0:0:
192,192,38533,1,0,0:0:0:0:
320,192,38533,1,0,0:0:0:0:
64,192,38635,1,0,0:0:0:0:
320,192,38736,1,0,0:0:0:0:
448,192,38736,1,0,0:0:0:0:
192,192,38838,1,0,0:0:0:0:
64,192,38940,1,0,0:0:0:0:
448,192,38940,1,0,0:0:0:0:
320,192,39042,1,0,0:0:0:0:
64,192,39144,1,0,0:0:0:0:
448,192,39144,1,0,0:0:0:0:
192,192,39245,1,0,0:0:0:0:
320,192,39346,1,0,0:0:0:0:
448,192,39346,1,0,0:0:0:0:
64,192,39448,1,0,0:0:0:0:
192,192,39448,1,0,0:0:0:0:
320,192,39550,1,0,0:0:0:0:
448,192,39550,1,0,0:0:0:0:
64,192,39652,1,0,0:0:0:0:
192,192,39652,1,0,0:0:0:0:
320,192,39754,1,0,0:0:0:0:
448,192,39754,1,0,0:0:0:0:
64,192,39855,1,0,0:0:0:0:
192,192,39855,1,0,0:0:0:0:
320,192,39957,1,0,0:0:0:0:
448,192,39957,1,0,0:0:0:0:
64,192,40059,1,0,0:0:0:0:
192,192,40059,1,0,0:0:0:0:
320,192,40161,1,0,0:0:0:0:
448,192,40161,1,0,0:0:0:0:
64,192,40263,1,0,0:0:0:0:
192,192,40263,1,0,0:0:0:0:
320,192,40365,1,0,0:0:0:0:
448,192,40365,1,0,0:0:0:0:
64,192,40466,1,0,0:0:0:0:
192,192,40466,1,0,0:0:0:0:
320,192,40568,1,0,0:0:0:0:
448,192,40568,1,0,0:0:0:0:
64,192,40670,1,0,0:0:0:0:
192,192,40670,1,0,0:0:0:0:
64,0,40772,128,0,40823:0:0:0:0:
192,0,40772,128,0,40823:0:0:0:0:
448,0,40772,128,0,40823:0:0:0:0:
320,192,40874,1,0,0:0:0:0:
448,192,40975,1,0,0:0:0:0:
192,192,41076,1,0,0:0:0:0:
64,192,41178,1,0,0:0:0:0:
320,192,41178,1,0,0:0:0:0:
192,192,41280,1,0,0:0:0:0:
448,192,41382,1,0,0:0:0:0:
320,192,41484,1,0,0:0:0:0:
64,192,41585,1,0,0:0:0:0:
192,192,41585,1,0,0:0:0:0:
448,192,41687,1,0,0:0:0:0:
64,0,41789,128,0,41891:0:0:0:0:
320,0,41789,128,0,41891:0:0:0:0:
192,192,41891,1,0,0:0:0:0:
320,192,41993,1,0,0:0:0:0:
448,192,41993,1,0,0:0:0:0:
64,192,42095,1,0,0:0:0:0:
192,192,42196,1,0,0:0:0:0:
320,192,42298,1,0,0:0:0:0:
64,192,42400,1,0,0:0:0:0:
448,192,42400,1,0,0:0:0:0:
192,192,42502,1,0,0:0:0:0:
320,192,42604,1,0,0:0:0:0:
64,192,42705,1,0,0:0:0:0:
192,192,42806,1,0,0:0:0:0:
448,192,42806,1,0,0:0:0:0:
320,192,42908,1,0,0:0:0:0:
64,192,43010,1,0,0:0:0:0:
192,192,43112,1,0,0:0:0:0:
64,192,43214,1,0,0:0:0:0:
320,192,43214,1,0,0:0:0:0:
192,192,43315,1,0,0:0:0:0:
320,0,43417,128,0,43519:0:0:0:0:
448,0,43417,128,0,43519:0:0:0:0:
192,192,43519,1,0,0:0:0:0:
64,192,43621,1,0,0:0:0:0:
448,192,43621,1,0,0:0:0:0:
320,192,43723,1,0,0:0:0:0:
64,192,43825,1,0,0:0:0:0:
448,192,43926,1,0,0:0:0:0:
64,192,44028,1,0,0:0:0:0:
320,192,44028,1,0,0:0:0:0:
192,192,44130,1,0,0:0:0:0:
448,192,44232,1,0,0:0:0:0:
64,192,44334,1,0,0:0:0:0:
192,192,44435,1,0,0:0:0:0:
320,192,44435,1,0,0:0:0:0:
448,192,44536,1,0,0:0:0:0:
320,192,44638,1,0,0:0:0:0:
64,192,44740,1,0,0:0:0:0:
192,192,44842,1,0,0:0:0:0:
448,192,44842,1,0,0:0:0:0:
320,192,44944,1,0,0:0:0:0:
64,0,45045,128,0,45147:0:0:0:0:
192,0,45045,128,0,45147:0:0:0:0:
320,192,45147,1,0,0:0:0:0:
64,192,45249,1,0,0:0:0:0:
448,192,45249,1,0,0:0:0:0:
192,192,45351,1,0,0:0:0:0:
320,192,45453,1,0,0:0:0:0:
448,192,45555,1,0,0:0:0:0:
64,192,45656,1,0,0:0:0:0:
192,192,45656,1,0,0:0:0:0:
320,192,45758,1,0,0:0:0:0:
192,192,45860,1,0,0:0:0:0:
448,192,45962,1,0,0:0:0:0:
64,192,46064,1,0,0:0:0:0:
320,192,46064,1,0,0:0:0:0:
192,192,46165,1,0,0:0:0:0:
320,192,46266,1,0,0:0:0:0:
448,192,46368,1,0,0:0:0:0:
192,192,46470,1,0,0:0:0:0:
320,192,46470,1,0,0:0:0:0:
64,192,46572,1,0,0:0:0:0:
192,0,46674,128,0,46775:0:0:0:0:
448,0,46674,128,0,46775:0:0:0:0:
320,192,46775,1,0,0:0:0:0:
64,192,46877,1,0,0:0:0:0:
192,192,46877,1,0,0:0:0:0:
448,192,46979,1,0,0:0:0:0:
320,192,47081,1,0,0:0:0:0:
192,192,47183,1,0,0:0:0:0:
320,192,47285,1,0,0:0:0:0:
448,192,47285,1,0,0:0:0:0:
64,192,47386,1,0,0:0:0:0:
448,192,47488,1,0,0:0:0:0:
320,192,47590,1,0,0:0:0:0:
64,192,47692,1,0,0:0:0:0:
192,192,47692,1,0,0:0:0:0:
448,192,47794,1,0,0:0:0:0:
64,192,47895,1,0,0:0:0:0:
192,192,47996,1,0,0:0:0:0:
320,192,48098,1,0,0:0:0:0:
448,192,48098,1,0,0:0:0:0:
64,192,48200,1,0,0:0:0:0:
192,0,48302,128,0,48404:0:0:0:0:
448,0,48302,128,0,48404:0:0:0:0:
320,192,48404,1,0,0:0:0:0:
64,192,48505,1,0,0:0:0:0:
192,192,48505,1,0,0:0:0:0:
448,192,48607,1,0,0:0:0:0:
320,192,48709,1,0,0:0:0:0:
192,192,48811,1,0,0:0:0:0:
64,192,48913,1,0,0:0:0:0:
448,192,48913,1,0,0:0:0:0:
320,192,49015,1,0,0:0:0:0:
192,192,49116,1,0,0:0:0:0:
64,192,49218,1,0,0:0:0:0:
192,192,49320,1,0,0:0:0:0:
320,192,49320,1,0,0:0:0:0:
448,192,49422,1,0,0:0:0:0:
320,192,49523,1,0,0:0:0:0:
192,192,49625,1,0,0:0:0:0:
320,192,49726,1,0,0:0:0:0:
448,192,49726,1,0,0:0:0:0:
64,192,49828,1,0,0:0:0:0:
192,0,49930,128,0,50032:0:0:0:0:
320,0,49930,128,0,50032:0:0:0:0:
64,192,50032,1,0,0:0:0:0:
320,192,50134,1,0,0:0:0:0:
448,192,50134,1,0,0:0:0:0:
192,192,50235,1,0,0:0:0:0:
64,192,50337,1,0,0:0:0:0:
448,192,50439,1,0,0:0:0:0:
192,192,50541,1,0,0:0:0:0:
320,192,50541,1,0,0:0:0:0:
448,192,50643,1,0,0:0:0:0:
64,192,50745,1,0,0:0:0:0:
192,192,50846,1,0,0:0:0:0:
320,192,50948,1,0,0:0:0:0:
448,192,50948,1,0,0:0:0:0:
64,192,51050,1,0,0:0:0:0:
448,192,51152,1,0,0:0:0:0:
320,192,51253,1,0,0:0:0:0:
64,192,51355,1,0,0:0:0:0:
192,192,51355,1,0,0:0:0:0:
448,192,51456,1,0,0:0:0:0:
192,0,51558,128,0,51660:0:0:0:0:
320,0,51558,128,0,51660:0:0:0:0:
64,192,51660,1,0,0:0:0:0:
192,192,51762,1,0,0:0:0:0:
448,192,51762,1,0,0:0:0:0:
320,192,51864,1,0,0:0:0:0:
192,192,51965,1,0,0:0:0:0:
448,192,52067,1,0,0:0:0:0:
64,192,52169,1,0,0:0:0:0:
320,192,52169,1,0,0:0:0:0:
192,192,52271,1,0,0:0:0:0:
320,192,52373,1,0,0:0:0:0:
448,192,52475,1,0,0:0:0:0:
64,192,52576,1,0,0:0:0:0:
192,192,52576,1,0,0:0:0:0:
320,192,52678,1,0,0:0:0:0:
192,192,52780,1,0,0:0:0:0:
448,192,52882,1,0,0:0:0:0:
64,192,52983,1,0,0:0:0:0:
320,192,52983,1,0,0:0:0:0:
192,192,53085,1,0,0:0:0:0:
320,0,53186,128,0,53288:0:0:0:0:
448,0,53186,128,0,53288:0:0:0:0:
192,192,53288,1,0,0:0:0:0:
64,192,53390,1,0,0:0:0:0:
448,192,53390,1,0,0:0:0:0:
320,192,53492,1,0,0:0:0:0:
192,192,53594,1,0,0:0:0:0:
448,192,53695,1,0,0:0:0:0:
64,192,53797,1,0,0:0:0:0:
320,192,53797,1,0,0:0:0:0:
192,192,53899,1,0,0:0:0:0:
320,192,54001,1,0,0:0:0:0:
448,192,54103,1,0,0:0:0:0:
64,192,54205,1,0,0:0:0:0:
192,192,54205,1,0,0:0:0:0:
320,192,54306,1,0,0:0:0:0:
192,192,54408,1,0,0:0:0:0:
448,192,54510,1,0,0:0:0:0:
64,192,54612,1,0,0:0:0:0:
320,192,54612,1,0,0:0:0:0:
192,192,54713,1,0,0:0:0:0:
320,192,54815,1,0,0:0:0:0:
448,192,54815,1,0,0:0:0:0:
64,192,54916,1,0,0:0:0:0:
192,192,55018,1,0,0:0:0:0:
448,192,55018,1,0,0:0:0:0:
320,192,55120,1,0,0:0:0:0:
64,192,55222,1,0,0:0:0:0:
192,192,55222,1,0,0:0:0:0:
448,192,55324,1,0,0:0:0:0:
192,192,55425,1,0,0:0:0:0:
320,192,55425,1,0,0:0:0:0:
64,192,55527,1,0,0:0:0:0:
320,192,55629,1,0,0:0:0:0:
448,192,55629,1,0,0:0:0:0:
192,192,55731,1,0,0:0:0:0:
64,192,55833,1,0,0:0:0:0:
448,192,55833,1,0,0:0:0:0:
320,192,55935,1,0,0:0:0:0:
64,192,56036,1,0,0:0:0:0:
192,192,56036,1,0,0:0:0:0:
448,192,56138,1,0,0:0:0:0:
64,192,56240,1,0,0:0:0:0:
320,192,56240,1,0,0:0:0:0:
192,192,56341,1,0,0:0:0:0:
320,192,56443,1,0,0:0:0:0:
448,192,56443,1,0,0:0:0:0:
64,192,56545,1,0,0:0:0:0:
192,192,56646,1,0,0:0:0:0:
448,192,56646,1,0,0:0:0:0:
320,192,56748,1,0,0:0:0:0:
64,192,56850,1,0,0:0:0:0:
192,192,56850,1,0,0:0:0:0:
448,192,56952,1,0,0:0:0:0:
64,192,57054,1,0,0:0:0:0:
320,192,57054,1,0,0:0:0:0:
192,192,57155,1,0,0:0:0:0:
320,192,57257,1,0,0:0:0:0:
448,192,57257,1,0,0:0:0:0:
64,192,57359,1,0,0:0:0:0:
192,192,57461,1,0,0:0:0:0:
448,192,57461,1,0,0:0:0:0:
320,192,57563,1,0,0:0:0:0:
64,192,57665,1,0,0:0:0:0:
448,192,57766,1,0,0:0:0:0:
64,192,57868,1,0,0:0:0:0:
320,192,57868,1,0,0:0:0:0:
192,192,57970,1,0,0:0:0:0:
320,192,58071,1,0,0:0:0:0:
448,192,58173,1,0,0:0:0:0:
64,192,58275,1,0,0:0:0:0:
192,192,58275,1,0,0:0:0:0:
320,192,58376,1,0,0:0:0:0:
192,192,58478,1,0,0:0:0:0:
64,192,58580,1,0,0:0:0:0:
320,192,58682,1,0,0:0:0:0:
448,192,58682,1,0,0:0:0:0:
192,192,58784,1,0,0:0:0:0:
320,192,58885,1,0,0:0:0:0:
64,192,58987,1,0,0:0:0:0:
192,192,59089,1,0,0:0:0:0:
448,192,59089,1,0,0:0:0:0:
320,192,59191,1,0,0:0:0:0:
64,192,59293,1,0,0:0:0:0:
448,192,59395,1,0,0:0:0:0:
192,192,59496,1,0,0:0:0:0:
320,192,59496,1,0,0:0:0:0:
64,192,59598,1,0,0:0:0:0:
448,192,59700,1,0,0:0:0:0:
192,192,59801,1,0,0:0:0:0:
64,192,59903,1,0,0:0:0:0:
320,192,59903,1,0,0:0:0:0:
192,192,60005,1,0,0:0:0:0:
448,192,60106,1,0,0:0:0:0:
320,192,60208,1,0,0:0:0:0:
64,192,60310,1,0,0:0:0:0:
192,192,60310,1,0,0:0:0:0:
448,192,60412,1,0,0:0:0:0:
320,192,60514,1,0,0:0:0:0:
192,192,60615,1,0,0:0:0:0:
320,192,60717,1,0,0:0:0:0:
448,192,60717,1,0,0:0:0:0:
64,192,60819,1,0,0:0:0:0:
192,192,60921,1,0,0:0:0:0:
448,192,61023,1,0,0:0:0:0:
64,192,61125,1,0,0:0:0:0:
320,192,61125,1,0,0:0:0:0:
192,192,61226,1,0,0:0:0:0:
320,192,61328,1,0,0:0:0:0:
448,192,61328,1,0,0:0:0:0:
64,192,61430,1,0,0:0:0:0:
192,192,61531,1,0,0:0:0:0:
448,192,61531,1,0,0:0:0:0:
320,192,61633,1,0,0:0:0:0:
64,192,61735,1,0,0:0:0:0:
192,192,61735,1,0,0:0:0:0:
448,192,61836,1,0,0:0:0:0:
64,192,61938,1,0,0:0:0:0:
320,192,61938,1,0,0:0:0:0:
192,192,62040,1,0,0:0:0:0:
320,192,62142,1,0,0:0:0:0:
448,192,62142,1,0,0:0:0:0:
64,192,62244,1,0,0:0:0:0:
192,192,62345,1,0,0:0:0:0:
448,192,62345,1,0,0:0:0:0:
320,192,62447,1,0,0:0:0:0:
64,192,62549,1,0,0:0:0:0:
192,192,62549,1,0,0:0:0:0:
448,192,62651,1,0,0:0:0:0:
192,192,62753,1,0,0:0:0:0:
320,192,62753,1,0,0:0:0:0:
64,192,62855,1,0,0:0:0:0:
320,192,62956,1,0,0:0:0:0:
448,192,62956,1,0,0:0:0:0:
192,192,63058,1,0,0:0:0:0:
64,192,63159,1,0,0:0:0:0:
448,192,63159,1,0,0:0:0:0:
320,192,63261,1,0,0:0:0:0:
64,192,63363,1,0,0:0:0:0:
192,192,63363,1,0,0:0:0:0:
448,192,63465,1,0,0:0:0:0:
64,192,63566,1,0,0:0:0:0:
320,192,63566,1,0,0:0:0:0:
192,192,63668,1,0,0:0:0:0:
320,192,63770,1,0,0:0:0:0:
448,192,63770,1,0,0:0:0:0:
64,192,63872,1,0,0:0:0:0:
192,192,63974,1,0,0:0:0:0:
448,192,63974,1,0,0:0:0:0:
320,192,64075,1,0,0:0:0:0:
64,192,64177,1,0,0:0:0:0:
192,192,64279,1,0,0:0:0:0:
320,192,64381,1,0,0:0:0:0:
448,192,64381,1,0,0:0:0:0:
64,192,64483,1,0,0:0:0:0:
448,192,64585,1,0,0:0:0:0:
320,192,64686,1,0,0:0:0:0:
64,192,64788,1,0,0:0:0:0:
192,192,64788,1,0,0:0:0:0:
448,192,64889,1,0,0:0:0:0:
320,192,64991,1,0,0:0:0:0:
192,192,65093,1,0,0:0:0:0:
64,0,65195,128,0,65220:0:0:0:0:
320,0,65195,128,0,65220:0:0:0:0:
448,0,65195,128,0,65220:0:0:0:0:
192,192,65296,1,0,0:0:0:0:
320,192,65398,1,0,0:0:0:0:
448,192,65500,1,0,0:0:0:0:
64,192,65602,1,0,0:0:0:0:
192,192,65602,1,0,0:0:0:0:
320,192,65704,1,0,0:0:0:0:
192,192,65805,1,0,0:0:0:0:
64,192,65907,1,0,0:0:0:0:
320,192,66009,1,0,0:0:0:0:
448,192,66009,1,0,0:0:0:0:
192,192,66111,1,0,0:0:0:0:
320,192,66213,1,0,0:0:0:0:
64,192,66315,1,0,0:0:0:0:
192,192,66416,1,0,0:0:0:0:
448,192,66416,1,0,0:0:0:0:
320,192,66518,1,0,0:0:0:0:
64,192,66619,1,0,0:0:0:0:
192,192,66721,1,0,0:0:0:0:
320,0,66823,128,0,66925:0:0:0:0:
64,0,66925,128,0,67026:0:0:0:0:
192,0,67026,128,0,67128:0:0:0:0:
320,0,67128,128,0,67230:0:0:0:0:
448,0,67230,128,0,67332:0:0:0:0:
64,0,67332,128,0,67434:0:0:0:0:
320,0,67434,128,0,67535:0:0:0:0:
192,0,67535,128,0,67637:0:0:0:0:
448,0,67637,128,0,67739:0:0:0:0:
320,0,67739,128,0,67841:0:0:0:0:
64,0,67841,128,0,67943:0:0:0:0:
192,0,67943,128,0,68045:0:0:0:0:
64,0,68045,128,0,68146:0:0:0:0:
448,0,68146,128,0,68248:0:0:0:0:
64,0,68248,128,0,68349:0:0:0:0:
320,0,68248,128,0,68349:0:0:0:0:
192,0,68349,128,0,68451:0:0:0:0:
64,192,68451,1,0,0:0:0:0:
320,192,68451,1,0,0:0:0:0:
448,192,68451,1,0,0:0:0:0:
192,192,68553,1,0,0:0:0:0:
320,192,68655,1,0,0:0:0:0:
448,192,68655,1,0,0:0:0:0:
64,192,68756,1,0,0:0:0:0:
192,192,68858,1,0,0:0:0:0:
448,192,68858,1,0,0:0:0:0:
320,192,68960,1,0,0:0:0:0:
64,192,69062,1,0,0:0:0:0:
192,192,69062,1,0,0:0:0:0:
448,192,69164,1,0,0:0:0:0:
64,192,69265,1,0,0:0:0:0:
320,192,69265,1,0,0:0:0:0:
192,192,69367,1,0,0:0:0:0:
320,192,69469,1,0,0:0:0:0:
448,192,69469,1,0,0:0:0:0:
64,192,69571,1,0,0:0:0:0:
192,192,69673,1,0,0:0:0:0:
448,192,69673,1,0,0:0:0:0:
320,192,69775,1,0,0:0:0:0:
64,192,69876,1,0,0:0:0:0:
192,192,69876,1,0,0:0:0:0:
448,192,69977,1,0,0:0:0:0:
64,192,70079,1,0,0:0:0:0:
320,192,70079,1,0,0:0:0:0:
192,192,70181,1,0,0:0:0:0:
320,192,70283,1,0,0:0:0:0:
448,192,70283,1,0,0:0:0:0:
64,192,70385,1,0,0:0:0:0:
192,192,70486,1,0,0:0:0:0:
448,192,70486,1,0,0:0:0:0:
320,192,70588,1,0,0:0:0:0:
64,192,70690,1,0,0:0:0:0:
192,192,70690,1,0,0:0:0:0:
448,192,70792,1,0,0:0:0:0:
192,192,70894,1,0,0:0:0:0:
320,192,70894,1,0,0:0:0:0:
64,192,70995,1,0,0:0:0:0:
320,192,71097,1,0,0:0:0:0:
448,192,71097,1,0,0:0:0:0:
192,192,71199,1,0,0:0:0:0:
64,192,71301,1,0,0:0:0:0:
448,192,71301,1,0,0:0:0:0:
320,192,71403,1,0,0:0:0:0:
192,192,71505,1,0,0:0:0:0:
448,192,71505,1,0,0:0:0:0:
64,192,71606,1,0,0:0:0:0:
192,192,71707,1,0,0:0:0:0:
320,192,71707,1,0,0:0:0:0:
448,192,71809,1,0,0:0:0:0:
64,192,71911,1,0,0:0:0:0:
320,192,71911,1,0,0:0:0:0:
448,192,72013,1,0,0:0:0:0:
192,192,72115,1,0,0:0:0:0:
320,192,72115,1,0,0:0:0:0:
64,192,72216,1,0,0:0:0:0:
192,192,72318,1,0,0:0:0:0:
448,192,72318,1,0,0:0:0:0:
320,192,72420,1,0,0:0:0:0:
64,192,72522,1,0,0:0:0:0:
448,192,72522,1,0,0:0:0:0:
192,192,72624,1,0,0:0:0:0:
320,192,72725,1,0,0:0:0:0:
448,192,72725,1,0,0:0:0:0:
64,192,72827,1,0,0:0:0:0:
192,192,72929,1,0,0:0:0:0:
448,192,72929,1,0,0:0:0:0:
320,192,73031,1,0,0:0:0:0:
64,192,73133,1,0,0:0:0:0:
192,192,73133,1,0,0:0:0:0:
448,192,73235,1,0,0:0:0:0:
64,192,73336,1,0,0:0:0:0:
320,192,73336,1,0,0:0:0:0:
192,192,73437,1,0,0:0:0:0:
320,192,73539,1,0,0:0:0:0:
448,192,73539,1,0,0:0:0:0:
64,192,73641,1,0,0:0:0:0:
192,192,73743,1,0,0:0:0:0:
448,192,73743,1,0,0:0:0:0:
320,192,73845,1,0,0:0:0:0:
64,192,73946,1,0,0:0:0:0:
192,192,73946,1,0,0:0:0:0:
320,192,74048,1,0,0:0:0:0:
192,192,74150,1,0,0:0:0:0:
448,192,74150,1,0,0:0:0:0:
64,192,74252,1,0,0:0:0:0:
320,192,74354,1,0,0:0:0:0:
448,192,74354,1,0,0:0:0:0:
192,192,74455,1,0,0:0:0:0:
64,192,74557,1,0,0:0:0:0:
448,192,74557,1,0,0:0:0:0:
192,192,74659,1,0,0:0:0:0:
64,192,74761,1,0,0:0:0:0:
320,192,74761,1,0,0:0:0:0:
448,192,74863,1,0,0:0:0:0:
192,192,74965,1,0,0:0:0:0:
320,192,74965,1,0,0:0:0:0:
64,192,75066,1,0,0:0:0:0:
192,192,75167,1,0,0:0:0:0:
448,192,75167,1,0,0:0:0:0:
320,192,75269,1,0,0:0:0:0:
64,192,75371,1,0,0:0:0:0:
448,192,75371,1,0,0:0:0:0:
192,192,75473,1,0,0:0:0:0:
320,192,75575,1,0,0:0:0:0:
448,192,75575,1,0,0:0:0:0:
64,192,75676,1,0,0:0:0:0:
192,192,75778,1,0,0:0:0:0:
320,192,75778,1,0,0:0:0:0:
448,192,75880,1,0,0:0:0:0:
64,192,75982,1,0,0:0:0:0:
320,192,75982,1,0,0:0:0:0:
192,192,76084,1,0,0:0:0:0:
320,192,76185,1,0,0:0:0:0:
448,192,76185,1,0,0:0:0:0:
64,192,76287,1,0,0:0:0:0:
192,192,76389,1,0,0:0:0:0:
448,192,76389,1,0,0:0:0:0:
320,192,76491,1,0,0:0:0:0:
64,192,76593,1,0,0:0:0:0:
192,192,76593,1,0,0:0:0:0:
320,192,76695,1,0,0:0:0:0:
64,192,76795,1,0,0:0:0:0:
192,192,76795,1,0,0:0:0:0:
448,192,76897,1,0,0:0:0:0:
64,192,76999,1,0,0:0:0:0:
320,192,76999,1,0,0:0:0:0:
192,192,77101,1,0,0:0:0:0:
64,192,77203,1,0,0:0:0:0:
448,192,77203,1,0,0:0:0:0:
320,192,77305,1,0,0:0:0:0:
192,192,77406,1,0,0:0:0:0:
448,192,77406,1,0,0:0:0:0:
64,192,77508,1,0,0:0:0:0:
192,192,77610,1,0,0:0:0:0:
320,192,77610,1,0,0:0:0:0:
64,192,77712,1,0,0:0:0:0:
320,192,77814,1,0,0:0:0:0:
448,192,77814,1,0,0:0:0:0:
192,192,77915,1,0,0:0:0:0:
64,192,78017,1,0,0:0:0:0:
448,192,78017,1,0,0:0:0:0:
320,192,78119,1,0,0:0:0:0:
64,192,78221,1,0,0:0:0:0:
192,192,78221,1,0,0:0:0:0:
320,192,78323,1,0,0:0:0:0:
448,192,78323,1,0,0:0:0:0:
64,192,78425,1,0,0:0:0:0:
192,192,78425,1,0,0:0:0:0:
320,192,78525,1,0,0:0:0:0:
448,192,78525,1,0,0:0:0:0:
64,192,78627,1,0,0:0:0:0:
192,192,78627,1,0,0:0:0:0:
320,192,78729,1,0,0:0:0:0:
448,192,78729,1,0,0:0:0:0:
64,192,78831,1,0,0:0:0:0:
192,192,78831,1,0,0:0:0:0:
320,192,78933,1,0,0:0:0:0:
448,192,78933,1,0,0:0:0:0:
64,192,79035,1,0,0:0:0:0:
192,192,79035,1,0,0:0:0:0:
320,192,79136,1,0,0:0:0:0:
448,192,79136,1,0,0:0:0:0:
64,192,79238,1,0,0:0:0:0:
192,192,79238,1,0,0:0:0:0:
320,192,79340,1,0,0:0:0:0:
448,192,79340,1,0,0:0:0:0:
64,192,79442,1,0,0:0:0:0:
192,192,79442,1,0,0:0:0:0:
320,192,79544,1,0,0:0:0:0:
448,192,79544,1,0,0:0:0:0:
64,192,79645,1,0,0:0:0:0:
192,192,79645,1,0,0:0:0:0:
320,192,79747,1,0,0:0:0:0:
448,192,79747,1,0,0:0:0:0:
64,192,79849,1,0,0:0:0:0:
192,192,79849,1,0,0:0:0:0:
320,192,79951,1,0,0:0:0:0:
448,192,80053,1,0,0:0:0:0:
64,192,80155,1,0,0:0:0:0:
192,192,80255,1,0,0:0:0:0:
320,192,80255,1,0,0:0:0:0:
448,192,80255,1,0,0:0:0:0:
64,192,80357,1,0,0:0:0:0:
448,192,80459,1,0,0:0:0:0:
320,192,80561,1,0,0:0:0:0:
64,192,80663,1,0,0:0:0:0:
448,192,80663,1,0,0:0:0:0:
320,192,80765,1,0,0:0:0:0:
64,192,80866,1,0,0:0:0:0:
192,192,80866,1,0,0:0:0:0:
448,192,80968,1,0,0:0:0:0:
192,192,81070,1,0,0:0:0:0:
320,192,81070,1,0,0:0:0:0:
64,192,81172,1,0,0:0:0:0:
320,192,81274,1,0,0:0:0:0:
448,192,81274,1,0,0:0:0:0:
192,192,81375,1,0,0:0:0:0:
64,192,81477,1,0,0:0:0:0:
448,192,81477,1,0,0:0:0:0:
320,192,81579,1,0,0:0:0:0:
64,192,81681,1,0,0:0:0:0:
192,192,81681,1,0,0:0:0:0:
448,192,81783,1,0,0:0:0:0:
192,192,81885,1,0,0:0:0:0:
320,192,81885,1,0,0:0:0:0:
64,192,81985,1,0,0:0:0:0:
320,192,82087,1,0,0:0:0:0:
448,192,82087,1,0,0:0:0:0:
192,192,82189,1,0,0:0:0:0:
64,192,82291,1,0,0:0:0:0:
448,192,82291,1,0,0:0:0:0:
320,192,82393,1,0,0:0:0:0:
192,192,82495,1,0,0:0:0:0:
448,192,82495,1,0,0:0:0:0:
64,192,82596,1,0,0:0:0:0:
192,192,82698,1,0,0:0:0:0:
448,192,82698,1,0,0:0:0:0:
320,192,82800,1,0,0:0:0:0:
64,192,82902,1,0,0:0:0:0:
192,192,82902,1,0,0:0:0:0:
320,192,83004,1,0,0:0:0:0:
64,192,83105,1,0,0:0:0:0:
448,192,83105,1,0,0:0:0:0:
192,192,83207,1,0,0:0:0:0:
320,192,83309,1,0,0:0:0:0:
448,192,83309,1,0,0:0:0:0:
64,192,83411,1,0,0:0:0:0:
192,192,83513,1,0,0:0:0:0:
320,192,83513,1,0,0:0:0:0:
448,192,83614,1,0,0:0:0:0:
64,192,83715,1,0,0:0:0:0:
320,192,83715,1,0,0:0:0:0:
192,192,83817,1,0,0:0:0:0:
320,192,83919,1,0,0:0:0:0:
448,192,83919,1,0,0:0:0:0:
64,192,84021,1,0,0:0:0:0:
192,192,84123,1,0,0:0:0:0:
448,192,84123,1,0,0:0:0:0:
320,192,84225,1,0,0:0:0:0:
64,192,84326,1,0,0:0:0:0:
448,192,84326,1,0,0:0:0:0:
192,192,84428,1,0,0:0:0:0:
64,192,84530,1,0,0:0:0:0:
320,192,84530,1,0,0:0:0:0:
192,192,84632,1,0,0:0:0:0:
320,192,84734,1,0,0:0:0:0:
448,192,84734,1,0,0:0:0:0:
64,192,84835,1,0,0:0:0:0:
192,192,84937,1,0,0:0:0:0:
320,192,84937,1,0,0:0:0:0:
448,192,85039,1,0,0:0:0:0:
64,192,85141,1,0,0:0:0:0:
192,192,85141,1,0,0:0:0:0:
320,192,85243,1,0,0:0:0:0:
192,192,85344,1,0,0:0:0:0:
448,192,85344,1,0,0:0:0:0:
64,192,85445,1,0,0:0:0:0:
192,192,85547,1,0,0:0:0:0:
320,192,85547,1,0,0:0:0:0:
448,192,85649,1,0,0:0:0:0:
64,192,85751,1,0,0:0:0:0:
320,192,85751,1,0,0:0:0:0:
192,192,85853,1,0,0:0:0:0:
320,192,85955,1,0,0:0:0:0:
448,192,85955,1,0,0:0:0:0:
64,192,86056,1,0,0:0:0:0:
192,192,86158,1,0,0:0:0:0:
320,192,86158,1,0,0:0:0:0:
448,192,86260,1,0,0:0:0:0:
64,192,86362,1,0,0:0:0:0:
192,192,86362,1,0,0:0:0:0:
320,192,86464,1,0,0:0:0:0:
64,192,86565,1,0,0:0:0:0:
448,192,86565,1,0,0:0:0:0:
192,192,86667,1,0,0:0:0:0:
320,192,86769,1,0,0:0:0:0:
448,192,86769,1,0,0:0:0:0:
64,192,86871,1,0,0:0:0:0:
192,192,86973,1,0,0:0:0:0:
320,192,86973,1,0,0:0:0:0:
64,192,87074,1,0,0:0:0:0:
192,192,87175,1,0,0:0:0:0:
448,192,87175,1,0,0:0:0:0:
320,192,87277,1,0,0:0:0:0:
64,192,87379,1,0,0:0:0:0:
192,192,87379,1,0,0:0:0:0:
448,192,87481,1,0,0:0:0:0:
64,192,87583,1,0,0:0:0:0:
320,192,87583,1,0,0:0:0:0:
192,192,87685,1,0,0:0:0:0:
320,192,87786,1,0,0:0:0:0:
448,192,87786,1,0,0:0:0:0:
64,192,87888,1,0,0:0:0:0:
192,192,87990,1,0,0:0:0:0:
448,192,87990,1,0,0:0:0:0:
320,192,88092,1,0,0:0:0:0:
64,192,88194,1,0,0:0:0:0:
192,192,88194,1,0,0:0:0:0:
448,192,88295,1,0,0:0:0:0:
192,192,88397,1,0,0:0:0:0:
320,192,88397,1,0,0:0:0:0:
64,192,88499,1,0,0:0:0:0:
320,192,88601,1,0,0:0:0:0:
448,192,88601,1,0,0:0:0:0:
192,192,88703,1,0,0:0:0:0:
64,192,88804,1,0,0:0:0:0:
448,192,88804,1,0,0:0:0:0:
320,192,88905,1,0,0:0:0:0:
64,192,89007,1,0,0:0:0:0:
192,192,89007,1,0,0:0:0:0:
448,192,89109,1,0,0:0:0:0:
64,192,89211,1,0,0:0:0:0:
320,192,89211,1,0,0:0:0:0:
192,192,89313,1,0,0:0:0:0:
320,192,89415,1,0,0:0:0:0:
448,192,89415,1,0,0:0:0:0:
64,192,89516,1,0,0:0:0:0:
320,192,89618,1,0,0:0:0:0:
448,192,89618,1,0,0:0:0:0:
192,192,89720,1,0,0:0:0:0:
64,192,89822,1,0,0:0:0:0:
320,192,89822,1,0,0:0:0:0:
448,192,89924,1,0,0:0:0:0:
64,192,90025,1,0,0:0:0:0:
192,192,90025,1,0,0:0:0:0:
320,192,90127,1,0,0:0:0:0:
64,192,90229,1,0,0:0:0:0:
448,192,90229,1,0,0:0:0:0:
192,192,90331,1,0,0:0:0:0:
320,192,90432,1,0,0:0:0:0:
448,192,90432,1,0,0:0:0:0:
64,192,90534,1,0,0:0:0:0:
192,192,90635,1,0,0:0:0:0:
448,192,90635,1,0,0:0:0:0:
320,192,90737,1,0,0:0:0:0:
64,192,90839,1,0,0:0:0:0:
192,192,90839,1,0,0:0:0:0:
448,192,90941,1,0,0:0:0:0:
64,192,91043,1,0,0:0:0:0:
320,192,91043,1,0,0:0:0:0:
448,192,91145,1,0,0:0:0:0:
64,192,91246,1,0,0:0:0:0:
192,192,91246,1,0,0:0:0:0:
320,192,91348,1,0,0:0:0:0:
448,192,91348,1,0,0:0:0:0:
64,192,91450,1,0,0:0:0:0:
192,192,91450,1,0,0:0:0:0:
320,192,91552,1,0,0:0:0:0:
448,192,91552,1,0,0:0:0:0:
64,192,91654,1,0,0:0:0:0:
192,192,91654,1,0,0:0:0:0:
320,192,91755,1,0,0:0:0:0:
448,192,91755,1,0,0:0:0:0:
64,192,91857,1,0,0:0:0:0:
192,192,91857,1,0,0:0:0:0:
320,192,91959,1,0,0:0:0:0:
448,192,91959,1,0,0:0:0:0:
64,192,92061,1,0,0:0:0:0:
192,192,92061,1,0,0:0:0:0:
320,192,92162,1,0,0:0:0:0:
448,192,92162,1,0,0:0:0:0:
64,192,92264,1,0,0:0:0:0:
192,192,92264,1,0,0:0:0:0:
320,192,92365,1,0,0:0:0:0:
448,192,92365,1,0,0:0:0:0:
64,192,92467,1,0,0:0:0:0:
192,192,92467,1,0,0:0:0:0:
320,192,92569,1,0,0:0:0:0:
448,192,92569,1,0,0:0:0:0:
64,192,92671,1,0,0:0:0:0:
192,192,92671,1,0,0:0:0:0:
320,192,92773,1,0,0:0:0:0:
448,192,92773,1,0,0:0:0:0:
64,0,92875,128,0,92976:0:0:0:0:
192,0,92875,128,0,92976:0:0:0:0:
192,0,93078,128,0,93180:0:0:0:0:
448,0,93078,128,0,93180:0:0:0:0:
64,192,93282,1,0,0:0:0:0:
192,192,93282,1,0,0:0:0:0:
448,192,93282,1,0,0:0:0:0:
320,192,93384,1,0,0:0:0:0:
64,192,93485,1,0,0:0:0:0:
192,192,93485,1,0,0:0:0:0:
448,192,93587,1,0,0:0:0:0:
64,192,93689,1,0,0:0:0:0:
320,192,93689,1,0,0:0:0:0:
192,192,93791,1,0,0:0:0:0:
320,192,93892,1,0,0:0:0:0:
448,192,93892,1,0,0:0:0:0:
64,192,93994,1,0,0:0:0:0:
192,192,94095,1,0,0:0:0:0:
448,192,94095,1,0,0:0:0:0:
320,192,94197,1,0,0:0:0:0:
64,192,94299,1,0,0:0:0:0:
192,192,94299,1,0,0:0:0:0:
448,192,94401,1,0,0:0:0:0:
64,192,94503,1,0,0:0:0:0:
320,192,94503,1,0,0:0:0:0:
192,192,94605,1,0,0:0:0:0:
320,192,94706,1,0,0:0:0:0:
448,192,94706,1,0,0:0:0:0:
64,192,94808,1,0,0:0:0:0:
192,192,94910,1,0,0:0:0:0:
320,192,94910,1,0,0:0:0:0:
448,192,95012,1,0,0:0:0:0:
64,192,95114,1,0,0:0:0:0:
192,192,95114,1,0,0:0:0:0:
320,192,95215,1,0,0:0:0:0:
64,192,95317,1,0,0:0:0:0:
448,192,95317,1,0,0:0:0:0:
192,192,95419,1,0,0:0:0:0:
64,192,95521,1,0,0:0:0:0:
320,192,95521,1,0,0:0:0:0:
448,192,95622,1,0,0:0:0:0:
192,192,95724,1,0,0:0:0:0:
320,192,95724,1,0,0:0:0:0:
64,192,95825,1,0,0:0:0:0:
192,192,95927,1,0,0:0:0:0:
448,192,95927,1,0,0:0:0:0:
320,192,96029,1,0,0:0:0:0:
64,192,96131,1,0,0:0:0:0:
192,192,96131,1,0,0:0:0:0:
448,192,96233,1,0,0:0:0:0:
64,192,96335,1,0,0:0:0:0:
320,192,96335,1,0,0:0:0:0:
192,192,96436,1,0,0:0:0:0:
320,192,96538,1,0,0:0:0:0:
448,192,96538,1,0,0:0:0:0:
64,192,96640,1,0,0:0:0:0:
192,192,96742,1,0,0:0:0:0:
448,192,96742,1,0,0:0:0:0:
320,192,96844,1,0,0:0:0:0:
64,192,96945,1,0,0:0:0:0:
192,192,96945,1,0,0:0:0:0:
448,192,97047,1,0,0:0:0:0:
64,192,97149,1,0,0:0:0:0:
320,192,97149,1,0,0:0:0:0:
192,192,97250,1,0,0:0:0:0:
320,192,97352,1,0,0:0:0:0:
448,192,97352,1,0,0:0:0:0:
64,192,97454,1,0,0:0:0:0:
192,192,97555,1,0,0:0:0:0:
448,192,97555,1,0,0:0:0:0:
320,192,97657,1,0,0:0:0:0:
64,192,97759,1,0,0:0:0:0:
192,192,97759,1,0,0:0:0:0:
448,192,97861,1,0,0:0:0:0:
64,192,97963,1,0,0:0:0:0:
320,192,97963,1,0,0:0:0:0:
192,192,98065,1,0,0:0:0:0:
320,192,98166,1,0,0:0:0:0:
448,192,98166,1,0,0:0:0:0:
64,192,98268,1,0,0:0:0:0:
320,192,98370,1,0,0:0:0:0:
448,192,98370,1,0,0:0:0:0:
64,192,98472,1,0,0:0:0:0:
192,192,98472,1,0,0:0:0:0:
320,192,98574,1,0,0:0:0:0:
448,192,98574,1,0,0:0:0:0:
64,192,98675,1,0,0:0:0:0:
192,192,98675,1,0,0:0:0:0:
320,192,98777,1,0,0:0:0:0:
448,192,98777,1,0,0:0:0:0:
64,192,98879,1,0,0:0:0:0:
192,192,98879,1,0,0:0:0:0:
320,192,98980,1,0,0:0:0:0:
448,192,98980,1,0,0:0:0:0:
64,192,99082,1,0,0:0:0:0:
192,192,99082,1,0,0:0:0:0:
320,192,99184,1,0,0:0:0:0:
448,192,99184,1,0,0:0:0:0:
64,192,99285,1,0,0:0:0:0:
192,192,99285,1,0,0:0:0:0:
320,192,99387,1,0,0:0:0:0:
448,192,99387,1,0,0:0:0:0:
192,192,99489,1,0,0:0:0:0:
64,192,99591,1,0,0:0:0:0:
448,192,99591,1,0,0:0:0:0:
320,192,99693,1,0,0:0:0:0:
64,0,99795,128,0,99845:0:0:0:0:
192,0,99795,128,0,99845:0:0:0:0:
448,0,99795,128,0,99845:0:0:0:0:
320,192,99896,1,0,0:0:0:0:
64,192,99998,1,0,0:0:0:0:
192,192,99998,1,0,0:0:0:0:
448,192,100100,1,0,0:0:0:0:
64,192,100202,1,0,0:0:0:0:
320,192,100202,1,0,0:0:0:0:
192,192,100304,1,0,0:0:0:0:
320,192,100405,1,0,0:0:0:0:
448,192,100405,1,0,0:0:0:0:
64,192,100507,1,0,0:0:0:0:
192,192,100609,1,0,0:0:0:0:
448,192,100609,1,0,0:0:0:0:
320,192,100710,1,0,0:0:0:0:
64,192,100812,1,0,0:0:0:0:
192,192,100812,1,0,0:0:0:0:
448,192,100914,1,0,0:0:0:0:
64,192,101015,1,0,0:0:0:0:
320,192,101015,1,0,0:0:0:0:
192,192,101117,1,0,0:0:0:0:
64,192,101219,1,0,0:0:0:0:
320,192,101219,1,0,0:0:0:0:
448,192,101321,1,0,0:0:0:0:
64,192,101423,1,0,0:0:0:0:
192,192,101423,1,0,0:0:0:0:
320,192,101525,1,0,0:0:0:0:
64,192,101626,1,0,0:0:0:0:
192,192,101626,1,0,0:0:0:0:
448,192,101728,1,0,0:0:0:0:
192,192,101830,1,0,0:0:0:0:
320,192,101830,1,0,0:0:0:0:
64,192,101932,1,0,0:0:0:0:
320,192,102034,1,0,0:0:0:0:
448,192,102034,1,0,0:0:0:0:
192,192,102135,1,0,0:0:0:0:
64,192,102237,1,0,0:0:0:0:
448,192,102237,1,0,0:0:0:0:
320,192,102339,1,0,0:0:0:0:
192,192,102440,1,0,0:0:0:0:
448,192,102440,1,0,0:0:0:0:
64,192,102542,1,0,0:0:0:0:
192,192,102644,1,0,0:0:0:0:
320,192,102644,1,0,0:0:0:0:
448,192,102745,1,0,0:0:0:0:
64,192,102847,1,0,0:0:0:0:
320,192,102847,1,0,0:0:0:0:
192,192,102949,1,0,0:0:0:0:
320,192,103051,1,0,0:0:0:0:
448,192,103051,1,0,0:0:0:0:
64,192,103153,1,0,0:0:0:0:
192,192,103255,1,0,0:0:0:0:
320,192,103255,1,0,0:0:0:0:
448,192,103356,1,0,0:0:0:0:
64,192,103458,1,0,0:0:0:0:
192,192,103458,1,0,0:0:0:0:
320,192,103560,1,0,0:0:0:0:
64,192,103662,1,0,0:0:0:0:
448,192,103662,1,0,0:0:0:0:
192,192,103764,1,0,0:0:0:0:
64,192,103865,1,0,0:0:0:0:
320,192,103865,1,0,0:0:0:0:
448,192,103967,1,0,0:0:0:0:
192,192,104068,1,0,0:0:0:0:
320,192,104068,1,0,0:0:0:0:
64,192,104170,1,0,0:0:0:0:
64,192,104272,1,0,0:0:0:0:
448,192,104272,1,0,0:0:0:0:
320,192,104374,1,0,0:0:0:0:
64,192,104475,1,0,0:0:0:0:
192,192,104475,1,0,0:0:0:0:
320,192,104577,1,0,0:0:0:0:
448,192,104577,1,0,0:0:0:0:
64,192,104679,1,0,0:0:0:0:
192,192,104679,1,0,0:0:0:0:
320,192,104781,1,0,0:0:0:0:
448,192,104781,1,0,0:0:0:0:
64,192,104883,1,0,0:0:0:0:
192,192,104883,1,0,0:0:0:0:
320,192,104985,1,0,0:0:0:0:
448,192,104985,1,0,0:0:0:0:
64,192,105086,1,0,0:0:0:0:
192,192,105086,1,0,0:0:0:0:
320,192,105188,1,0,0:0:0:0:
448,192,105188,1,0,0:0:0:0:
64,192,105290,1,0,0:0:0:0:
192,192,105290,1,0,0:0:0:0:
320,192,105392,1,0,0:0:0:0:
448,192,105392,1,0,0:0:0:0:
64,192,105494,1,0,0:0:0:0:
192,192,105494,1,0,0:0:0:0:
320,192,105595,1,0,0:0:0:0:
448,192,105595,1,0,0:0:0:0:
64,192,105697,1,0,0:0:0:0:
192,192,105697,1,0,0:0:0:0:
320,192,105798,1,0,0:0:0:0:
448,192,105798,1,0,0:0:0:0:
64,0,105900,128,0,106036:0:0:0:0:
192,0,105900,128,0,106036:0:0:0:0:
320,0,105900,128,0,106036:0:0:0:0:
448,0,105900,128,0,106036:0:0:0:0:
64,0,106104,128,0,106307:0:0:0:0:
192,0,106307,128,0,106511:0:0:0:0:
320,0,106511,128,0,106715:0:0:0:0:
448,0,106918,128,0,107122:0:0:0:0:
320,0,107122,128,0,107325:0:0:0:0:
64,0,107325,128,0,107528:0:0:0:0:
192,0,107528,128,0,107732:0:0:0:0:
320,0,107732,128,0,107935:0:0:0:0:
192,0,107935,128,0,108139:0:0:0:0:
64,0,108139,128,0,108343:0:0:0:0:
448,0,108546,128,0,108750:0:0:0:0:
320,0,108750,128,0,108954:0:0:0:0:
192,0,108954,128,0,109157:0:0:0:0:
320,0,109157,128,0,109360:0:0:0:0:
64,0,109360,128,0,109564:0:0:0:0:
192,0,109564,128,0,109767:0:0:0:0:
320,0,109767,128,0,109971:0:0:0:0:
64,0,110175,128,0,110378:0:0:0:0:
448,0,110378,128,0,110582:0:0:0:0:
320,0,110582,128,0,110785:0:0:0:0:
192,0,110785,128,0,110988:0:0:0:0:
448,0,110988,128,0,111192:0:0:0:0:
64,0,111192,128,0,111395:0:0:0:0:
192,0,111395,128,0,111599:0:0:0:0:
320,0,111803,128,0,112006:0:0:0:0:
192,0,112006,128,0,112210:0:0:0:0:
64,0,112210,128,0,112414:0:0:0:0:
320,0,112414,128,0,112616:0:0:0:0:
192,0,112616,128,0,112820:0:0:0:0:
448,0,112820,128,0,113024:0:0:0:0:
320,0,113024,128,0,113227:0:0:0:0:
448,0,113431,128,0,113635:0:0:0:0:
64,0,113635,128,0,113838:0:0:0:0:
192,0,113838,128,0,114042:0:0:0:0:
320,0,114042,128,0,114245:0:0:0:0:
192,0,114245,128,0,114448:0:0:0:0:
448,0,114448,128,0,114652:0:0:0:0:
320,0,114652,128,0,114855:0:0:0:0:
448,0,115059,128,0,115263:0:0:0:0:
320,0,115263,128,0,115466:0:0:0:0:
192,0,115466,128,0,115670:0:0:0:0:
448,0,115670,128,0,115874:0:0:0:0:
320,0,115874,128,0,116280:0:0:0:0:
192,0,116076,128,0,116280:0:0:0:0:
64,0,116280,128,0,116484:0:0:0:0:
192,0,116687,128,0,116891:0:0:0:0:
320,0,116891,128,0,117095:0:0:0:0:
448,0,117095,128,0,117298:0:0:0:0:
64,0,117298,128,0,117502:0:0:0:0:
192,0,117502,128,0,117705:0:0:0:0:
320,0,117705,128,0,117908:0:0:0:0:
64,0,117908,128,0,118112:0:0:0:0:
448,0,118315,128,0,118519:0:0:0:0:
448,0,118723,128,0,118926:0:0:0:0:
448,0,119130,128,0,119334:0:0:0:0:
448,0,119536,128,0,119740:0:0:0:0:
