osu file format v14

[General]
AudioFilename: audio.mp3
AudioLeadIn: 0
PreviewTime: 63549
Countdown: 0
SampleSet: Soft
StackLeniency: 0.6
Mode: 0
LetterboxInBreaks: 0
WidescreenStoryboard: 0

[Editor]
Bookmarks: 31749
DistanceSpacing: 1
BeatDivisor: 4
GridSize: 16
TimelineZoom: 1

[Metadata]
Title:Mirai Melody
TitleUnicode:ミライメロディ
Artist:yozurino*
ArtistUnicode:yozurino*
Creator:Left
Version:Normal
Source:オトメ*ドメイン
Tags:otome domain qualia palette ぱれっと eroge ending visual novel yozuca lotta rino
BeatmapID:1103889
BeatmapSetID:519583

[Difficulty]
HPDrainRate:4
CircleSize:3.5
OverallDifficulty:4
ApproachRate:4.6
SliderMultiplier:1.1
SliderTickRate:1

[Events]
//Background and Video events
0,0,"nm.jpg",0,0
//Break Periods
//Storyboard Layer 0 (Background)
//Storyboard Layer 1 (Fail)
//Storyboard Layer 2 (Pass)
//Storyboard Layer 3 (Foreground)
//Storyboard Sound Samples

[TimingPoints]
1029,480,4,2,9,60,1,0
8709,-100,4,2,9,70,0,0
16389,-100,4,2,9,60,0,0
31749,-100,4,2,9,70,0,0
47109,-100,4,2,9,60,0,0
54789,-100,4,2,9,70,0,0
64389,-100,4,2,9,80,0,1
98949,-100,4,2,9,60,0,0
102789,-100,4,2,9,70,0,0
120309,-100,4,2,9,5,0,0

[Colours]
Combo1 : 255,146,94
Combo2 : 164,255,72
Combo3 : 169,83,255
SliderTrackOverride : 15,0,30
SliderBorder : 147,200,255

[HitObjects]
42,245,1029,6,0,P|95:221|158:229,1,110,10|10,0:0|0:0,0:0:0:0:
247,266,1989,2,0,L|240:330,2,55,10|2|8,0:0|0:0|0:0,0:0:0:0:
281,223,2709,2,0,L|265:106,1,110,2|2,0:0|0:0,0:0:0:0:
235,68,3429,1,10,0:0:0:0:
141,9,3909,2,0,P|125:72|146:133,1,110,10|10,0:0|0:0,0:0:0:0:
41,171,4869,6,0,P|57:234|36:295,1,110,10|10,3:2|3:2,0:0:0:0:
146,323,5829,2,0,L|137:387,2,55,10|2|8,3:2|0:0|3:2,0:0:0:0:
180,280,6549,2,0,L|304:294,1,110,2|2,0:0|0:0,0:0:0:0:
332,326,7269,1,4,0:0:0:0:
418,257,7749,2,0,P|388:194|402:155,1,110,8|8,0:1|0:1,0:0:0:0:
440,122,8469,1,4,0:3:0:0:
440,122,8709,6,0,L|310:110,1,110,4|8,0:0|0:1,0:0:0:0:
242,46,9669,2,0,P|170:24|125:43,1,110,2|8,0:0|0:1,0:0:0:0:
100,72,10389,1,2,0:0:0:0:
100,72,10629,2,0,L|117:199,1,110,2|8,0:0|0:1,0:0:0:0:
73,283,11589,2,0,L|194:270,1,110,2|8,0:0|0:1,0:0:0:0:
211,318,12309,1,2,0:0:0:0:
241,363,12549,6,0,L|309:353,1,55,8|8,0:1|0:1,0:0:0:0:
405,351,13269,2,0,P|369:302|375:250,1,110,8|4,0:1|0:3,0:0:0:0:
406,211,13989,1,8,0:3:0:0:
406,211,14229,2,0,L|276:202,1,110,4|8,0:0|0:3,0:0:0:0:
250,172,14949,2,0,L|181:181,1,55,8|4,0:3|0:3,0:0:0:0:
155,217,15429,1,8,0:1:0:0:
110,116,15909,1,8,0:1:0:0:
185,36,16389,6,0,L|295:48,1,110,4|0,0:0|3:0,0:0:0:0:
382,113,17349,2,0,L|456:104,2,55,0|2|0,3:0|0:0|3:0,0:0:0:0:
301,187,18309,2,0,P|284:244|302:299,1,110,0|0,3:0|0:0,0:0:0:0:
325,338,19029,1,2,0:0:0:0:
325,338,19269,2,0,L|200:333,1,110,0|2,3:0|3:2,0:0:0:0:
115,287,20229,6,0,P|88:233|87:174,1,110,0|0,3:0|3:0,0:0:0:0:
135,86,21189,2,0,L|71:77,2,55,0|2|2,3:0|0:0|3:2,0:0:0:0:
183,112,21909,1,0,0:0:0:0:
228,80,22149,2,0,P|296:59|342:69,1,110,0|0,3:0|3:0,0:0:0:0:
401,151,23109,2,0,L|467:141,2,55,0|2|2,3:0|0:0|3:2,0:0:0:0:
389,204,23829,1,0,0:0:0:0:
375,257,24069,6,0,L|261:244,1,110,0|0,3:0|3:0,0:0:0:0:
168,295,25029,2,0,L|179:361,2,55,0|2|0,3:0|0:0|3:0,0:0:0:0:
77,232,25989,2,0,P|54:178|65:113,1,110,0|0,3:0|3:0,0:0:0:0:
39,76,26709,1,2,0:0:0:0:
39,76,26949,2,0,L|166:57,1,110,0|2,3:0|3:2,0:0:0:0:
253,30,27909,6,0,P|272:82|257:145,1,110,0|2,3:0|3:2,0:0:0:0:
223,174,28629,1,0,0:0:0:0:
187,216,28869,2,0,P|168:268|183:331,1,110,0|0,3:0|3:0,0:0:0:0:
287,314,29829,2,0,L|279:373,2,55,0|2|8,3:0|0:0|0:1,0:0:0:0:
326,275,30549,2,0,L|311:159,1,110,4|0,0:0|0:0,0:0:0:0:
343,120,31269,1,8,0:1:0:0:
243,73,31749,6,0,P|178:58|117:72,1,110,4|8,0:0|0:1,0:0:0:0:
65,149,32709,2,0,L|-6:140,2,55,0|0|8,0:0|0:0|0:1,0:0:0:0:
131,236,33669,2,0,L|244:226,1,110,0|8,0:0|0:1,0:0:0:0:
292,246,34389,1,2,0:0:0:0:
292,246,34629,2,0,L|278:316,2,55,0|0|8,0:0|0:0|0:1,0:0:0:0:
363,162,35589,6,0,P|312:141|252:147,1,110,0|8,0:0|0:1,0:0:0:0:
168,80,36549,2,0,L|175:21,2,55,0|0|8,0:0|0:0|0:1,0:0:0:0:
83,150,37509,2,0,L|103:263,1,110,0|8,0:0|0:1,0:0:0:0:
88,311,38229,1,2,0:0:0:0:
88,311,38469,2,0,L|168:307,1,55,0|0,0:0|0:0,0:0:0:0:
197,306,38949,1,8,0:1:0:0:
286,370,39429,6,0,P|306:328|296:261,1,110,4|8,0:0|0:1,0:0:0:0:
222,186,40389,2,0,L|143:195,2,55,0|0|8,0:0|0:0|0:1,0:0:0:0:
232,76,41349,2,0,P|168:69|124:94,1,110,0|8,0:0|0:1,0:0:0:0:
95,134,42069,1,0,0:0:0:0:
95,134,42309,2,0,L|84:80,2,55,0|2|8,0:0|0:0|0:1,0:0:0:0:
34,225,43269,6,0,P|100:248|155:222,1,110,0|8,0:0|0:1,0:0:0:0:
183,207,43989,1,0,0:0:0:0:
228,176,44229,2,0,P|294:153|349:179,1,110,0|8,0:0|0:1,0:0:0:0:
426,110,45189,2,0,L|421:34,2,55,0|2|8,0:0|0:0|0:1,0:0:0:0:
457,155,45909,2,0,L|425:341,1,165,4|8,0:0|0:1,0:0:0:0:
325,354,47109,6,0,P|227:361|159:314,2,165,4|2|8,0:0|0:0|0:1,0:0:0:0:
346,246,49029,2,0,P|273:209|192:220,1,165,2|0,0:0|0:0,0:0:0:0:
94,269,50229,2,0,L|86:200,1,55,8|8,0:1|0:1,0:0:0:0:
161,133,50949,6,0,P|104:171|10:156,2,165,4|0|8,0:0|0:0|0:1,0:0:0:0:
242,206,52869,2,0,P|308:180|361:185,1,110,2|8,0:0|0:1,0:0:0:0:
423,102,53829,2,0,P|357:76|304:81,1,110,2|8,0:0|0:1,0:0:0:0:
267,97,54549,1,8,0:1:0:0:
216,119,54789,6,0,L|228:254,1,110,4|8,0:0|0:1,0:0:0:0:
120,259,55749,2,0,L|108:124,1,110,0|8,0:0|0:1,0:0:0:0:
148,46,56709,2,0,B|193:71|193:71|268:63,1,110,0|8,0:0|0:1,0:0:0:0:
289,103,57429,1,2,0:0:0:0:
289,103,57669,2,0,P|328:95|353:96,2,55,0|0|8,0:0|0:0|0:1,0:0:0:0:
191,154,58629,6,0,L|201:271,1,110,2|8,0:0|0:1,0:0:0:0:
310,265,59589,1,2,0:0:0:0:
310,265,59829,2,0,L|320:200,1,55,6|0,0:0|0:0,0:0:0:0:
328,156,60309,2,0,P|258:194|190:153,1,165,4|8,0:0|0:1,0:0:0:0:
154,112,61269,1,0,0:0:0:0:
100,100,61509,2,0,L|82:170,1,55,0|0,0:0|0:0,0:0:0:0:
118,198,61989,2,0,L|129:268,1,55,8|8,0:1|0:1,0:0:0:0:
106,303,62469,6,0,B|173:267|249:329|249:329|351:395|419:315,1,330,4|4,0:0|0:0,0:0:0:0:
477,240,64389,6,0,P|438:221|363:227,1,110,4|8,0:0|0:1,0:0:0:0:
284,157,65349,2,0,L|297:80,2,55,0|2|8,0:0|0:0|0:1,0:0:0:0:
220,246,66309,2,0,L|110:234,1,110,0|8,0:0|0:1,0:0:0:0:
62,260,67029,1,2,0:0:0:0:
62,260,67269,2,0,L|70:324,2,55,0|0|8,0:0|0:0|0:1,0:0:0:0:
44,151,68229,6,0,P|98:127|159:139,1,110,2|8,0:0|0:1,0:0:0:0:
190,166,68949,1,0,0:0:0:0:
232,201,69189,2,0,P|286:225|347:213,1,110,0|8,0:0|0:1,0:0:0:0:
437,179,70149,2,0,L|443:255,2,55,0|2|8,0:0|0:0|0:1,0:0:0:0:
464,131,70869,1,2,0:0:0:0:
393,46,71349,1,0,0:0:0:0:
344,71,71589,2,0,L|269:58,1,55,8|0,0:1|3:0,0:0:0:0:
245,28,72069,6,0,P|261:93|247:138,1,110,4|8,0:0|0:1,0:0:0:0:
189,225,73029,2,0,L|267:238,2,55,0|2|8,0:0|0:0|0:1,0:0:0:0:
141,324,73989,2,0,L|261:345,1,110,0|8,0:0|0:1,0:0:0:0:
301,325,74709,2,0,B|329:277|329:277|320:217,1,110,4|0,0:0|0:0,0:0:0:0:
307,169,75429,2,0,L|378:154,1,55,0|0,0:0|3:0,0:0:0:0:
381,106,75909,6,0,P|331:74|262:82,1,110,2|8,0:0|0:1,0:0:0:0:
181,120,76869,2,0,L|166:58,2,55,0|0|8,0:0|0:0|0:1,0:0:0:0:
147,164,77589,1,0,0:0:0:0:
176,210,77829,2,0,P|189:272|178:323,1,110,4|8,0:0|0:1,0:0:0:0:
133,346,78549,2,0,L|319:334,1,165,4|8,0:0|0:1,0:0:0:0:
406,351,79749,6,0,P|422:303|413:245,1,110,4|8,0:0|0:1,0:0:0:0:
444,139,80709,2,0,L|371:125,2,55,0|2|8,0:0|0:0|0:1,0:0:0:0:
493,40,81669,2,0,L|369:17,1,110,0|8,0:0|0:1,0:0:0:0:
344,56,82389,1,2,0:0:0:0:
344,56,82629,2,0,L|271:65,2,55,0|0|8,0:0|0:0|0:1,0:0:0:0:
326,164,83589,6,0,P|263:167|214:135,1,110,4|8,0:0|0:1,0:0:0:0:
183,107,84309,1,0,0:0:0:0:
142,69,84549,2,0,P|79:66|30:98,1,110,0|8,0:0|0:1,0:0:0:0:
109,172,85509,2,0,L|93:242,2,55,0|2|8,0:0|0:0|0:1,0:0:0:0:
163,166,86229,1,4,0:0:0:0:
211,264,86709,1,0,0:0:0:0:
263,280,86949,2,0,L|279:350,1,55,8|0,0:1|3:0,0:0:0:0:
321,364,87429,6,0,P|358:311|359:253,1,110,4|8,0:0|0:1,0:0:0:0:
395,162,88389,2,0,L|470:173,2,55,0|2|8,0:0|0:0|0:1,0:0:0:0:
307,96,89349,2,0,L|189:104,1,110,0|8,0:0|0:1,0:0:0:0:
149,76,90069,2,0,P|174:131|164:186,1,110,4|0,0:0|0:0,0:0:0:0:
134,222,90789,2,0,L|62:228,1,55,8|0,0:1|0:0,0:0:0:0:
59,278,91269,6,0,P|100:307|180:301,1,110,2|8,0:0|0:1,0:0:0:0:
267,322,92229,2,0,L|254:380,2,55,0|2|8,0:0|0:0|0:1,0:0:0:0:
298,276,92949,1,2,0:0:0:0:
274,226,93189,2,0,P|276:182|282:158,2,55,0|2|8,0:0|0:0|0:1,0:0:0:0:
221,241,93909,2,0,P|175:217|103:230,1,110,4|0,0:0|0:0,0:0:0:0:
73,253,94629,1,8,0:1:0:0:
37,148,95109,6,0,L|46:82,1,55,8|8,0:1|0:1,0:0:0:0:
136,33,95829,2,0,L|143:87,1,55,8|8,0:1|0:1,0:0:0:0:
216,168,96549,5,8,0:1:0:0:
216,168,96789,2,0,L|336:162,1,110,4|2,0:0|0:0,0:0:0:0:
373,190,97509,1,0,0:0:0:0:
409,231,97749,2,0,P|416:306|352:375,1,165,4|8,0:0|0:1,0:0:0:0:
306,275,98949,6,0,P|234:255|185:269,1,110,10|10,0:0|0:0,0:0:0:0:
90,266,99909,2,0,L|99:331,2,55,10|2|8,0:0|0:0|0:0,0:0:0:0:
66,216,100629,2,0,L|85:100,1,110,2|0,0:0|0:0,0:0:0:0:
67,54,101349,1,4,0:0:0:0:
165,102,101829,2,0,P|224:106|276:82,1,110,8|8,0:1|0:1,0:0:0:0:
309,47,102549,1,4,0:3:0:0:
309,47,102789,6,0,L|324:178,1,110,4|8,0:0|0:1,0:0:0:0:
375,252,103749,2,0,L|446:244,2,55,2|0|8,0:0|0:0|0:1,0:0:0:0:
283,312,104709,2,0,P|229:327|172:313,1,110,2|8,0:0|0:1,0:0:0:0:
89,382,105669,2,0,P|67:313|75:274,1,110,2|8,0:0|0:1,0:0:0:0:
101,230,106389,1,2,0:0:0:0:
72,182,106629,6,0,L|64:109,1,55,8|8,0:1|0:1,0:0:0:0:
55,17,107349,2,0,L|168:44,1,110,8|4,0:1|0:3,0:0:0:0:
216,33,108069,1,8,0:3:0:0:
250,75,108309,2,0,P|265:157|255:205,1,110,4|8,0:0|0:3,0:0:0:0:
234,230,109029,2,0,L|312:224,1,55,8|8,0:3|0:3,0:0:0:0:
344,224,109509,1,8,0:1:0:0:
316,330,109989,1,8,0:1:0:0:
206,323,110469,6,0,L|212:391,2,55,6|2|8,0:0|0:0|0:1,0:0:0:0:
159,293,111189,2,0,P|182:249|171:189,1,110,2|0,0:0|0:0,0:0:0:0:
131,154,111909,1,8,0:1:0:0:
140,99,112149,1,4,0:0:0:0:
256,192,112269,12,0,120309,0:0:0:0:
