osu file format v14

[General]
AudioFilename: audio.mp3
AudioLeadIn: 0
PreviewTime: 63549
Countdown: 0
SampleSet: Soft
StackLeniency: 0.4
Mode: 0
LetterboxInBreaks: 0
WidescreenStoryboard: 0

[Editor]
DistanceSpacing: 1.33
BeatDivisor: 4
GridSize: 32
TimelineZoom: 0.6999999

[Metadata]
Title:Mirai Melody
TitleUnicode:ミライメロディ
Artist:yozurino*
ArtistUnicode:yozurino*
Creator:Left
Version:Insane
Source:オトメ*ドメイン
Tags:otome domain qualia palette ぱれっと eroge ending visual novel yozuca lotta rino
BeatmapID:1113308
BeatmapSetID:519583

[Difficulty]
HPDrainRate:6
CircleSize:5
OverallDifficulty:7.6
ApproachRate:8.2
SliderMultiplier:1.9
SliderTickRate:1

[Events]
//Background and Video events
0,0,"in.jpg",0,0
//Break Periods
//Storyboard Layer 0 (Background)
//Storyboard Layer 1 (Fail)
//Storyboard Layer 2 (Pass)
//Storyboard Layer 3 (Foreground)
//Storyboard Sound Samples

[TimingPoints]
1029,480,4,2,9,60,1,0
1029,-111.111111111111,4,2,9,60,0,0
8709,-95.2380952380952,4,2,9,70,0,0
16389,-105.263157894737,4,2,9,60,0,0
31749,-95.2380952380952,4,2,9,70,0,0
47109,-125,4,2,9,60,0,0
52869,-111.111111111111,4,2,9,60,0,0
54789,-95.2380952380952,4,2,9,70,0,0
64389,-86.9565217391304,4,2,9,80,0,1
98949,-111.111111111111,4,2,9,60,0,0
102789,-95.2380952380952,4,2,9,70,0,0
120309,-95.2380952380952,4,2,9,5,0,0

[Colours]
Combo1 : 255,146,94
Combo2 : 164,255,72
Combo3 : 169,83,255
SliderTrackOverride : 15,0,30
SliderBorder : 255,221,204

[HitObjects]
98,71,1029,5,10,0:0:0:0:
133,143,1269,1,0,0:0:0:0:
131,163,1389,1,0,0:0:0:0:
129,182,1509,1,10,0:0:0:0:
68,235,1749,1,0,0:0:0:0:
142,268,1989,2,0,P|195:279|255:264,2,85.4999973907472,10|2|8,0:0|0:0|0:0,0:0:0:0:
255,350,2709,6,0,P|170:356|89:330,1,170.999994781494,2|2,0:0|0:0,0:0:0:0:
28,277,3429,2,0,L|45:81,1,170.999994781494,10|10,0:0|0:0,0:0:0:0:
119,80,4149,1,0,0:0:0:0:
138,84,4269,1,0,0:0:0:0:
156,89,4389,1,10,0:0:0:0:
362,60,4869,6,0,L|350:174,1,85.4999973907472,10|0,3:2|0:0,0:0:0:0:
334,151,5229,1,0,0:0:0:0:
316,156,5349,1,10,3:2:0:0:
331,235,5589,1,0,0:0:0:0:
252,213,5829,2,0,P|197:205|151:218,2,85.4999973907472,10|2|8,3:2|0:0|3:2,0:0:0:0:
132,284,6549,6,0,P|213:314|311:266,1,170.999994781494,2|2,0:0|0:0,0:0:0:0:
420,174,7269,1,4,0:0:0:0:
449,192,7389,1,0,0:0:0:0:
461,224,7509,1,0,3:0:0:0:
450,257,7629,1,0,3:0:0:0:
421,276,7749,5,8,0:1:0:0:
386,272,7869,1,0,0:0:0:0:
362,247,7989,1,0,3:0:0:0:
327,241,8109,1,0,3:0:0:0:
296,258,8229,5,8,0:1:0:0:
281,290,8349,1,0,0:0:0:0:
287,324,8469,1,4,0:3:0:0:
313,346,8589,1,4,0:3:0:0:
346,348,8709,6,0,L|210:339,1,99.7499969558717,4|0,0:0|0:0,0:0:0:0:
51,301,9189,2,0,P|108:249|204:275,1,149.624995433808,8|0,0:1|0:0,0:0:0:0:
202,274,9669,2,0,L|213:145,1,99.7499969558717,2|0,0:0|0:0,0:0:0:0:
160,3,10149,1,8,0:1:0:0:
129,115,10389,2,0,L|118:167,2,33.2499989852906,2|0|2,0:0|0:0|0:0,0:0:0:0:
136,89,10629,6,0,P|190:91|236:54,1,99.7499969558717,2|0,0:0|0:0,0:0:0:0:
415,108,11109,2,0,P|345:90|282:159,1,149.624995433808,8|0,0:1|0:0,0:0:0:0:
279,164,11589,1,2,0:0:0:0:
311,284,11829,2,0,L|362:270,2,33.2499989852906,2|0|2,0:0|0:0|0:0,0:0:0:0:
292,302,12069,2,0,L|171:291,1,99.7499969558717,8|2,0:1|0:0,0:0:0:0:
3,251,12549,5,8,0:1:0:0:
87,316,12789,1,8,0:1:0:0:
96,274,12909,1,0,0:0:0:0:
105,233,13029,1,0,0:0:0:0:
50,57,13269,1,8,0:1:0:0:
53,155,13509,6,0,P|92:141|137:145,1,49.8749984779358,8|4,0:3|0:3,0:0:0:0:
157,181,13749,2,0,P|196:195|241:191,1,49.8749984779358,4|4,0:3|0:3,0:0:0:0:
268,169,13989,1,8,0:3:0:0:
382,339,14229,6,0,L|230:361,1,149.624995433808,4|0,0:0|0:0,0:0:0:0:
207,346,14709,1,8,0:3:0:0:
174,250,14949,1,8,0:3:0:0:
269,266,15189,1,4,0:3:0:0:
49,338,15429,5,8,0:1:0:0:
87,117,15669,1,0,3:0:0:0:
87,117,15789,1,0,3:0:0:0:
87,117,15909,2,0,L|170:127,1,49.8749984779358,8|0,0:1|0:0,0:0:0:0:
182,178,16149,2,0,L|231:172,1,49.8749984779358,0|0,3:0|3:0,0:0:0:0:
285,120,16389,6,0,P|304:167|295:209,1,90.2499975900651,4|0,0:0|0:0,0:0:0:0:
236,283,16869,1,0,3:0:0:0:
330,293,17109,1,0,0:0:0:0:
236,283,17349,2,0,L|223:386,2,90.2499975900651,0|2|0,3:0|0:0|3:0,0:0:0:0:
137,226,18069,1,2,0:0:0:0:
139,245,18189,1,0,0:0:0:0:
142,264,18309,1,0,3:0:0:0:
71,161,18549,6,0,P|119:135|182:150,1,90.2499975900651,2|0,0:0|0:0,0:0:0:0:
239,182,19029,1,2,0:0:0:0:
286,93,19269,2,0,L|277:22,2,45.1249987950325,0|0|2,3:0|0:0|0:0,0:0:0:0:
183,264,19749,1,2,3:2:0:0:
272,323,19989,5,0,0:0:0:0:
272,323,20109,1,0,0:0:0:0:
272,323,20229,2,0,P|341:333|382:320,2,90.2499975900651,0|0|0,3:0|0:0|3:0,0:0:0:0:
183,264,20949,1,2,0:0:0:0:
246,180,21189,2,0,L|240:123,2,45.1249987950325,0|2|2,3:0|0:0|0:0,0:0:0:0:
272,323,21669,1,2,3:2:0:0:
183,264,21909,5,0,0:0:0:0:
183,264,22029,1,0,0:0:0:0:
183,264,22149,2,0,L|55:249,2,90.2499975900651,0|2|0,3:0|0:0|3:0,0:0:0:0:
128,347,22869,1,2,0:0:0:0:
155,174,23109,2,0,L|164:104,2,45.1249987950325,0|0|2,3:0|0:0|0:0,0:0:0:0:
280,273,23589,1,2,3:2:0:0:
360,224,23829,1,0,0:0:0:0:
360,224,23949,1,0,0:0:0:0:
360,224,24069,6,0,P|374:274|359:323,2,90.2499975900651,0|0|0,3:0|0:0|3:0,0:0:0:0:
275,180,24789,1,0,0:0:0:0:
319,87,25029,2,0,L|218:78,1,90.2499975900651,0|2,3:0|0:0,0:0:0:0:
60,71,25509,1,0,3:0:0:0:
132,139,25749,1,2,0:0:0:0:
136,121,25869,1,0,0:0:0:0:
140,105,25989,1,0,3:0:0:0:
73,216,26229,6,0,P|128:236|174:228,1,90.2499975900651,2|0,0:0|3:0,0:0:0:0:
253,201,26709,1,2,0:0:0:0:
279,297,26949,2,0,L|271:355,2,45.1249987950325,0|0|2,3:0|0:0|0:0,0:0:0:0:
253,201,27429,2,0,P|297:199|338:218,1,90.2499975900651,2|0,3:2|0:0,0:0:0:0:
427,110,27909,6,0,L|437:4,2,90.2499975900651,0|0|2,3:0|0:0|3:2,0:0:0:0:
357,174,28629,2,0,L|365:263,2,90.2499975900651,0|0|2,0:0|3:0|0:2,0:0:0:0:
292,102,29349,1,0,3:0:0:0:
217,164,29589,1,2,0:0:0:0:
199,161,29709,1,0,0:0:0:0:
181,159,29829,1,0,3:0:0:0:
282,235,30069,5,2,0:0:0:0:
292,102,30309,1,8,0:1:0:0:
359,300,30549,2,0,P|283:333|185:266,1,180.49999518013,4|0,0:0|0:0,0:0:0:0:
173,256,31149,1,0,0:0:0:0:
130,241,31269,1,8,0:1:0:0:
87,256,31389,1,8,0:3:0:0:
62,294,31509,2,0,L|45:229,1,45.1249987950325,4|4,0:3|0:3,0:0:0:0:
15,139,31749,6,0,L|140:125,1,99.7499969558717,4|0,0:0|0:0,0:0:0:0:
267,35,32229,1,8,0:1:0:0:
290,129,32469,2,0,L|281:190,2,49.8749984779358,0|0|0,0:0|0:0|0:0,0:0:0:0:
201,105,32949,1,0,0:0:0:0:
361,64,33189,1,8,0:1:0:0:
317,221,33429,1,0,0:0:0:0:
317,221,33549,1,0,0:0:0:0:
317,221,33669,1,0,0:0:0:0:
379,299,33909,6,0,P|318:323|259:304,1,99.7499969558717,2|8,0:0|0:1,0:0:0:0:
187,283,34389,1,2,0:0:0:0:
184,245,34509,1,0,0:0:0:0:
182,208,34629,1,0,0:0:0:0:
179,171,34749,1,2,0:0:0:0:
177,133,34869,1,0,0:0:0:0:
91,254,35109,1,8,0:1:0:0:
187,283,35349,2,0,L|248:279,1,49.8749984779358
257,207,35589,6,0,P|315:140|430:181,1,199.499993911743,0|8,0:0|0:1,0:0:0:0:
355,324,36309,1,0,0:0:0:0:
353,299,36429,1,0,0:0:0:0:
351,274,36549,1,0,0:0:0:0:
349,249,36669,1,2,0:0:0:0:
347,224,36789,1,0,0:0:0:0:
326,53,37029,1,8,0:1:0:0:
265,130,37269,2,0,L|209:124,1,49.8749984779358
143,120,37509,5,0,0:0:0:0:
338,137,37749,1,2,0:0:0:0:
227,288,37989,1,8,0:1:0:0:
165,217,38229,1,2,0:0:0:0:
197,199,38349,1,0,0:0:0:0:
234,195,38469,1,0,0:0:0:0:
270,204,38589,1,2,0:0:0:0:
300,226,38709,5,0,0:0:0:0:
331,35,38949,1,8,0:1:0:0:
317,127,39189,1,0,0:0:0:0:
368,294,39429,6,0,P|310:322|249:306,1,99.7499969558717,4|0,0:0|0:0,0:0:0:0:
130,212,39909,1,8,0:1:0:0:
69,291,40149,2,0,L|78:356,2,49.8749984779358,0|0|0,0:0|0:0|0:0,0:0:0:0:
219,251,40629,1,0,0:0:0:0:
103,122,40869,1,8,0:1:0:0:
130,212,41109,1,0,0:0:0:0:
130,212,41229,1,0,0:0:0:0:
130,212,41349,1,0,0:0:0:0:
34,56,41589,6,0,P|92:31|148:40,1,99.7499969558717,2|8,0:0|0:1,0:0:0:0:
207,86,42069,1,0,0:0:0:0:
134,233,42309,1,0,0:0:0:0:
116,129,42549,1,2,0:0:0:0:
281,156,42789,1,8,0:1:0:0:
239,249,43029,2,0,L|171:241,1,49.8749984779358
159,309,43269,6,0,L|292:327,1,99.7499969558717,0|0,0:0|0:0,0:0:0:0:
451,285,43749,1,8,0:1:0:0:
358,306,43989,1,0,0:0:0:0:
358,306,44109,1,0,0:0:0:0:
358,306,44229,1,0,0:0:0:0:
451,285,44469,1,2,0:0:0:0:
364,115,44709,1,8,0:1:0:0:
384,211,44949,2,0,L|316:205,1,49.8749984779358,2|0,0:0|0:0,0:0:0:0:
261,203,45189,1,0,0:0:0:0:
120,51,45429,5,2,0:0:0:0:
103,167,45669,1,8,0:1:0:0:
82,283,45909,2,0,P|189:337|291:293,1,199.499993911743,4|0,0:0|0:0,0:0:0:0:
322,170,46629,1,8,0:1:0:0:
328,214,46749,1,8,0:1:0:0:
333,259,46869,1,2,0:0:0:0:
371,95,47109,6,0,P|319:79|269:90,1,76,4|0,0:0|0:0,0:0:0:0:
211,117,47589,1,2,0:0:0:0:
121,93,47829,2,0,L|136:270,1,152,2|0,0:0|0:0,0:0:0:0:
44,215,48549,2,0,L|36:113,1,76,8|0,0:1|0:0,0:0:0:0:
205,231,49029,6,0,P|148:248|117:236,2,76,2|0|2,0:0|0:0|0:0,0:0:0:0:
153,153,49749,1,0,0:0:0:0:
432,41,50229,1,8,0:1:0:0:
432,41,50469,1,8,0:1:0:0:
353,91,50709,2,0,L|365:164,1,38,2|0,0:0|0:0,0:0:0:0:
403,182,50949,6,0,L|390:273,2,76,4|0|2,0:0|0:0|0:0,0:0:0:0:
448,299,51669,2,0,P|378:325|327:250,1,152
258,210,52389,2,0,L|160:224,1,76,8|0,0:1|0:0,0:0:0:0:
115,344,52869,6,0,P|164:360|216:355,1,85.4999973907472,2|0,0:0|0:0,0:0:0:0:
82,248,53349,1,8,0:1:0:0:
120,154,53589,2,0,L|114:93,2,42.7499986953736,0|0|2,0:0|0:0|0:0,0:0:0:0:
82,248,54069,1,2,0:0:0:0:
213,189,54309,1,8,0:1:0:0:
311,287,54549,1,8,0:1:0:0:
345,280,54669,1,0,3:0:0:0:
381,271,54789,6,0,L|371:60,1,199.499993911743,4|8,0:0|0:1,0:0:0:0:
230,106,55509,2,0,L|145:119,2,49.8749984779358,0|0|0,0:0|0:0|0:0,0:0:0:0:
313,158,55989,1,0,0:0:0:0:
285,21,56229,1,8,0:1:0:0:
180,113,56469,1,2,0:0:0:0:
185,154,56589,1,0,0:0:0:0:
192,195,56709,6,0,L|74:180,1,99.7499969558717,0|2,0:0|0:0,0:0:0:0:
205,294,57189,1,8,0:1:0:0:
286,237,57429,2,0,P|292:201|283:156,2,49.8749984779358,2|0|0,0:0|0:0|0:0,0:0:0:0:
205,294,57909,1,0,0:0:0:0:
377,277,58149,2,0,P|389:204|385:160,1,99.7499969558717,8|0,0:1|0:0,0:0:0:0:
377,145,58509,1,0,0:0:0:0:
364,110,58629,5,2,0:0:0:0:
195,146,58869,1,0,0:0:0:0:
233,318,59109,1,8,0:1:0:0:
379,187,59349,1,0,0:0:0:0:
338,178,59469,1,0,0:0:0:0:
296,171,59589,1,2,0:0:0:0:
149,329,59829,1,6,0:0:0:0:
320,299,60069,1,0,0:0:0:0:
196,73,60309,6,0,P|148:151|202:264,1,199.499993911743,4|0,0:0|0:0,0:0:0:0:
363,210,61029,1,8,0:1:0:0:
277,269,61269,5,0,0:0:0:0:
269,228,61389,1,0,0:0:0:0:
262,187,61509,1,0,0:0:0:0:
337,78,61749,1,0,0:0:0:0:
466,107,61989,1,8,0:1:0:0:
476,239,62229,2,0,L|459:310,1,49.8749984779358,8|8,0:1|0:1,0:0:0:0:
337,78,62469,1,0,0:0:0:0:
278,258,62709,5,0,0:0:0:0:
231,199,62949,1,0,0:0:0:0:
160,226,63189,1,0,0:0:0:0:
162,302,63429,1,0,0:0:0:0:
235,322,63669,1,0,0:0:0:0:
215,50,63909,5,4,0:0:0:0:
446,175,64149,1,8,0:1:0:0:
399,193,64269,1,8,0:1:0:0:
353,212,64389,6,0,L|234:196,1,109.250002083778,4|0,0:0|0:0,0:0:0:0:
60,119,64869,1,8,0:1:0:0:
95,212,65109,2,0,L|78:276,2,54.6250010418892,0|8|0,0:0|0:1|0:0,0:0:0:0:
141,62,65589,1,2,0:0:0:0:
95,212,65829,1,8,0:1:0:0:
248,172,66069,1,0,0:0:0:0:
248,172,66189,1,8,0:1:0:0:
248,172,66309,1,0,0:0:0:0:
257,339,66549,6,0,P|186:323|150:292,1,109.250002083778,2|8,0:0|0:1,0:0:0:0:
358,318,67029,1,2,0:0:0:0:
362,277,67149,1,8,0:1:0:0:
366,236,67269,1,0,0:0:0:0:
370,195,67389,1,8,0:1:0:0:
374,154,67509,1,0,0:0:0:0:
210,46,67749,1,8,0:1:0:0:
167,140,67989,2,0,L|232:150,1,54.6250010418892,2|0,0:0|0:0,0:0:0:0:
259,70,68229,6,0,P|189:45|134:76,1,109.250002083778,2|0,0:0|0:0,0:0:0:0:
114,265,68709,1,8,0:1:0:0:
167,187,68949,2,0,L|235:186,2,54.6250010418892,0|8|0,0:0|0:1|0:0,0:0:0:0:
26,311,69429,1,0,0:0:0:0:
208,268,69669,1,8,0:1:0:0:
118,345,69909,2,0,L|115:290,1,54.6250010418892,0|0,0:0|0:0,0:0:0:0:
140,194,70149,5,0,0:0:0:0:
230,297,70389,1,2,0:0:0:0:
362,275,70629,1,8,0:1:0:0:
398,148,70869,1,2,0:0:0:0:
398,148,70989,1,0,0:0:0:0:
398,148,71109,1,0,0:0:0:0:
230,297,71349,5,0,0:0:0:0:
179,93,71589,1,8,0:1:0:0:
156,196,71829,2,0,L|166:276,1,54.6250010418892,0|0,3:0|3:0,0:0:0:0:
132,323,72069,6,0,P|195:324|243:266,1,109.250002083778,4|0,0:0|0:0,0:0:0:0:
289,109,72549,1,8,0:1:0:0:
205,57,72789,2,0,L|132:68,2,54.6250010418892,0|8|0,0:0|0:1|0:0,0:0:0:0:
348,188,73269,1,2,0:0:0:0:
364,51,73509,1,8,0:1:0:0:
238,191,73749,1,0,0:0:0:0:
238,191,73869,1,8,0:1:0:0:
238,191,73989,1,0,0:0:0:0:
432,244,74229,5,0,0:0:0:0:
289,109,74469,1,8,0:1:0:0:
219,344,74709,2,0,L|428:330,1,163.875003125668,4|8,0:0|0:1,0:0:0:0:
415,330,75189,1,0,0:0:0:0:
304,204,75429,1,8,0:1:0:0:
219,344,75669,2,0,L|156:333,1,54.6250010418892,0|0,3:0|3:0,0:0:0:0:
157,256,75909,6,0,L|299:280,1,109.250002083778,2|0,0:0|0:0,0:0:0:0:
99,178,76389,1,8,0:1:0:0:
144,93,76629,2,0,L|138:34,2,54.6250010418892,0|8|0,0:0|0:1|0:0,0:0:0:0:
99,178,77109,1,0,0:0:0:0:
144,358,77349,2,0,L|164:245,1,109.250002083778,8|0,0:1|0:0,0:0:0:0:
195,244,77709,1,8,0:1:0:0:
227,239,77829,1,4,0:0:0:0:
56,268,78069,5,2,0:0:0:0:
239,342,78309,1,8,0:1:0:0:
194,141,78549,2,0,P|287:77|395:115,1,218.500004167557,4|0,0:0|0:0,0:0:0:0:
259,0,79269,5,8,0:1:0:0:
300,171,79509,2,0,L|316:248,1,54.6250010418892,0|0,3:0|3:0,0:0:0:0:
356,283,79749,6,0,P|289:294|248:262,1,109.250002083778,4|0,0:0|0:0,0:0:0:0:
384,212,80229,1,8,0:1:0:0:
428,304,80469,2,0,L|415:381,2,54.6250010418892,0|8|0,0:0|0:1|0:0,0:0:0:0:
432,133,80949,1,2,0:0:0:0:
298,197,81189,1,8,0:1:0:0:
397,221,81429,1,0,0:0:0:0:
397,221,81549,1,8,0:1:0:0:
397,221,81669,1,0,0:0:0:0:
223,125,81909,6,0,P|202:166|205:236,1,109.250002083778,2|8,0:0|0:1,0:0:0:0:
298,47,82389,1,2,0:0:0:0:
257,43,82509,1,8,0:1:0:0:
216,39,82629,1,0,0:0:0:0:
175,35,82749,1,8,0:1:0:0:
134,31,82869,1,0,0:0:0:0:
62,188,83109,2,0,L|185:166,1,109.250002083778,8|0,0:1|0:0,0:0:0:0:
186,200,83469,1,0,0:0:0:0:
201,232,83589,6,0,P|205:288|194:345,1,109.250002083778,4|0,0:0|0:0,0:0:0:0:
169,168,84069,1,8,0:1:0:0:
268,202,84309,2,0,L|337:192,2,54.6250010418892,0|8|0,0:0|0:1|0:0,0:0:0:0:
114,233,84789,1,2,0:0:0:0:
268,202,85029,1,8,0:1:0:0:
208,315,85269,2,0,L|194:234,1,54.6250010418892,0|8,0:0|0:1,0:0:0:0:
183,169,85509,5,0,0:0:0:0:
300,118,85749,1,2,0:0:0:0:
404,203,85989,1,8,0:1:0:0:
394,332,86229,1,6,0:0:0:0:
394,332,86349,1,0,0:0:0:0:
394,332,86469,1,0,0:0:0:0:
300,118,86709,5,0,0:0:0:0:
160,300,86949,1,8,0:1:0:0:
113,205,87189,2,0,L|197:191,1,54.6250010418892,0|0,3:0|3:0,0:0:0:0:
251,254,87429,5,4,0:0:0:0:
66,291,87669,1,0,0:0:0:0:
124,109,87909,1,8,0:1:0:0:
216,143,88149,2,0,L|280:130,2,54.6250010418892,0|8|0,0:0|0:1|0:0,0:0:0:0:
61,178,88629,1,2,0:0:0:0:
96,19,88869,1,8,0:1:0:0:
120,110,89109,1,0,0:0:0:0:
79,98,89229,1,8,0:1:0:0:
39,88,89349,1,0,0:0:0:0:
153,270,89589,5,2,0:0:0:0:
120,110,89829,1,8,0:1:0:0:
93,347,90069,2,0,P|174:365|247:258,1,218.500004167557,4|0,0:0|0:0,0:0:0:0:
253,229,90669,1,0,0:0:0:0:
283,206,90789,1,8,0:1:0:0:
321,206,90909,1,0,0:0:0:0:
352,227,91029,2,0,L|377:165,1,54.6250010418892
408,91,91269,6,0,L|281:78,1,109.250002083778,2|0,0:0|0:0,0:0:0:0:
132,125,91749,1,8,0:1:0:0:
233,171,91989,2,0,L|241:241,2,54.6250010418892,0|8|0,0:0|0:1|0:0,0:0:0:0:
198,45,92469,1,2,0:0:0:0:
39,145,92709,1,8,0:1:0:0:
116,217,92949,1,2,0:0:0:0:
154,208,93069,1,0,0:0:0:0:
192,202,93189,1,0,0:0:0:0:
39,145,93429,5,2,0:0:0:0:
95,308,93669,1,0,1:0:0:0:
126,139,93909,2,0,P|192:112|281:170,1,163.875003125668,4|0,0:0|0:0,0:0:0:0:
290,181,94389,5,0,0:0:0:0:
384,151,94629,1,8,0:1:0:0:
363,251,94869,1,0,0:0:0:0:
218,90,95109,5,8,0:1:0:0:
254,302,95349,1,8,0:1:0:0:
76,348,95829,5,8,0:1:0:0:
111,98,96069,1,8,0:1:0:0:
333,353,96549,5,8,0:1:0:0:
286,46,96789,2,0,L|315:230,1,163.875003125668,4|0,0:0|0:0,0:0:0:0:
315,227,97269,1,2,0:0:0:0:
439,149,97509,1,8,0:1:0:0:
200,299,97749,6,0,P|116:314|61:233,1,163.875003125668,4|0,0:0|0:0,0:0:0:0:
60,240,98229,2,0,L|-8:231,1,54.6250010418892,0|0,3:0|3:0,0:0:0:0:
53,116,98469,2,0,L|118:106,1,54.6250010418892,8|8,0:1|0:3,0:0:0:0:
200,165,98709,1,4,0:3:0:0:
207,125,98829,1,4,0:3:0:0:
214,87,98949,5,10,0:0:0:0:
302,45,99189,2,0,L|291:-27,2,42.7499986953736,0|0|10,0:0|0:0|0:0,0:0:0:0:
361,117,99669,1,0,0:0:0:0:
435,60,99909,2,0,P|455:104|438:170,2,85.4999973907472,10|2|8,0:0|0:0|0:0,0:0:0:0:
388,267,100629,6,0,L|207:247,1,170.999994781494,2|0,0:0|0:0,0:0:0:0:
105,358,101349,1,4,0:0:0:0:
82,331,101469,1,0,0:0:0:0:
72,297,101589,1,0,3:0:0:0:
79,262,101709,1,0,3:0:0:0:
100,234,101829,5,8,0:1:0:0:
132,221,101949,1,0,0:0:0:0:
159,199,102069,1,0,0:0:0:0:
172,166,102189,1,0,0:0:0:0:
172,130,102309,5,8,0:1:0:0:
155,99,102429,1,0,0:0:0:0:
126,79,102549,1,4,0:3:0:0:
91,76,102669,1,4,0:3:0:0:
55,95,102789,6,0,L|66:221,1,99.7499969558717,4|0,0:0|0:0,0:0:0:0:
167,351,103269,2,0,P|240:355|302:316,1,149.624995433808,8|0,0:1|0:0,0:0:0:0:
320,293,103749,2,0,L|304:166,1,99.7499969558717,2|0,0:0|0:0,0:0:0:0:
272,18,104229,1,8,0:1:0:0:
235,135,104469,2,0,L|230:180,2,33.2499989852906,2|0|2,0:0|0:0|0:0,0:0:0:0:
240,109,104709,6,0,P|295:114|345:88,1,99.7499969558717,2|0,0:0|0:0,0:0:0:0:
156,67,105189,2,0,L|131:231,1,149.624995433808,8|0,0:1|0:0,0:0:0:0:
119,239,105669,1,2,0:0:0:0:
219,310,105909,2,0,L|210:255,2,33.2499989852906,2|0|2,0:0|0:0|0:0,0:0:0:0:
211,336,106149,2,0,L|317:323,1,99.7499969558717,8|2,0:1|0:0,0:0:0:0:
407,145,106629,5,8,0:1:0:0:
445,242,106869,1,8,0:1:0:0:
395,236,106989,1,0,0:0:0:0:
345,230,107109,1,0,0:0:0:0:
192,93,107349,1,8,0:1:0:0:
126,255,107589,6,0,L|118:190,1,49.8749984779358,8|4,0:3|0:3,0:0:0:0:
193,167,107829,2,0,L|193:240,1,49.8749984779358,4|4,0:3|0:3,0:0:0:0:
261,254,108069,1,8,0:3:0:0:
414,113,108309,6,0,P|340:88|250:87,1,149.624995433808,4|0,0:0|0:0,0:0:0:0:
240,93,108789,1,8,0:3:0:0:
253,186,109029,1,8,0:3:0:0:
267,280,109269,1,8,0:3:0:0:
122,132,109509,5,8,0:1:0:0:
350,221,109749,1,0,3:0:0:0:
350,221,109869,1,0,3:0:0:0:
350,221,109989,1,8,0:1:0:0:
168,369,110229,1,0,0:0:0:0:
94,226,110469,5,6,0:0:0:0:
94,226,110709,2,0,P|145:205|203:217,1,99.7499969558717,2|8,0:0|0:1,0:0:0:0:
257,137,111189,2,0,P|356:182|465:135,1,199.499993911743,2|0,0:0|0:0,0:0:0:0:
505,92,111909,1,8,0:1:0:0:
487,240,112149,1,4,0:0:0:0:
256,192,112269,12,0,120309,0:0:0:0:
