osu file format v14

[General]
AudioFilename: audio.mp3
AudioLeadIn: 0
PreviewTime: 63549
Countdown: 0
SampleSet: Soft
StackLeniency: 0.6
Mode: 0
LetterboxInBreaks: 0
WidescreenStoryboard: 0

[Editor]
Bookmarks: 31749
DistanceSpacing: 1
BeatDivisor: 4
GridSize: 16
TimelineZoom: 1

[Metadata]
Title:Mirai Melody
TitleUnicode:ミライメロディ
Artist:yozurino*
ArtistUnicode:yozurino*
Creator:Left
Version:Easy
Source:オトメ*ドメイン
Tags:otome domain qualia palette ぱれっと eroge ending visual novel yozuca lotta rino
BeatmapID:1103888
BeatmapSetID:519583

[Difficulty]
HPDrainRate:3
CircleSize:3
OverallDifficulty:3
ApproachRate:3
SliderMultiplier:0.9
SliderTickRate:1

[Events]
//Background and Video events
0,0,"ez.jpg",0,0
//Break Periods
//Storyboard Layer 0 (Background)
//Storyboard Layer 1 (Fail)
//Storyboard Layer 2 (Pass)
//Storyboard Layer 3 (Foreground)
//Storyboard Sound Samples

[TimingPoints]
1029,480,4,2,9,60,1,0
8709,-100,4,2,9,70,0,0
16389,-100,4,2,9,60,0,0
31749,-100,4,2,9,70,0,0
47109,-100,4,2,9,60,0,0
54789,-100,4,2,9,70,0,0
64389,-100,4,2,9,80,0,1
98949,-100,4,2,9,60,0,0
102789,-100,4,2,9,70,0,0
120309,-100,4,2,9,5,0,0

[Colours]
Combo1 : 255,146,94
Combo2 : 164,255,72
Combo3 : 169,83,255
SliderTrackOverride : 15,0,30
SliderBorder : 180,255,180

[HitObjects]
42,134,1029,6,0,P|95:86|206:102,1,180,10|10,0:0|0:0,0:0:0:0:
260,160,2469,1,8,0:0:0:0:
331,104,2949,2,0,L|428:116,1,90,0|10,0:0|0:0,0:0:0:0:
422,205,3909,2,0,L|325:217,1,90,10|10,0:0|0:0,0:0:0:0:
261,271,4869,6,0,B|165:335|165:335|60:287,1,225,10|0,3:2|0:0,0:0:0:0:
4,224,6549,2,0,P|64:182|138:180,1,135,2|4,0:0|0:0,0:0:0:0:
207,210,7749,2,0,L|221:108,1,90,8|8,0:1|0:1,0:0:0:0:
223,30,8709,6,0,B|271:34|298:69|298:69|328:31|387:37,1,180,4|2,0:0|0:0,0:0:0:0:
371,126,10149,1,8,0:1:0:0:
410,206,10629,2,0,P|421:286|348:362,1,180,2|2,0:0|0:0,0:0:0:0:
277,321,12069,1,8,0:1:0:0:
196,361,12549,6,0,L|42:347,1,135,8|8,0:1|0:1,0:0:0:0:
60,258,13749,1,4,0:3:0:0:
60,168,14229,2,0,P|114:144|195:154,1,135,4|8,0:0|0:3,0:0:0:0:
264,102,15429,1,8,0:1:0:0:
343,59,15909,1,8,0:1:0:0:
418,108,16389,6,0,B|450:194|450:194|413:285,1,180,4|0,0:0|3:0,0:0:0:0:
342,326,17829,1,0,3:0:0:0:
267,276,18309,2,0,P|286:210|291:127,2,135,0|2|2,3:0|0:0|3:2,0:0:0:0:
189,322,20229,6,0,B|64:311|64:311|84:249,1,180,0|0,3:0|3:0,0:0:0:0:
112,174,21669,1,2,3:2:0:0:
161,99,22149,2,0,P|112:86|60:101,2,90,0|0|0,3:0|3:0|3:0,0:0:0:0:
233,153,23589,1,2,3:2:0:0:
307,103,24069,6,0,P|378:87|394:186,1,180,0|0,3:0|3:0,0:0:0:0:
317,198,25509,1,2,3:2:0:0:
347,282,25989,2,0,L|156:299,1,180,0|0,3:0|3:0,0:0:0:0:
84,331,27429,1,2,3:2:0:0:
28,259,27909,6,0,P|11:204|5:166,2,90,0|2|0,3:0|3:2|3:0,0:0:0:0:
111,226,29349,1,0,3:0:0:0:
176,164,29829,2,0,B|218:134|218:134|306:145,1,135,0|4,3:0|0:0,0:0:0:0:
422,85,31269,1,8,0:1:0:0:
472,159,31749,6,0,P|485:248|419:318,1,180,4|0,0:0|0:0,0:0:0:0:
347,346,33189,1,8,0:1:0:0:
266,306,33669,2,0,L|123:326,2,135,0|2|8,0:0|0:0|0:1,0:0:0:0:
320,234,35589,6,0,P|344:186|333:53,1,180
257,22,37029,1,8,0:1:0:0:
175,62,37509,2,0,L|75:52,2,90,0|8|0,0:0|0:1|0:0,0:0:0:0:
231,132,38949,1,8,0:1:0:0:
171,199,39429,6,0,B|226:222|226:222|357:182,1,180,4|0,0:0|0:0,0:0:0:0:
430,197,40869,1,8,0:1:0:0:
381,273,41349,2,0,L|208:326,1,180,0|0,0:0|0:0,0:0:0:0:
129,283,42789,1,8,0:1:0:0:
54,334,43269,6,0,P|40:280|51:238,1,90,0|8,0:0|0:1,0:0:0:0:
117,191,44229,2,0,P|131:137|120:95,1,90,0|8,0:0|0:1,0:0:0:0:
60,41,45189,2,0,L|201:52,1,135,0|4,0:0|0:0,0:0:0:0:
324,14,46629,1,8,0:1:0:0:
352,99,47109,6,0,P|358:166|338:242,2,135,4|2|8,0:0|0:0|0:1,0:0:0:0:
262,91,49029,2,0,P|246:156|252:223,2,135,2|0|8,0:0|0:0|0:1,0:0:0:0:
351,99,50949,6,0,L|486:88,2,135,4|0|8,0:0|0:0|0:1,0:0:0:0:
288,163,52869,2,0,L|181:149,1,90,2|8,0:0|0:1,0:0:0:0:
120,106,53829,1,2,0:0:0:0:
88,190,54309,1,8,0:1:0:0:
57,274,54789,6,0,P|162:295|247:280,1,180,4|0,0:0|0:0,0:0:0:0:
300,223,56229,1,8,0:1:0:0:
383,256,56709,2,0,L|372:361,2,90,0|8|0,0:0|0:1|0:0,0:0:0:0:
410,170,58149,1,8,0:1:0:0:
447,88,58629,6,0,B|371:82|371:82|317:113|317:113|229:107,1,225,2|6,0:0|0:0,0:0:0:0:
189,27,60309,2,0,P|136:23|153:91,1,135,4|8,0:0|0:1,0:0:0:0:
167,175,61509,2,0,P|178:245|165:276,1,90,0|8,0:0|0:1,0:0:0:0:
97,312,62469,2,0,B|153:277|223:307|223:307|302:349|361:290,1,270,4|4,0:0|0:0,0:0:0:0:
383,213,64389,6,0,P|393:164|395:112,1,90,4|8,0:0|0:1,0:0:0:0:
367,38,65349,2,0,L|269:47,1,90,0|8,0:0|0:1,0:0:0:0:
209,104,66309,2,0,L|64:95,2,135,0|2|8,0:0|0:0|0:1,0:0:0:0:
264,175,68229,6,0,P|276:230|280:272,1,90,2|8,0:0|0:1,0:0:0:0:
236,342,69189,2,0,P|293:350|327:347,1,90,0|8,0:0|0:1,0:0:0:0:
407,311,70149,2,0,L|384:178,1,135,0|2,0:0|0:0,0:0:0:0:
386,42,71589,1,8,0:1:0:0:
302,75,72069,6,0,P|229:85|195:82,1,90,4|8,0:0|0:1,0:0:0:0:
126,59,73029,2,0,P|53:49|19:52,1,90,0|8,0:0|0:1,0:0:0:0:
72,132,73989,2,0,L|47:282,2,135,0|4|0,0:0|0:0|0:0,0:0:0:0:
156,100,75909,6,0,P|170:142|167:192,1,90,2|8,0:0|0:1,0:0:0:0:
195,274,76869,2,0,P|255:260|297:262,1,90,0|8,0:0|0:1,0:0:0:0:
365,224,77829,2,0,B|372:308|372:308|347:361,2,135,4|4|8,0:0|0:0|0:1,0:0:0:0:
396,139,79749,6,0,L|293:128,1,90,4|8,0:0|0:1,0:0:0:0:
235,73,80709,2,0,L|132:84,1,90,0|8,0:0|0:1,0:0:0:0:
112,166,81669,2,0,P|109:96|45:51,2,135,0|2|8,0:0|0:0|0:1,0:0:0:0:
65,243,83589,6,0,P|115:256|166:237,1,90,4|8,0:0|0:1,0:0:0:0:
234,214,84549,2,0,L|326:232,1,90,0|8,0:0|0:1,0:0:0:0:
388,169,85509,2,0,P|412:238|376:304,2,135,0|4|8,0:0|0:0|0:1,0:0:0:0:
316,113,87429,6,0,P|259:98|211:93,1,90,4|8,0:0|0:1,0:0:0:0:
139,105,88389,2,0,L|125:214,1,90,0|8,0:0|0:1,0:0:0:0:
215,214,89349,2,0,L|239:365,2,135,0|4|8,0:0|0:0|0:1,0:0:0:0:
225,125,91269,6,0,P|285:145|316:149,1,90,2|8,0:0|0:1,0:0:0:0:
396,119,92229,2,0,L|388:230,1,90,0|8,0:0|0:1,0:0:0:0:
316,262,93189,2,0,P|382:256|444:283,2,135,0|4|8,0:0|0:0|0:1,0:0:0:0:
226,257,95109,6,0,L|232:194,1,45,8|8,0:1|0:1,0:0:0:0:
168,147,95829,2,0,L|162:84,1,45,8|8,0:1|0:1,0:0:0:0:
275,26,96789,2,0,P|360:66|401:62,1,135,4|0,0:0|0:0,0:0:0:0:
463,125,97989,1,0,0:0:0:0:
418,203,98469,1,8,0:1:0:0:
435,291,98949,6,0,L|197:282,1,225,10|0,0:0|0:0,0:0:0:0:
122,305,100629,2,0,B|87:279|87:279|96:174,1,135,2|4,0:0|0:0,0:0:0:0:
34,120,101829,2,0,P|87:100|127:103,1,90,8|8,0:1|0:1,0:0:0:0:
202,135,102789,6,0,P|285:166|379:153,1,180,4|2,0:0|0:0,0:0:0:0:
429,225,104229,1,8,0:1:0:0:
375,297,104709,2,0,P|286:285|202:316,1,180,2|2,0:0|0:0,0:0:0:0:
130,263,106149,1,8,0:1:0:0:
43,288,106629,6,0,L|52:139,1,135,8|8,0:1|0:1,0:0:0:0:
137,126,107829,1,4,0:3:0:0:
224,103,108309,2,0,P|301:103|358:125,1,135,4|8,0:0|0:3,0:0:0:0:
409,194,109509,2,0,L|391:290,1,90,8|8,0:1|0:1,0:0:0:0:
318,334,110469,6,0,P|251:312|182:321,1,135,6|2,0:0|0:0,0:0:0:0:
103,350,111669,2,0,L|87:262,1,90,0|4,0:0|0:0,0:0:0:0:
256,192,112389,12,0,120309,0:0:0:0:
