osu file format v14

[General]
AudioFilename: audio.mp3
AudioLeadIn: 0
PreviewTime: 58348
Countdown: 0
SampleSet: Normal
StackLeniency: 0.7
Mode: 1
LetterboxInBreaks: 0
WidescreenStoryboard: 1

[Editor]
Bookmarks: 22690
DistanceSpacing: 0.8
BeatDivisor: 4
GridSize: 4
TimelineZoom: 1

[Metadata]
Title:Santa Claus ni Yoyaku Shite!
TitleUnicode:サンタクロースに予約して!
Artist:yozuca*, rino, Hashimoto Miyuki, Misato Aki
ArtistUnicode:yozuca*、rino、橋本みゆき、美郷あき
Creator:Faputa
Version:Muzukashii
Source:C.D.Christmas Days
Tags:eroge Tyistiana Poii OP opening ~Circus Disc Christmas Days~ xmas
BeatmapID:1844235
BeatmapSetID:881569

[Difficulty]
HPDrainRate:6
CircleSize:2
OverallDifficulty:4
ApproachRate:10
SliderMultiplier:1.4
SliderTickRate:1

[Events]
//Background and Video events
0,0,"BG.jpg",0,40
//Break Periods
//Storyboard Layer 0 (Background)
//Storyboard Layer 1 (Fail)
//Storyboard Layer 2 (Pass)
//Storyboard Layer 3 (Foreground)
//Storyboard Sound Samples

[TimingPoints]
1638,526.315789473684,4,1,0,75,1,0
5848,-100,4,1,0,80,0,0
58480,-100,4,1,0,85,0,1
66901,-100,4,1,0,80,0,0
75322,-100,4,1,0,85,0,1
92164,-100,4,1,0,80,0,0

[HitObjects]
256,192,1638,5,8,0:0:0:0:
256,192,2164,1,0,0:0:0:0:
256,192,2690,1,8,0:0:0:0:
256,192,3216,1,8,0:0:0:0:
256,192,3743,1,0,0:0:0:0:
256,192,5322,1,8,0:0:0:0:
256,192,5848,1,4,0:0:0:0:
256,192,6374,1,8,0:0:0:0:
256,192,6637,1,0,0:0:0:0:
256,192,6769,1,0,0:0:0:0:
256,192,7032,1,8,0:0:0:0:
256,192,7427,1,8,0:0:0:0:
256,192,7690,1,0,0:0:0:0:
256,192,7953,1,8,0:0:0:0:
256,192,8480,1,0,0:0:0:0:
256,192,8743,1,8,0:0:0:0:
256,192,8874,1,8,0:0:0:0:
256,192,9137,1,0,0:0:0:0:
256,192,9532,1,0,0:0:0:0:
256,192,9795,1,8,0:0:0:0:
256,192,10059,1,4,0:0:0:0:
256,192,10585,1,0,0:0:0:0:
256,192,10848,1,8,0:0:0:0:
256,192,10980,1,8,0:0:0:0:
256,192,11243,1,8,0:0:0:0:
256,192,11637,1,8,0:0:0:0:
256,192,11901,1,0,0:0:0:0:
256,192,12164,1,8,0:0:0:0:
256,192,12690,1,8,0:0:0:0:
256,192,12953,1,0,0:0:0:0:
256,192,13085,1,0,0:0:0:0:
256,192,13348,1,0,0:0:0:0:
256,192,13743,1,8,0:0:0:0:
256,192,14269,1,12,0:0:0:0:
256,192,15059,1,0,0:0:0:0:
256,192,15322,1,8,0:0:0:0:
256,192,15585,1,0,0:0:0:0:
256,192,15848,1,8,0:0:0:0:
256,192,16111,1,8,0:0:0:0:
256,192,16374,1,4,0:0:0:0:
256,192,16901,1,0,0:0:0:0:
256,192,17164,1,8,0:0:0:0:
256,192,17295,1,8,0:0:0:0:
256,192,17559,1,0,0:0:0:0:
256,192,17953,1,8,0:0:0:0:
256,192,18480,1,4,0:0:0:0:
256,192,18743,1,0,0:0:0:0:
256,192,19006,1,8,0:0:0:0:
256,192,19137,1,8,0:0:0:0:
256,192,19401,1,0,0:0:0:0:
256,192,19664,1,8,0:0:0:0:
256,192,19927,1,0,0:0:0:0:
256,192,20059,1,0,0:0:0:0:
256,192,20322,1,8,0:0:0:0:
256,192,20848,1,12,0:0:0:0:
256,192,21243,1,12,0:0:0:0:
256,192,21637,1,12,0:0:0:0:
256,192,22164,1,8,0:0:0:0:
256,192,22690,1,4,0:0:0:0:
256,192,23216,1,8,0:0:0:0:
256,192,23743,1,0,0:0:0:0:
256,192,24006,1,8,0:0:0:0:
256,192,24269,1,8,0:0:0:0:
256,192,24532,1,8,0:0:0:0:
256,192,24795,1,0,0:0:0:0:
256,192,25322,1,8,0:0:0:0:
256,192,25848,1,8,0:0:0:0:
256,192,26111,1,8,0:0:0:0:
256,192,26374,1,0,0:0:0:0:
256,192,26637,1,8,0:0:0:0:
256,192,26901,1,0,0:0:0:0:
256,192,27427,1,0,0:0:0:0:
256,192,27953,1,8,0:0:0:0:
256,192,28216,1,0,0:0:0:0:
256,192,28480,1,0,0:0:0:0:
256,192,28743,1,0,0:0:0:0:
256,192,29006,1,8,0:0:0:0:
256,192,29532,1,0,0:0:0:0:
256,192,30059,1,0,0:0:0:0:
256,192,30322,1,0,0:0:0:0:
256,192,30585,1,8,0:0:0:0:
256,192,30848,1,0,0:0:0:0:
256,192,31111,1,12,0:0:0:0:
256,192,31637,1,0,0:0:0:0:
256,192,31901,1,8,0:0:0:0:
256,192,32032,1,8,0:0:0:0:
256,192,32690,1,0,0:0:0:0:
256,192,32953,1,8,0:0:0:0:
256,192,33216,1,0,0:0:0:0:
256,192,33743,1,8,0:0:0:0:
256,192,34006,1,0,0:0:0:0:
256,192,34137,1,0,0:0:0:0:
256,192,34795,1,8,0:0:0:0:
256,192,35059,1,0,0:0:0:0:
256,192,35322,1,12,0:0:0:0:
256,192,35848,1,0,0:0:0:0:
256,192,36374,1,4,0:0:0:0:
256,192,36637,1,8,0:0:0:0:
256,192,36901,1,8,0:0:0:0:
256,192,37164,1,0,0:0:0:0:
256,192,37427,1,12,0:0:0:0:
256,192,37953,1,0,0:0:0:0:
256,192,38216,1,0,0:0:0:0:
256,192,38480,1,12,0:0:0:0:
256,192,39006,1,12,0:0:0:0:
256,192,39532,1,8,0:0:0:0:
256,192,39795,1,8,0:0:0:0:
256,192,40059,1,8,0:0:0:0:
256,192,41111,1,8,0:0:0:0:
256,192,41637,1,0,0:0:0:0:
256,192,41901,1,0,0:0:0:0:
256,192,42164,1,0,0:0:0:0:
256,192,43216,1,0,0:0:0:0:
256,192,43743,1,12,0:0:0:0:
256,192,44269,1,0,0:0:0:0:
256,192,44795,1,12,0:0:0:0:
256,192,45059,1,0,0:0:0:0:
256,192,45322,1,8,0:0:0:0:
256,192,45848,1,4,0:0:0:0:
256,192,46374,1,4,0:0:0:0:
256,192,46901,1,4,0:0:0:0:
256,192,47164,1,8,0:0:0:0:
256,192,47427,1,0,0:0:0:0:
256,192,47690,1,8,0:0:0:0:
256,192,47822,1,8,0:0:0:0:
256,192,47953,1,8,0:0:0:0:
256,192,48216,1,8,0:0:0:0:
256,192,48480,1,0,0:0:0:0:
256,192,48743,1,8,0:0:0:0:
256,192,49006,1,8,0:0:0:0:
256,192,49269,1,0,0:0:0:0:
256,192,49401,1,0,0:0:0:0:
256,192,50059,1,8,0:0:0:0:
256,192,50190,1,8,0:0:0:0:
256,192,50322,1,8,0:0:0:0:
256,192,50585,1,0,0:0:0:0:
256,192,50848,1,0,0:0:0:0:
256,192,51111,1,8,0:0:0:0:
256,192,51374,1,8,0:0:0:0:
256,192,51506,1,8,0:0:0:0:
256,192,52164,1,8,0:0:0:0:
256,192,52427,1,8,0:0:0:0:
256,192,52690,1,8,0:0:0:0:
256,192,53085,1,0,0:0:0:0:
256,192,53348,1,8,0:0:0:0:
256,192,53611,1,0,0:0:0:0:
256,192,53743,1,0,0:0:0:0:
256,192,54006,1,8,0:0:0:0:
256,192,54269,1,0,0:0:0:0:
256,192,54532,1,12,0:0:0:0:
256,192,54927,1,12,0:0:0:0:
256,192,55322,1,12,0:0:0:0:
256,192,55716,1,12,0:0:0:0:
256,192,56111,1,12,0:0:0:0:
256,192,56374,1,4,0:0:0:0:
256,192,57953,1,12,0:0:0:0:
256,192,58480,1,4,0:0:0:0:
256,192,58743,1,8,0:0:0:0:
256,192,59006,1,0,0:0:0:0:
256,192,59269,1,8,0:0:0:0:
256,192,59401,1,8,0:0:0:0:
256,192,59795,1,0,0:0:0:0:
256,192,60059,1,0,0:0:0:0:
256,192,60322,1,8,0:0:0:0:
256,192,60585,1,0,0:0:0:0:
256,192,60980,1,0,0:0:0:0:
256,192,61374,1,8,0:0:0:0:
256,192,62164,1,0,0:0:0:0:
256,192,62427,1,8,0:0:0:0:
256,192,62690,1,4,0:0:0:0:
256,192,63216,1,8,0:0:0:0:
256,192,63480,1,0,0:0:0:0:
256,192,63611,1,0,0:0:0:0:
256,192,64006,1,8,0:0:0:0:
256,192,64269,1,8,0:0:0:0:
256,192,64532,1,0,0:0:0:0:
256,192,64795,1,8,0:0:0:0:
256,192,65190,1,0,0:0:0:0:
256,192,65585,1,0,0:0:0:0:
256,192,66374,1,8,0:0:0:0:
256,192,66637,1,8,0:0:0:0:
256,192,66901,1,4,0:0:0:0:
256,192,67164,1,8,0:0:0:0:
256,192,67427,1,0,0:0:0:0:
256,192,67690,1,8,0:0:0:0:
256,192,67953,1,0,0:0:0:0:
256,192,68480,1,8,0:0:0:0:
256,192,68743,1,8,0:0:0:0:
256,192,69006,1,4,0:0:0:0:
256,192,69532,1,0,0:0:0:0:
256,192,69795,1,8,0:0:0:0:
256,192,70059,1,0,0:0:0:0:
256,192,70848,1,8,0:0:0:0:
256,192,71111,1,4,0:0:0:0:
256,192,71637,1,0,0:0:0:0:
256,192,72164,1,0,0:0:0:0:
256,192,72427,1,8,0:0:0:0:
256,192,72559,1,8,0:0:0:0:
256,192,72953,1,0,0:0:0:0:
256,192,73216,1,8,0:0:0:0:
256,192,73480,1,8,0:0:0:0:
256,192,73743,1,0,0:0:0:0:
256,192,74006,1,0,0:0:0:0:
256,192,74269,1,8,0:0:0:0:
256,192,74401,1,8,0:0:0:0:
256,192,74532,1,8,0:0:0:0:
256,192,74795,1,0,0:0:0:0:
256,192,75322,1,12,0:0:0:0:
256,192,75585,1,0,0:0:0:0:
256,192,75848,1,8,0:0:0:0:
256,192,76111,1,8,0:0:0:0:
256,192,76243,1,8,0:0:0:0:
256,192,76637,1,0,0:0:0:0:
256,192,76901,1,0,0:0:0:0:
256,192,77164,1,8,0:0:0:0:
256,192,77427,1,0,0:0:0:0:
256,192,77822,1,0,0:0:0:0:
256,192,78216,1,8,0:0:0:0:
256,192,79006,1,0,0:0:0:0:
256,192,79269,1,0,0:0:0:0:
256,192,79532,1,12,0:0:0:0:
256,192,79795,1,0,0:0:0:0:
256,192,80058,1,8,0:0:0:0:
256,192,80322,1,0,0:0:0:0:
256,192,80453,1,0,0:0:0:0:
256,192,80848,1,8,0:0:0:0:
256,192,81111,1,8,0:0:0:0:
256,192,81374,1,0,0:0:0:0:
256,192,81637,1,8,0:0:0:0:
256,192,82032,1,0,0:0:0:0:
256,192,82427,1,0,0:0:0:0:
256,192,83216,1,8,0:0:0:0:
256,192,83479,1,8,0:0:0:0:
256,192,83743,1,4,0:0:0:0:
256,192,84269,1,0,0:0:0:0:
256,192,84532,1,8,0:0:0:0:
256,192,84795,1,4,0:0:0:0:
256,192,85322,1,12,0:0:0:0:
256,192,85848,1,4,0:0:0:0:
256,192,86243,1,8,0:0:0:0:
256,192,86374,1,8,0:0:0:0:
256,192,86637,1,4,0:0:0:0:
256,192,87427,1,8,0:0:0:0:
256,192,87690,1,0,0:0:0:0:
256,192,87953,1,12,0:0:0:0:
256,192,88479,1,0,0:0:0:0:
256,192,89006,1,0,0:0:0:0:
256,192,89269,1,8,0:0:0:0:
256,192,89401,1,8,0:0:0:0:
256,192,89795,1,0,0:0:0:0:
256,192,90059,1,12,0:0:0:0:
256,192,90585,1,0,0:0:0:0:
256,192,91111,1,12,0:0:0:0:
256,192,91637,1,0,0:0:0:0:
256,192,91901,1,0,0:0:0:0:
256,192,92164,1,12,0:0:0:0:
256,192,92427,1,0,0:0:0:0:
256,192,92690,1,8,0:0:0:0:
256,192,93085,1,0,0:0:0:0:
256,192,93348,1,0,0:0:0:0:
256,192,93611,1,8,0:0:0:0:
256,192,93743,1,8,0:0:0:0:
256,192,94006,1,0,0:0:0:0:
256,192,94269,1,8,0:0:0:0:
256,192,94532,1,8,0:0:0:0:
256,192,94795,1,8,0:0:0:0:
256,192,95190,1,0,0:0:0:0:
256,192,95453,1,8,0:0:0:0:
256,192,95848,1,4,0:0:0:0:
