osu file format v14

[General]
AudioFilename: audio192.mp3
AudioLeadIn: 0
PreviewTime: 155573
Countdown: 0
SampleSet: Soft
StackLeniency: 0.7
Mode: 2
LetterboxInBreaks: 0
WidescreenStoryboard: 1

[Editor]
Bookmarks: 185570
DistanceSpacing: 1.4
BeatDivisor: 4
GridSize: 8
TimelineZoom: 1.8

[Metadata]
Title:LOVING TRIP
TitleUnicode:LOVING TRIP
Artist:yozuca*
ArtistUnicode:yozuca*
Creator:-Luminate
Version:Rain
Source:オトメ*ドメイン
Tags:otome domain otome*domain op opening visual novel eroge vn palette qualia smile otomedo オトメドメイン yozurino* よすか full version ver ぱれっと
BeatmapID:2259597
BeatmapSetID:1080025

[Difficulty]
HPDrainRate:6
CircleSize:3.8
OverallDifficulty:9
ApproachRate:9
SliderMultiplier:2.2
SliderTickRate:2

[Events]
//Background and Video events
0,0,"ok3.jpg",0,0
//Break Periods
//Storyboard Layer 0 (Background)
//Storyboard Layer 1 (Fail)
//Storyboard Layer 2 (Pass)
//Storyboard Layer 3 (Foreground)
//Storyboard Layer 4 (Overlay)
//Storyboard Sound Samples

[TimingPoints]
862,413.793103448276,4,2,1,60,1,0
10793,-100,4,2,2,45,0,0
20518,-100,4,2,2,50,0,0
24034,-100,4,2,2,45,0,0
32310,-100,4,2,2,52,0,0
32724,-83.3333333333333,4,2,1,55,0,0
33965,-100,4,2,1,60,0,0
37275,-100,4,2,1,55,0,0
49172,-100,4,2,1,48,0,0
49689,-100,4,2,1,52,0,0
50103,-100,4,2,1,58,0,0
50517,-100,4,2,1,65,0,0
57137,-100,4,2,1,53,0,0
59413,-100,4,2,1,60,0,0
61068,-100,4,2,1,50,0,0
62517,-100,4,2,1,55,0,0
63758,-100,4,2,1,60,0,0
64172,-100,4,2,1,70,0,1
73689,-100,4,2,1,75,0,1
75137,-100,4,2,1,80,0,1
76999,-100,4,2,1,66,0,0
77413,-100,4,2,1,70,0,1
79896,-100,4,2,1,70,0,1
81758,-100,4,2,1,75,0,1
86930,-100,4,2,1,80,0,1
88586,-100,4,2,1,70,0,0
89620,-100,4,2,1,60,0,0
90241,-100,4,2,1,65,0,0
93551,-100,4,2,1,70,0,1
100172,-100,4,2,1,50,0,0
101827,-100,4,2,1,45,0,0
102034,-100,4,2,2,45,0,0
106999,-100,4,2,1,40,0,0
107620,-100,4,2,1,45,0,0
108448,-100,4,2,2,46,0,0
111758,-100,4,2,1,47,0,0
113206,-100,4,2,1,59,0,0
115068,-100,4,2,1,48,0,0
115482,-100,4,2,2,48,0,0
118379,-100,4,2,2,49,0,0
122724,-100,4,2,2,50,0,0
123758,-100,4,2,2,60,0,0
124999,-100,4,2,1,68,0,0
128310,-100,4,2,1,60,0,0
140206,-100,4,2,1,52,0,0
140724,-100,4,2,1,60,0,0
141551,-100,4,2,1,70,0,0
148172,-100,4,2,1,57,0,0
150448,-100,4,2,1,65,0,0
152103,-100,4,2,1,50,0,0
154379,-100,4,2,1,60,0,0
155620,413.793103448276,4,2,1,70,1,0
156033,-100,4,2,1,70,0,1
165551,-100,4,2,1,75,0,1
167206,-100,4,2,1,80,0,1
168861,-100,4,2,1,66,0,0
169275,-100,4,2,1,70,0,1
173620,-100,4,2,1,75,0,1
178792,-100,4,2,1,80,0,1
180447,-100,4,2,1,70,0,0
181482,-100,4,2,1,60,0,0
182102,-100,4,2,1,65,0,0
185413,-100,4,2,1,49,0,0
188723,-100,4,2,1,50,0,0
190275,-100,4,2,1,52,0,0
192033,-100,4,2,1,54,0,0
193482,-100,4,2,1,56,0,0
195344,-100,4,2,1,60,0,0
196999,-100,4,2,1,65,0,0
198654,-100,4,2,1,50,0,0
210033,-100,4,2,1,55,0,0
212102,-100,4,2,1,48,0,0
213344,-100,4,2,1,55,0,0
213757,-100,4,2,1,48,0,0
214999,-100,4,2,1,55,0,0
218516,-100,4,2,1,58,0,0
221826,-100,4,2,1,35,0,0
222033,-100,4,2,1,38,0,0
222240,-100,4,2,1,41,0,0
222447,-100,4,2,1,44,0,0
222654,-100,4,2,1,47,0,0
222861,-100,4,2,1,50,0,0
223068,-100,4,2,1,53,0,0
223275,-100,4,2,1,57,0,0
223482,-100,4,2,1,60,0,0
223585,-100,4,2,1,20,0,0
224930,-100,4,2,1,45,0,0
225137,-100,4,2,1,50,0,0
226792,-100,4,2,1,60,0,0
227206,-100,4,2,1,70,0,1
236723,-100,4,2,1,75,0,1
238171,-100,4,2,1,80,0,1
240033,-100,4,2,1,66,0,0
240447,-100,4,2,1,70,0,1
241895,-100,4,2,1,70,0,1
244792,-100,4,2,1,75,0,1
249964,-100,4,2,1,80,0,1
251620,-100,4,2,1,70,0,0
252654,-100,4,2,1,60,0,0
253275,-100,4,2,1,65,0,0
256585,-100,4,2,1,70,0,1
259895,-100,4,2,1,70,0,1
263206,-100,4,2,1,48,0,0
264861,-100,4,2,1,57,0,0
265688,-100,4,2,1,30,0,0
266102,-100,4,2,1,29,0,0
266516,-100,4,2,1,28,0,0
266930,-100,4,2,1,27,0,0
267344,-100,4,2,1,26,0,0
267757,-100,4,2,1,25,0,0
268171,-100,4,2,1,24,0,0
268585,-100,4,2,1,23,0,0
268999,-100,4,2,1,22,0,0
269413,-100,4,2,1,21,0,0
269826,-100,4,2,1,20,0,0
270240,-100,4,2,1,18,0,0
270654,-100,4,2,1,16,0,0
271068,-100,4,2,1,14,0,0
271482,-100,4,2,1,12,0,0
271895,-100,4,2,1,10,0,0
272309,-100,4,2,1,8,0,0
272723,-100,4,2,1,6,0,0
273137,-100,4,2,1,5,0,0

[Colours]
Combo1 : 24,180,192
Combo2 : 128,128,192
Combo3 : 255,119,255
Combo4 : 52,71,239

[HitObjects]
112,304,862,5,8,0:1:0:0:
320,264,1068,1,0,0:0:0:0:
184,208,1275,2,0,L|184:120,1,55,2|0,0:0|0:0,0:0:0:0:
456,160,1586,2,0,P|496:120|432:48,1,165,8|8,0:1|0:1,0:0:0:0:
280,48,2103,1,8,0:0:0:0:
336,56,2206,1,8,0:1:0:0:
392,64,2310,1,4,0:3:0:0:
120,336,2517,6,0,L|112:208,1,110,4|0,0:2|0:1,0:0:0:0:
320,200,2827,2,0,L|430:200,1,110,2|0,0:0|0:1,0:0:0:0:
232,168,3137,2,0,P|192:88|256:56,1,165,4|8,0:0|0:3,0:0:0:0:
336,56,3551,2,0,L|432:56,2,55,4|4|8,0:3|0:3|0:1,0:0:0:0:
64,288,3965,6,0,L|56:160,1,110,4|0,0:0|0:0,0:0:0:0:
208,168,4379,1,8,0:1:0:0:
64,112,4586,1,8,0:0:0:0:
128,112,4689,2,0,L|304:112,1,165,2|8,0:0|0:0,0:0:0:0:
168,304,5206,2,0,L|160:216,1,55,8|8,0:1|0:0,0:0:0:0:
336,224,5620,1,8,0:1:0:0:
160,200,5724,6,0,P|112:136|168:80,1,165,4|2,0:0|0:0,0:0:0:0:
336,80,6241,1,8,0:0:0:0:
384,112,6344,1,10,0:1:0:0:
384,168,6448,1,8,0:0:0:0:
336,200,6551,1,8,0:0:0:0:
240,336,6655,1,8,0:3:0:0:
184,304,6758,1,0,0:0:0:0:
240,272,6862,1,8,0:3:0:0:
304,248,6965,1,8,0:0:0:0:
136,184,7068,2,0,L|72:160,1,55,4|4,0:3|0:3,0:0:0:0:
304,136,7275,1,10,0:0:0:0:
168,144,7482,6,0,P|152:64|168:32,1,110,4|0,0:0|0:0,0:0:0:0:
448,296,7896,2,0,P|456:216|440:184,1,110,2|0,0:0|0:0,0:0:0:0:
168,208,8310,1,10,0:0:0:0:
288,208,8517,2,0,L|296:144,1,55,8|8,0:1|0:3,0:0:0:0:
224,120,8724,2,0,L|152:120,1,55,4|4,0:3|0:3,0:0:0:0:
344,352,8930,6,0,P|392:288|336:224,1,165,4|0,0:0|0:0,0:0:0:0:
272,224,9344,2,0,L|176:224,1,55,8|8,0:0|0:0,0:0:0:0:
384,112,9551,2,0,L|439:112,1,55,8|8,0:1|0:1,0:0:0:0:
152,64,9862,1,2,0:0:0:0:
288,144,10172,5,0,0:0:0:0:
168,176,10379,2,0,L|168:296,1,110,0|0,0:0|0:0,0:0:0:0:
352,328,10793,6,0,L|512:336,1,110,14|0,0:0|0:0,0:0:0:0:
328,224,11206,2,0,L|200:176,1,110,8|0,0:0|0:0,0:0:0:0:
352,112,11620,1,8,0:0:0:0:
224,96,11827,2,0,L|152:96,2,55,2|2|10,0:0|0:0|0:0,0:0:0:0:
360,280,12241,6,0,L|368:136,1,110,0|8,0:0|0:0,0:0:0:0:
224,184,12655,2,0,L|216:56,1,110,0|8,0:0|0:0,0:0:0:0:
376,32,13068,2,0,L|256:32,1,110,0|8,0:0|0:0,0:0:0:0:
216,56,13379,1,2,0:0:0:0:
192,104,13482,1,2,0:0:0:0:
216,152,13586,1,2,0:0:0:0:
264,176,13689,1,10,0:0:0:0:
152,240,13896,1,0,0:0:0:0:
352,312,14103,6,0,L|360:176,1,110,8|0,0:0|0:0,0:0:0:0:
224,176,14517,2,0,L|360:176,1,110,8|0,0:0|0:0,0:0:0:0:
472,104,14930,2,0,L|344:104,1,110,8|2,0:0|0:0,0:0:0:0:
304,104,15241,1,2,0:0:0:0:
240,104,15344,1,10,0:0:0:0:
381,327,15551,6,0,L|237:327,1,110,0|8,0:0|0:0,0:0:0:0:
120,320,15965,2,0,L|112:192,1,110,0|8,0:0|0:0,0:0:0:0:
264,168,16379,2,0,L|272:56,1,110,0|10,0:0|0:0,0:0:0:0:
208,48,16689,1,0,0:0:0:0:
144,48,16793,1,8,0:1:0:0:
88,72,16896,1,8,0:1:0:0:
64,136,16999,1,10,0:0:0:0:
208,200,17206,1,8,0:1:0:0:
48,304,17413,6,0,L|208:296,1,110,8|0,0:0|0:0,0:0:0:0:
312,304,17827,2,0,L|464:304,1,110,8|0,0:0|0:0,0:0:0:0:
248,176,18241,1,8,0:0:0:0:
408,112,18448,2,0,L|512:112,2,55,2|2|10,0:0|0:0|0:0,0:0:0:0:
216,312,18862,6,0,L|208:192,1,110,0|8,0:0|0:0,0:0:0:0:
400,208,19275,2,0,L|408:72,1,110,0|8,0:0|0:0,0:0:0:0:
264,80,19689,2,0,L|424:80,1,110,0|10,0:0|0:0,0:0:0:0:
448,208,19999,1,2,0:0:0:0:
400,152,20103,1,2,0:0:0:0:
448,96,20206,1,0,0:0:0:0:
504,96,20310,1,8,0:0:0:0:
344,280,20517,1,8,0:1:0:0:
56,272,20724,6,0,L|48:136,1,110,8|0,0:0|0:0,0:0:0:0:
192,208,21137,2,0,L|192:56,1,110,8|0,0:0|0:0,0:0:0:0:
336,160,21551,2,0,L|336:24,1,110,8|8,0:0|0:1,0:0:0:0:
264,40,21862,1,8,0:3:0:0:
192,32,21965,1,4,0:3:0:0:
464,328,22172,6,0,P|504:280|384:184,1,220,4|8,0:0|0:1,0:0:0:0:
240,112,22793,2,0,L|320:112,1,55,8|4,0:3|0:3,0:0:0:0:
464,112,22999,1,4,0:3:0:0:
232,312,23413,2,0,P|216:256|240:192,1,110,8|0,0:3|0:0,0:0:0:0:
400,208,23724,2,0,P|416:136|376:80,1,110,4|8,0:0|0:1,0:0:0:0:
208,96,24034,6,0,L|88:96,1,110,8|0,0:0|0:0,0:0:0:0:
240,208,24448,2,0,L|360:208,1,110,8|0,0:0|0:0,0:0:0:0:
192,320,24862,1,8,0:0:0:0:
336,320,25068,2,0,L|408:320,2,55,8|2|10,0:1|0:0|0:0,0:0:0:0:
152,296,25482,6,0,L|144:152,1,110,0|8,0:0|0:0,0:0:0:0:
296,184,25896,2,0,L|304:56,1,110,0|8,0:0|0:0,0:0:0:0:
160,56,26310,2,0,L|288:56,1,110,0|8,0:0|0:0,0:0:0:0:
344,64,26620,2,0,L|352:144,1,55,2|2,0:0|0:0,0:0:0:0:
280,144,26827,2,0,L|272:224,1,55,2|10,0:0|0:0,0:0:0:0:
448,288,27137,2,0,L|344:288,1,55,8|8,0:1|0:1,0:0:0:0:
280,288,27344,6,0,L|136:288,1,110,8|0,0:0|0:0,0:0:0:0:
320,120,27758,2,0,L|192:120,1,110,8|0,0:0|0:0,0:0:0:0:
40,120,28172,1,8,0:0:0:0:
192,168,28379,1,2,0:0:0:0:
200,216,28482,1,2,0:0:0:0:
208,264,28586,1,10,0:0:0:0:
32,336,28793,6,0,L|184:336,1,110,0|8,0:0|0:0,0:0:0:0:
304,280,29206,2,0,L|176:280,1,110,0|8,0:0|0:0,0:0:0:0:
344,160,29620,2,0,L|496:160,1,110,0|8,0:0|0:0,0:0:0:0:
488,120,29930,1,8,0:1:0:0:
480,80,30034,1,8,0:0:0:0:
432,48,30137,1,10,0:0:0:0:
336,48,30241,2,0,L|216:48,1,110,10|8,0:0|0:0,0:0:0:0:
288,88,30551,1,8,0:0:0:0:
456,312,30655,6,0,L|464:168,1,110,4|0,3:2|0:0,0:0:0:0:
328,192,31068,1,8,0:0:0:0:
464,144,31275,2,0,L|328:144,1,110,0|8,0:0|0:0,0:0:0:0:
200,184,31689,1,8,0:1:0:0:
152,160,31793,1,8,0:0:0:0:
136,112,31896,1,8,0:3:0:0:
152,64,31999,1,8,0:3:0:0:
200,48,32103,1,4,0:3:0:0:
480,304,32310,6,0,L|360:304,1,110,4|8,0:3|0:0,0:0:0:0:
88,256,32724,2,0,L|80:112,1,131.99999597168,4|0,0:0|0:0,0:0:0:0:
432,176,33137,2,0,L|440:16,1,131.99999597168,4|8,0:3|0:0,0:0:0:0:
160,40,33551,2,0,L|0:40,1,131.99999597168,6|8,0:0|0:1,0:0:0:0:
96,80,33862,1,8,0:1:0:0:
336,80,33965,5,4,0:0:0:0:
176,272,34172,2,0,P|168:168|184:128,1,110,2|8,0:0|0:1,0:0:0:0:
240,160,34482,1,8,0:0:0:0:
408,160,34689,2,0,L|480:160,1,55,2|0,0:0|0:0,0:0:0:0:
288,328,34896,2,0,L|152:328,1,110,2|8,0:0|0:1,0:0:0:0:
240,296,35206,1,8,0:0:0:0:
288,256,35310,1,8,0:0:0:0:
288,192,35413,1,8,0:1:0:0:
240,160,35517,1,8,0:1:0:0:
48,152,35620,6,0,P|16:88|88:40,1,165,10|10,0:0|0:0,0:0:0:0:
464,80,36241,2,0,L|272:80,1,165,4|8,0:0|0:0,0:0:0:0:
200,104,36655,2,0,L|192:184,1,55,8|8,0:3|0:3,0:0:0:0:
272,192,36862,2,0,L|280:272,1,55,8|8,0:1|0:0,0:0:0:0:
192,272,37068,1,4,0:3:0:0:
464,336,37275,6,0,L|472:184,1,110,6|0,0:0|0:0,0:0:0:0:
320,240,37689,1,8,0:1:0:0:
464,184,37896,2,0,L|384:184,1,55,8|8,0:0|0:0,0:0:0:0:
240,112,38206,2,0,L|232:192,1,55,8|0,0:1|0:0,0:0:0:0:
312,184,38413,1,8,0:0:0:0:
144,256,38517,2,0,L|56:280,1,55,8|2,0:0|0:3,0:0:0:0:
296,344,38724,6,0,L|424:344,1,110,2|8,0:0|0:0,0:0:0:0:
256,240,39137,1,0,0:0:0:0:
408,184,39344,1,8,0:1:0:0:
256,104,39551,2,0,L|160:104,1,55,8|8,0:0|0:0,0:0:0:0:
400,304,39862,2,0,L|408:224,1,55,8|0,0:1|0:0,0:0:0:0:
328,240,40068,1,8,0:0:0:0:
144,184,40172,2,0,L|224:184,1,55,8|2,0:0|0:3,0:0:0:0:
368,184,40379,1,2,0:0:0:0:
232,80,40586,6,0,L|72:80,1,110,8|0,0:0|0:0,0:0:0:0:
120,136,40896,1,0,0:0:0:0:
184,136,40999,1,8,0:1:0:0:
381,305,41206,2,0,P|421:241|341:185,1,165,0|0,0:0|0:0,0:0:0:0:
280,144,41620,2,0,L|360:144,1,55,8|8,0:0|0:0,0:0:0:0:
432,104,41827,2,0,L|296:104,1,110,8|8,0:0|0:1,0:0:0:0:
40,200,42241,5,6,0:1:0:0:
168,136,42448,1,0,0:0:0:0:
40,96,42655,1,10,0:0:0:0:
312,328,42862,1,4,0:1:0:0:
184,288,43068,1,8,0:0:0:0:
147,248,43172,1,0,0:0:0:0:
151,195,43275,1,8,0:1:0:0:
193,161,43379,1,8,0:0:0:0:
256,160,43482,2,0,L|400:160,1,110,4|8,0:3|0:1,0:0:0:0:
72,72,43896,6,0,L|208:72,1,110,6|8,0:0|0:0,0:0:0:0:
352,88,44310,1,8,0:1:0:0:
200,184,44517,2,0,L|120:184,1,55,8|8,0:0|0:0,0:0:0:0:
352,336,44827,2,0,L|440:336,2,55,8|0|8,0:1|0:0|0:0,0:0:0:0:
184,272,45137,2,0,L|184:208,1,55,8|2,0:0|0:3,0:0:0:0:
368,136,45344,6,0,L|496:136,1,110,2|8,0:0|0:0,0:0:0:0:
328,296,45758,1,0,0:0:0:0:
176,224,45965,1,8,0:1:0:0:
328,136,46172,2,0,L|240:136,1,55,8|8,0:0|0:0,0:0:0:0:
96,136,46482,2,0,L|96:56,1,55,8|0,0:1|0:0,0:0:0:0:
160,80,46689,1,8,0:0:0:0:
328,72,46793,2,0,L|408:72,1,55,8|2,0:0|0:3,0:0:0:0:
192,240,46999,1,2,0:0:0:0:
72,200,47206,6,0,P|56:128|96:72,1,110,6|0,0:0|0:0,0:0:0:0:
128,96,47517,1,8,0:0:0:0:
184,96,47620,1,8,0:1:0:0:
360,304,47827,2,0,L|136:296,1,220,2|8,0:0|0:3,0:0:0:0:
200,280,48344,1,8,0:3:0:0:
376,200,48448,2,0,L|368:112,1,55,8|8,0:0|0:0,0:0:0:0:
280,128,48655,2,0,L|272:48,1,55,4|4,0:3|0:3,0:0:0:0:
464,88,48862,5,4,0:1:0:0:
304,248,49172,1,0,0:0:0:0:
472,344,49482,1,2,0:0:0:0:
304,328,49689,2,0,L|440:328,1,110,8|8,0:1|0:0,0:0:0:0:
104,264,50103,2,0,P|96:200|112:144,1,110,6|0,0:1|0:0,0:0:0:0:
400,216,50517,6,0,P|440:144|360:88,1,165,4|8,0:0|0:0,0:0:0:0:
320,88,50930,1,8,0:1:0:0:
48,288,51137,2,0,L|192:280,1,110,10|8,0:0|0:0,0:0:0:0:
224,280,51448,1,8,0:1:0:0:
288,272,51551,1,8,0:0:0:0:
112,184,51758,2,0,L|104:32,1,110,10|8,0:1|0:0,0:0:0:0:
408,288,52172,6,0,L|480:288,1,55,8|8,0:1|0:0,0:0:0:0:
288,184,52482,2,0,L|192:184,1,55,8|8,0:1|0:0,0:0:0:0:
416,128,52793,2,0,L|424:40,1,55,8|8,0:0|0:0,0:0:0:0:
232,72,52999,2,0,L|112:72,1,110,8|8,0:1|0:3,0:0:0:0:
296,208,53413,2,0,L|352:208,2,55,8|8|4,0:0|0:0|0:3,0:0:0:0:
24,280,53827,6,0,P|48:208|144:176,1,165,4|8,0:0|0:0,0:0:0:0:
184,176,54241,1,8,0:1:0:0:
456,264,54448,2,0,P|472:192|432:136,1,110,2|8,0:0|0:0,0:0:0:0:
392,152,54758,1,8,0:1:0:0:
336,144,54862,1,8,0:0:0:0:
64,104,55068,2,0,L|176:104,1,110,4|0,0:0|0:0,0:0:0:0:
472,216,55482,5,8,0:1:0:0:
296,160,55689,1,8,0:3:0:0:
448,120,55896,2,0,L|456:40,1,55,8|8,0:0|0:0,0:0:0:0:
384,64,56103,1,8,0:1:0:0:
184,64,56206,2,0,L|24:64,1,110,8|8,0:1|0:0,0:0:0:0:
128,112,56517,1,8,0:0:0:0:
400,296,56724,1,8,0:1:0:0:
336,288,56827,1,8,0:1:0:0:
272,280,56930,1,8,0:0:0:0:
80,288,57137,5,10,0:0:0:0:
208,224,57344,1,0,0:3:0:0:
80,176,57551,1,8,0:0:0:0:
208,112,57758,1,0,0:3:0:0:
400,128,57965,1,8,0:0:0:0:
272,88,58172,1,0,0:3:0:0:
408,40,58379,1,8,0:0:0:0:
272,16,58586,1,0,0:3:0:0:
456,344,58793,6,0,L|464:200,1,110,8|0,0:0|0:0,0:0:0:0:
288,224,59206,1,8,0:0:0:0:
456,152,59413,2,0,L|392:152,1,55,8|8,0:1|0:1,0:0:0:0:
216,152,59620,2,0,L|200:32,1,110,10|8,0:1|0:0,0:0:0:0:
352,40,60034,1,4,0:3:0:0:
56,40,60241,1,10,0:0:0:0:
368,296,61068,6,0,P|432:200|368:144,1,220,8|8,0:3|0:0,0:0:0:0:
208,128,61689,2,0,L|192:40,1,55,8|8,0:0|0:0,0:0:0:0:
368,64,61896,1,8,0:1:0:0:
120,320,62517,6,0,P|96:240|128:200,1,110,4|2,0:0|0:0,0:0:0:0:
240,216,62930,2,0,L|400:216,1,110,2|0,0:0|0:0,0:0:0:0:
280,176,63241,1,8,0:0:0:0:
192,176,63344,2,0,L|64:176,1,110,8|0,0:3|0:0,0:0:0:0:
400,336,63758,6,0,L|408:208,1,110,2|0,0:0|0:0,0:0:0:0:
96,224,64172,2,0,L|88:88,1,110,14|0,0:1|0:0,0:0:0:0:
160,96,64482,1,8,0:0:0:0:
232,88,64586,1,8,0:0:0:0:
72,336,64793,2,0,L|192:336,1,110,8|8,0:0|0:1,0:0:0:0:
456,152,65206,6,0,L|200:152,1,220,2|8,0:0|0:0,0:0:0:0:
392,288,65827,2,0,L|488:288,2,55,8|8|8,0:1|0:0|0:0,0:0:0:0:
312,288,66137,1,8,0:1:0:0:
232,288,66241,2,0,P|216:208|256:168,1,110,0|8,0:0|0:0,0:0:0:0:
304,168,66551,1,8,0:0:0:0:
232,144,66655,1,8,0:1:0:0:
48,144,66862,1,8,0:0:0:0:
368,320,67068,6,0,L|376:200,1,110,4|0,0:3|0:0,0:0:0:0:
48,144,67482,2,0,L|200:144,1,110,8|8,0:1|0:0,0:0:0:0:
232,144,67793,1,8,0:0:0:0:
304,144,67896,1,8,0:0:0:0:
168,248,68103,1,2,0:0:0:0:
312,304,68310,1,8,0:1:0:0:
40,352,68517,6,0,L|32:216,1,110,2|8,0:0|0:0,0:0:0:0:
176,192,68930,1,8,0:0:0:0:
32,160,69137,1,8,0:1:0:0:
304,128,69344,2,0,L|448:128,1,110,6|0,0:0|0:0,0:0:0:0:
352,96,69655,1,8,0:0:0:0:
280,72,69758,1,8,0:0:0:0:
464,320,69965,2,0,L|472:216,1,55,8|2,0:1|0:3,0:0:0:0:
408,240,70172,1,8,0:0:0:0:
128,248,70379,5,4,0:3:0:0:
272,192,70586,1,2,0:0:0:0:
128,144,70793,1,8,0:1:0:0:
304,80,70999,1,10,0:0:0:0:
376,88,71103,2,0,L|256:88,1,110,8|0,0:1|0:0,0:0:0:0:
176,152,71413,2,0,L|168:248,1,55,8|8,0:0|0:0,0:0:0:0:
368,344,71620,2,0,L|480:344,1,110,8|0,0:1|0:0,0:0:0:0:
192,288,72034,5,8,0:0:0:0:
336,216,72241,1,8,0:0:0:0:
472,160,72448,1,8,0:1:0:0:
336,112,72655,1,2,0:0:0:0:
400,64,72758,2,0,L|264:64,1,110,8|8,0:0|0:0,0:0:0:0:
344,144,73068,2,0,L|424:144,1,55,8|8,0:0|0:0,0:0:0:0:
224,200,73275,2,0,L|88:200,1,110,8|8,0:1|0:0,0:0:0:0:
392,312,73689,6,0,L|528:312,1,110,6|0,0:1|0:0,0:0:0:0:
184,224,74103,1,8,0:1:0:0:
336,184,74310,2,0,L|344:48,1,110,8|8,0:0|0:0,0:0:0:0:
176,72,74724,2,0,L|96:72,2,55,8|8|8,0:0|0:0|0:1,0:0:0:0:
448,240,75137,5,12,0:0:0:0:
288,240,75344,2,0,L|176:240,1,110,8|8,0:1|0:0,0:0:0:0:
448,240,75758,2,0,L|456:112,1,110,8|8,0:1|0:0,0:0:0:0:
144,112,76172,2,0,L|56:112,2,55,8|8|4,0:1|0:3|0:3,0:0:0:0:
312,112,76586,1,8,0:0:0:0:
144,200,76793,1,8,0:1:0:0:
432,304,76999,6,0,L|440:160,1,110,6|0,0:0|0:0,0:0:0:0:
160,232,77413,2,0,L|152:88,1,110,14|0,0:1|0:0,0:0:0:0:
224,112,77724,1,8,0:0:0:0:
296,104,77827,1,8,0:0:0:0:
128,320,78034,2,0,L|40:320,2,55,8|8|8,0:0|0:0|0:1,0:0:0:0:
408,216,78448,6,0,L|168:216,1,220,8|8,0:0|0:0,0:0:0:0:
336,176,79068,1,8,0:1:0:0:
64,216,79275,2,0,L|56:72,1,110,4|0,0:0|0:0,0:0:0:0:
208,104,79689,2,0,L|288:104,1,55,8|8,0:0|0:0,0:0:0:0:
464,288,79896,2,0,L|472:136,1,110,8|8,0:1|0:0,0:0:0:0:
176,144,80310,6,0,L|64:144,2,110,4|8|8,0:0|0:0|0:1,0:0:0:0:
360,216,80930,2,0,L|368:128,1,55,8|8,0:0|0:1,0:0:0:0:
288,152,81137,2,0,L|424:152,1,110,8|8,0:0|0:0,0:0:0:0:
464,112,81448,1,8,0:0:0:0:
400,64,81551,1,8,0:1:0:0:
128,64,81758,6,0,L|8:64,1,110,2|0,0:0|0:0,0:0:0:0:
192,240,82172,1,8,0:0:0:0:
32,304,82379,1,8,0:1:0:0:
376,312,82586,1,8,0:0:0:0:
232,304,82793,1,8,0:1:0:0:
168,296,82896,1,8,0:1:0:0:
104,288,82999,1,8,0:0:0:0:
384,208,83206,1,8,0:1:0:0:
448,192,83310,1,8,0:1:0:0:
448,136,83413,1,8,0:0:0:0:
160,192,83620,6,0,L|152:48,1,110,4|0,0:0|0:0,0:0:0:0:
320,64,84034,1,8,0:1:0:0:
48,304,84241,2,0,L|272:304,1,220,2|8,0:0|0:0,0:0:0:0:
200,280,84758,1,8,0:0:0:0:
136,272,84862,1,8,0:1:0:0:
312,176,85068,1,2,0:0:0:0:
40,176,85275,6,0,L|32:40,1,110,8|8,0:0|0:0,0:0:0:0:
96,48,85586,1,8,0:0:0:0:
160,40,85689,1,8,0:1:0:0:
432,280,85896,2,0,L|440:144,1,110,6|8,0:0|0:0,0:0:0:0:
272,168,86310,1,2,0:0:0:0:
432,96,86517,1,8,0:1:0:0:
376,88,86620,1,8,0:0:0:0:
320,80,86724,1,4,0:3:0:0:
48,272,86930,5,12,0:0:0:0:
192,192,87137,1,2,0:0:0:0:
40,128,87344,2,0,L|32:32,1,55,8|4,0:1|0:3,0:0:0:0:
104,64,87551,1,8,0:0:0:0:
280,320,87655,2,0,L|136:272,1,110,8|8,0:1|0:1,0:0:0:0:
344,216,87965,2,0,L|344:144,1,55,8|8,0:0|0:0,0:0:0:0:
176,96,88172,2,0,L|104:96,2,55,8|0|8,0:1|0:1|0:0,0:0:0:0:
464,88,88586,5,6,0:1:0:0:
184,120,89620,1,8,0:3:0:0:
352,120,89827,2,0,L|416:120,2,55,8|8|4,0:0|0:0|0:3,0:0:0:0:
72,280,90241,6,0,L|64:160,1,110,4|8,0:0|0:0,0:0:0:0:
232,160,90655,2,0,L|384:160,1,110,8|8,0:1|0:0,0:0:0:0:
288,128,90965,1,8,0:1:0:0:
232,272,91068,2,0,L|224:200,1,55,8|8,0:0|0:1,0:0:0:0:
296,184,91275,2,0,L|240:184,1,55,8|8,0:0|0:0,0:0:0:0:
72,136,91482,1,8,0:1:0:0:
208,88,91689,2,0,L|272:88,1,55,8|8,0:1|0:1,0:0:0:0:
56,40,91896,5,8,0:1:0:0:
192,352,92103,2,0,L|32:352,1,110,2|0,0:0|0:0,0:0:0:0:
256,240,92413,2,0,L|416:240,1,110,2|0,0:0|0:0,0:0:0:0:
192,152,92724,2,0,P|152:64|216:32,1,165,2|8,0:0|0:0,0:0:0:0:
376,32,93137,1,8,0:1:0:0:
432,32,93241,1,8,0:1:0:0:
488,32,93344,1,8,0:0:0:0:
192,288,93551,5,4,0:0:0:0:
120,232,93655,2,0,L|272:232,2,110,0|2|2,0:0|0:0|0:0,0:0:0:0:
288,168,94275,2,0,P|304:96|264:56,1,110,2|0,0:0|0:0,0:0:0:0:
200,104,94586,2,0,L|192:16,1,55,2|2,0:0|0:0,0:0:0:0:
360,232,94793,2,0,L|432:232,1,55,8|8,0:0|0:1,0:0:0:0:
136,320,95103,5,4,0:0:0:0:
208,320,95206,1,2,0:0:0:0:
272,280,95310,2,0,L|136:280,2,110,0|2|2,0:0|0:0|0:0,0:0:0:0:
104,224,95930,2,0,L|224:224,1,110,8|0,0:0|0:0,0:0:0:0:
288,208,96241,1,8,0:3:0:0:
352,152,96344,1,8,0:3:0:0:
344,80,96448,1,8,0:0:0:0:
288,32,96551,1,8,0:0:0:0:
216,24,96655,1,4,0:3:0:0:
488,304,96862,6,0,L|480:208,1,55,4|2,0:0|0:0,0:0:0:0:
208,240,97172,1,2,0:0:0:0:
136,240,97275,2,0,P|120:168|160:136,1,110,8|2,0:0|0:0,0:0:0:0:
352,160,97586,2,0,P|368:88|328:48,1,110,12|0,0:0|0:0,0:0:0:0:
184,56,97896,2,0,L|120:56,1,55,8|8,0:0|0:0,0:0:0:0:
312,248,98103,2,0,L|416:248,2,55,8|8|8,0:1|0:3|0:0,0:0:0:0:
136,336,98413,6,0,P|88:272|152:208,1,165,4|8,0:0|0:0,0:0:0:0:
304,168,98930,1,8,0:1:0:0:
240,152,99034,1,8,0:1:0:0:
176,136,99137,1,8,0:0:0:0:
328,64,99344,1,4,0:3:0:0:
168,304,99551,1,8,0:3:0:0:
112,280,99655,1,8,0:0:0:0:
88,224,99758,1,4,0:3:0:0:
112,168,99862,1,4,0:3:0:0:
168,136,99965,1,8,0:0:0:0:
464,176,100172,5,4,0:0:0:0:
320,144,100379,2,0,L|312:16,1,110,2|0,0:0|0:0,0:0:0:0:
176,176,100793,1,2,0:0:0:0:
328,280,100999,2,0,L|176:280,1,110,8|8,0:0|0:1,0:0:0:0:
136,272,101310,1,8,0:0:0:0:
304,176,101517,2,0,L|376:176,1,55,8|8,0:1|0:1,0:0:0:0:
64,160,101827,6,0,L|56:40,1,110,2|0,0:0|0:0,0:0:0:0:
208,328,102241,2,0,L|216:208,1,110,8|0,0:0|0:0,0:0:0:0:
64,208,102655,1,8,0:0:0:0:
216,144,102862,2,0,L|288:144,2,55,2|2|10,0:0|0:0|0:0,0:0:0:0:
32,96,103275,6,0,L|168:96,1,110,0|8,0:0|0:0,0:0:0:0:
312,112,103689,2,0,L|320:248,1,110,0|8,0:0|0:0,0:0:0:0:
152,216,104103,2,0,L|144:336,1,110,0|8,0:0|0:0,0:0:0:0:
208,336,104413,1,2,0:0:0:0:
136,344,104517,2,0,L|80:344,2,55,2|2|10,0:0|0:0|0:0,0:0:0:0:
304,336,104930,1,0,0:0:0:0:
128,208,105137,6,0,L|16:208,1,110,8|0,0:0|0:0,0:0:0:0:
176,144,105551,2,0,L|176:8,1,110,8|0,0:0|0:0,0:0:0:0:
344,288,105965,2,0,L|336:136,1,110,8|2,0:0|0:0,0:0:0:0:
272,160,106275,1,2,0:0:0:0:
200,152,106379,1,10,0:0:0:0:
472,80,106586,1,4,0:3:0:0:
272,168,106999,5,2,0:0:0:0:
464,256,107413,1,8,0:0:0:0:
320,344,107620,1,8,0:0:0:0:
320,288,107724,1,8,0:0:0:0:
320,224,107827,1,8,0:1:0:0:
248,176,107930,1,8,0:1:0:0:
320,128,108034,1,8,0:0:0:0:
192,120,108241,1,8,0:1:0:0:
392,312,108448,6,0,L|400:152,1,110,8|0,0:0|0:0,0:0:0:0:
224,208,108862,2,0,L|216:64,1,110,8|0,0:0|0:0,0:0:0:0:
384,56,109275,2,0,L|232:56,1,110,8|2,0:0|0:0,0:0:0:0:
208,56,109586,1,2,0:0:0:0:
144,56,109689,1,10,0:0:0:0:
320,168,109896,6,0,L|464:168,1,110,0|8,0:0|0:0,0:0:0:0:
272,280,110310,2,0,L|120:280,1,110,0|8,0:0|0:0,0:0:0:0:
352,360,110724,2,0,L|360:232,1,110,0|10,0:0|0:0,0:0:0:0:
280,224,111034,1,2,0:0:0:0:
224,184,111137,1,2,0:0:0:0:
224,112,111241,1,2,0:0:0:0:
280,88,111344,1,10,0:0:0:0:
448,96,111551,1,8,0:1:0:0:
176,304,111758,6,0,L|40:304,1,110,10|0,0:0|0:0,0:0:0:0:
56,208,112068,2,0,L|184:208,1,110,2|0,0:0|0:0,0:0:0:0:
240,208,112379,1,8,0:0:0:0:
312,216,112482,2,0,P|328:144|288:88,1,110,2|0,0:0|0:0,0:0:0:0:
144,104,112793,2,0,L|64:104,2,55,8|8|4,0:0|0:0|0:3,0:0:0:0:
416,288,113206,6,0,L|424:168,1,110,4|0,0:0|0:0,0:0:0:0:
280,176,113620,1,8,0:1:0:0:
424,112,113827,2,0,L|344:112,1,55,8|8,0:3|0:0,0:0:0:0:
184,112,114034,1,4,0:3:0:0:
336,200,114448,2,0,P|352:296|336:336,1,110,8|0,0:1|0:0,0:0:0:0:
160,320,114758,2,0,L|24:320,1,110,2|8,0:0|0:1,0:0:0:0:
224,152,115068,6,0,L|368:152,2,110,12|0|8,0:0|0:0|0:0,0:0:0:0:
360,248,115689,1,0,0:0:0:0:
208,344,115896,2,0,L|200:200,1,110,8|8,0:0|0:1,0:0:0:0:
280,192,116206,1,2,0:0:0:0:
352,160,116310,1,10,0:0:0:0:
168,120,116517,6,0,L|48:120,1,110,0|8,0:0|0:0,0:0:0:0:
184,304,116930,2,0,L|56:304,1,110,0|8,0:0|0:0,0:0:0:0:
224,344,117344,1,0,0:0:0:0:
368,184,117551,1,10,0:0:0:0:
432,168,117655,1,2,0:0:0:0:
448,112,117758,1,2,0:0:0:0:
424,56,117862,1,2,0:0:0:0:
368,40,117965,1,10,0:0:0:0:
192,48,118172,2,0,L|112:48,1,55,8|8,0:1|0:1,0:0:0:0:
224,144,118379,6,0,L|344:144,1,110,8|0,0:0|0:0,0:0:0:0:
176,272,118793,2,0,L|336:272,1,110,8|0,0:0|0:0,0:0:0:0:
448,272,119206,2,0,L|456:144,1,110,8|2,0:0|0:0,0:0:0:0:
376,144,119517,1,2,0:0:0:0:
304,128,119620,1,10,0:0:0:0:
480,64,119827,6,0,L|344:64,1,110,0|8,0:0|0:0,0:0:0:0:
192,160,120241,2,0,L|312:160,1,110,0|8,0:0|0:0,0:0:0:0:
152,336,120655,2,0,L|144:200,1,110,0|10,0:0|0:0,0:0:0:0:
304,168,121068,2,0,L|392:168,2,55,8|8|10,0:3|0:3|0:0,0:0:0:0:
144,168,121482,1,8,0:0:0:0:
432,344,121689,6,0,L|440:192,1,110,4|0,3:2|0:0,0:0:0:0:
296,232,122103,1,8,0:0:0:0:
136,232,122310,2,0,L|128:80,1,110,0|8,0:0|0:0,0:0:0:0:
304,160,122724,1,8,0:1:0:0:
352,136,122827,1,8,0:0:0:0:
368,88,122930,1,8,0:0:0:0:
344,32,123034,1,8,0:0:0:0:
296,16,123137,1,4,0:3:0:0:
24,280,123344,6,0,L|134:280,1,110,8|8,0:0|0:0,0:0:0:0:
408,224,123758,2,0,L|416:80,1,110,6|0,0:0|0:0,0:0:0:0:
96,184,124172,2,0,L|88:64,1,110,8|8,0:0|0:0,0:0:0:0:
368,272,124586,2,0,L|478:272,1,110,4|8,0:0|0:1,0:0:0:0:
416,232,124896,1,8,0:1:0:0:
216,240,124999,6,0,L|72:240,1,110,8|2,0:0|0:0,0:0:0:0:
296,144,125413,2,0,L|304:64,1,55,8|8,0:1|0:0,0:0:0:0:
144,88,125724,1,2,0:1:0:0:
416,280,125930,2,0,P|432:240|376:152,1,110,2|8,0:1|0:1,0:0:0:0:
336,160,126241,2,0,L|328:72,1,55,8|8,0:0|0:0,0:0:0:0:
392,40,126448,2,0,L|296:40,1,55,8|8,0:1|0:1,0:0:0:0:
72,272,126655,6,0,P|40:184|104:144,1,165,2|10,0:0|0:1,0:0:0:0:
464,96,127275,2,0,L|296:96,1,165,4|8,0:0|0:0,0:0:0:0:
232,176,127689,2,0,L|216:80,1,55,8|4,0:3|0:3,0:0:0:0:
296,120,127896,1,4,0:3:0:0:
464,248,128103,2,0,L|368:248,1,55,8|8,0:0|0:0,0:0:0:0:
200,256,128310,6,0,L|80:256,1,110,4|0,0:0|0:0,0:0:0:0:
224,200,128724,1,8,0:1:0:0:
80,144,128930,2,0,L|160:144,1,55,8|8,0:0|0:0,0:0:0:0:
304,72,129241,2,0,L|312:152,1,55,8|0,0:1|0:0,0:0:0:0:
232,144,129448,1,8,0:0:0:0:
400,248,129551,2,0,L|488:272,1,55,8|2,0:0|0:3,0:0:0:0:
248,304,129758,6,0,L|120:304,1,110,2|8,0:0|0:0,0:0:0:0:
288,200,130172,1,0,0:0:0:0:
136,144,130379,1,8,0:1:0:0:
288,64,130586,2,0,L|208:64,1,55,8|8,0:0|0:0,0:0:0:0:
384,232,130896,2,0,L|439:232,2,55,8|0|8,0:1|0:0|0:0,0:0:0:0:
184,232,131206,2,0,L|104:232,1,55,8|2,0:0|0:3,0:0:0:0:
312,144,131413,1,2,0:0:0:0:
456,40,131620,6,0,L|296:40,1,110,8|2,0:0|0:3,0:0:0:0:
272,56,131930,1,2,0:3:0:0:
256,128,132034,1,8,0:1:0:0:
64,264,132241,2,0,P|24:200|104:144,1,165,2|8,0:0|0:0,0:0:0:0:
160,144,132655,2,0,L|248:144,1,55,2|2,0:3|0:3,0:0:0:0:
288,80,132862,2,0,L|152:80,1,110,8|8,0:0|0:1,0:0:0:0:
464,240,133275,5,4,0:1:0:0:
312,152,133482,1,8,0:0:0:0:
472,96,133689,1,8,0:1:0:0:
200,288,133896,1,4,0:1:0:0:
360,248,134103,1,8,0:0:0:0:
397,208,134206,1,8,0:0:0:0:
393,155,134310,1,8,0:1:0:0:
351,121,134413,1,8,0:1:0:0:
288,120,134517,2,0,L|432:120,1,110,4|8,0:3|0:1,0:0:0:0:
112,32,134930,6,0,L|104:184,1,110,2|0,0:0|0:0,0:0:0:0:
256,152,135344,1,8,0:1:0:0:
104,240,135551,2,0,L|24:240,1,55,8|8,0:0|0:0,0:0:0:0:
208,328,135862,2,0,L|296:328,2,55,8|0|8,0:1|0:0|0:0,0:0:0:0:
40,312,136172,2,0,L|120:312,1,55,8|2,0:0|0:3,0:0:0:0:
304,280,136379,6,0,L|432:280,1,110,10|8,0:1|0:0,0:0:0:0:
272,152,136793,1,0,0:0:0:0:
416,96,136999,1,8,0:1:0:0:
272,64,137206,2,0,L|368:72,1,55,8|8,0:0|0:0,0:0:0:0:
176,248,137517,2,0,L|176:168,1,55,8|0,0:1|0:0,0:0:0:0:
240,192,137724,1,8,0:0:0:0:
416,176,137827,2,0,L|416:105,1,55,8|2,0:0|0:3,0:0:0:0:
240,120,138034,1,10,0:1:0:0:
80,144,138241,6,0,P|64:72|104:16,1,110,4|0,0:0|0:0,0:0:0:0:
144,40,138551,1,8,0:0:0:0:
200,40,138655,1,8,0:1:0:0:
400,280,138862,2,0,P|464:208|464:192,1,110,2|0,0:0|0:0,0:0:0:0:
456,144,139172,1,0,0:0:0:0:
424,104,139275,1,8,0:3:0:0:
368,80,139379,1,8,0:3:0:0:
200,80,139482,2,0,L|120:80,1,55,8|8,0:0|0:0,0:0:0:0:
320,216,139689,2,0,L|408:216,1,55,4|4,0:3|0:3,0:0:0:0:
112,328,139896,5,8,0:1:0:0:
264,240,140206,1,0,0:0:0:0:
120,184,140517,1,2,0:0:0:0:
304,160,140724,2,0,L|312:48,1,110,8|8,0:1|0:0,0:0:0:0:
40,96,141137,2,0,L|32:216,1,110,6|0,0:1|0:0,0:0:0:0:
320,320,141551,6,0,P|408:272|440:176,1,165,4|8,0:0|0:0,0:0:0:0:
440,168,141965,1,8,0:1:0:0:
168,192,142172,2,0,P|80:168|48:136,1,110,10|8,0:0|0:3,0:0:0:0:
56,104,142482,1,8,0:0:0:0:
48,48,142586,1,8,0:0:0:0:
336,48,142793,2,0,L|472:48,1,110,4|8,0:0|0:0,0:0:0:0:
168,288,143206,5,8,0:1:0:0:
96,288,143310,2,0,P|72:232|128:184,1,110,8|8,0:0|0:0,0:0:0:0:
264,184,143620,2,0,L|400:184,1,110,8|8,0:1|0:0,0:0:0:0:
320,144,143930,1,8,0:0:0:0:
112,72,144034,2,0,L|248:64,1,110,8|8,0:1|0:3,0:0:0:0:
384,64,144448,2,0,L|464:64,2,55,8|8|4,0:0|0:0|0:3,0:0:0:0:
104,336,144862,6,0,P|56:256|120:208,1,165,4|8,0:0|0:0,0:0:0:0:
160,208,145275,1,8,0:1:0:0:
440,216,145482,2,0,P|480:144|408:96,1,165,2|8,0:0|0:1,0:0:0:0:
368,88,145896,1,8,0:0:0:0:
96,184,146103,2,0,L|88:72,1,110,6|0,0:0|0:0,0:0:0:0:
384,320,146517,5,10,0:0:0:0:
232,264,146724,1,8,0:1:0:0:
384,224,146930,2,0,L|448:224,2,55,8|8|8,0:3|0:0|0:0,0:0:0:0:
208,224,147241,2,0,P|192:152|224:112,1,110,8|8,0:1|0:0,0:0:0:0:
272,112,147551,1,8,0:0:0:0:
464,64,147758,1,8,0:1:0:0:
336,56,147965,1,0,0:0:0:0:
56,32,148172,5,2,0:0:0:0:
208,56,148379,1,0,0:0:0:0:
376,96,148586,1,8,0:0:0:0:
392,256,148793,1,0,0:0:0:0:
200,320,148999,1,8,0:0:0:0:
64,264,149206,1,0,0:0:0:0:
208,184,149413,1,8,0:0:0:0:
56,144,149620,1,0,0:0:0:0:
240,176,149827,5,8,0:0:0:0:
376,120,150034,1,0,0:0:0:0:
224,56,150241,1,8,0:0:0:0:
376,24,150448,2,0,L|448:24,1,55,8|8,0:1|0:1,0:0:0:0:
264,296,150655,2,0,L|136:296,1,110,8|8,0:1|0:0,0:0:0:0:
328,192,151068,1,4,0:3:0:0:
48,184,151275,1,2,0:0:0:0:
216,288,152103,6,0,P|152:192|232:136,1,220,8|8,0:3|0:0,0:0:0:0:
352,136,152724,2,0,L|272:136,1,55,8|8,0:0|0:0,0:0:0:0:
96,144,152930,1,8,0:1:0:0:
288,328,153344,5,8,0:0:0:0:
288,208,153551,1,8,0:0:0:0:
96,184,153758,1,10,0:0:0:0:
432,336,154379,6,0,P|440:240|408:200,1,110,4|0,0:0|0:0,0:0:0:0:
280,216,154793,2,0,L|120:216,1,110,2|8,0:0|0:0,0:0:0:0:
240,176,155103,1,8,0:0:0:0:
328,176,155206,2,0,L|456:176,1,110,8|0,0:3|0:0,0:0:0:0:
136,336,155620,6,0,L|128:208,1,110,2|0,0:0|0:0,0:0:0:0:
432,224,156033,2,0,L|440:88,1,110,14|0,0:1|0:0,0:0:0:0:
368,96,156344,1,8,0:0:0:0:
296,88,156447,1,8,0:0:0:0:
464,328,156654,2,0,L|352:328,1,110,8|8,0:0|0:1,0:0:0:0:
72,152,157068,6,0,L|328:152,1,220,2|0,0:0|0:0,0:0:0:0:
160,312,157688,2,0,L|152:216,1,55,8|8,0:1|0:1,0:0:0:0:
232,216,157895,1,8,0:0:0:0:
152,216,157999,2,0,L|8:216,1,110,8|0,0:1|0:0,0:0:0:0:
120,176,158309,1,8,0:0:0:0:
192,144,158413,1,8,0:0:0:0:
264,112,158516,1,8,0:1:0:0:
104,80,158723,1,0,0:0:0:0:
376,320,158930,6,0,L|384:200,1,110,8|0,0:0|0:0,0:0:0:0:
72,208,159344,2,0,L|184:208,1,110,8|8,0:1|0:0,0:0:0:0:
256,184,159654,1,8,0:0:0:0:
240,96,159757,1,8,0:0:0:0:
72,248,159964,1,8,0:0:0:0:
216,304,160171,1,8,0:1:0:0:
488,352,160378,6,0,L|496:216,1,110,2|8,0:0|0:0,0:0:0:0:
352,192,160792,1,0,0:0:0:0:
496,160,160999,1,8,0:1:0:0:
224,128,161206,2,0,L|80:128,1,110,4|0,0:0|0:0,0:0:0:0:
256,72,161620,2,0,L|336:72,1,55,8|0,0:0|0:0,0:0:0:0:
232,200,161826,2,0,L|96:200,1,110,8|8,0:1|0:0,0:0:0:0:
184,240,162137,1,0,0:0:0:0:
400,248,162240,5,4,0:3:0:0:
264,192,162447,1,8,0:0:0:0:
400,144,162654,1,8,0:1:0:0:
224,80,162861,1,2,0:0:0:0:
152,88,162964,2,0,L|16:88,1,110,8|0,0:0|0:0,0:0:0:0:
40,168,163275,2,0,L|120:168,1,55,8|8,0:0|0:0,0:0:0:0:
296,160,163482,1,8,0:1:0:0:
168,304,163688,2,0,L|160:224,1,55,2|8,0:0|0:0,0:0:0:0:
344,264,163895,5,8,0:0:0:0:
480,200,164102,1,8,0:0:0:0:
344,136,164309,1,8,0:1:0:0:
480,80,164516,1,2,0:0:0:0:
408,80,164620,2,0,L|288:80,1,110,8|8,0:0|0:0,0:0:0:0:
360,216,164930,2,0,L|368:144,1,55,8|8,0:0|0:0,0:0:0:0:
192,160,165137,2,0,L|56:160,1,110,8|0,0:1|0:0,0:0:0:0:
368,368,165551,6,0,L|376:232,1,110,4|0,0:0|0:0,0:0:0:0:
216,256,165964,1,8,0:1:0:0:
368,184,166171,1,8,0:0:0:0:
296,168,166275,1,8,0:0:0:0:
224,152,166378,1,8,0:0:0:0:
368,64,166585,2,0,L|422:65,2,55,8|8|8,0:0|0:0|0:1,0:0:0:0:
81,90,166999,5,4,0:0:0:0:
216,208,167206,2,0,L|359:207,1,110,8|8,0:1|0:0,0:0:0:0:
328,136,167516,1,8,0:1:0:0:
88,240,167620,2,0,L|80:112,1,110,8|8,0:1|0:0,0:0:0:0:
384,112,168033,2,0,L|472:112,2,55,8|8|4,0:1|0:3|0:3,0:0:0:0:
216,112,168447,1,8,0:1:0:0:
288,120,168551,1,8,0:1:0:0:
360,128,168654,1,8,0:1:0:0:
64,304,168861,6,0,L|56:160,1,110,6|0,0:2|0:0,0:0:0:0:
352,328,169275,2,0,L|480:328,1,110,14|0,0:1|0:0,0:0:0:0:
400,272,169585,1,8,0:0:0:0:
336,264,169688,1,0,0:0:0:0:
480,200,169895,2,0,L|336:200,1,110,8|8,0:0|0:1,0:0:0:0:
80,160,170309,6,0,L|320:160,1,220,2|8,0:0|0:0,0:0:0:0:
152,232,170930,1,8,0:1:0:0:
440,328,171137,2,0,L|448:184,1,110,4|0,0:0|0:0,0:0:0:0:
265,104,171551,2,0,L|320:104,1,55,8|8,0:0|0:0,0:0:0:0:
488,48,171757,2,0,L|344:48,1,110,8|8,0:1|0:0,0:0:0:0:
72,304,172171,6,0,L|184:304,2,110,6|8|8,0:0|0:0|0:1,0:0:0:0:
224,240,172792,2,0,L|232:152,1,55,8|8,0:0|0:1,0:0:0:0:
152,168,172999,2,0,L|16:168,1,110,8|8,0:0|0:0,0:0:0:0:
40,96,173309,1,8,0:0:0:0:
112,64,173413,1,8,0:1:0:0:
384,64,173620,6,0,L|504:64,1,110,10|0,0:0|0:0,0:0:0:0:
336,168,174033,1,8,0:0:0:0:
488,272,174240,1,8,0:1:0:0:
152,312,174447,1,8,0:0:0:0:
296,304,174654,1,8,0:1:0:0:
360,296,174757,1,8,0:1:0:0:
424,288,174861,1,8,0:0:0:0:
80,176,175068,1,8,0:1:0:0:
144,160,175171,1,8,0:1:0:0:
208,144,175275,1,4,0:3:0:0:
480,96,175482,6,0,L|344:96,1,110,4|8,0:0|0:0,0:0:0:0:
488,16,175895,1,8,0:1:0:0:
216,224,176102,2,0,P|152:136|240:88,1,220,2|8,0:0|0:0,0:0:0:0:
296,96,176620,1,8,0:0:0:0:
368,80,176723,1,8,0:1:0:0:
216,176,176930,1,2,0:0:0:0:
488,176,177137,6,0,L|496:40,1,110,8|8,0:0|0:0,0:0:0:0:
432,48,177447,1,8,0:0:0:0:
368,40,177551,1,8,0:1:0:0:
96,280,177757,2,0,L|224:272,1,110,2|8,0:0|0:0,0:0:0:0:
376,264,178171,1,8,0:0:0:0:
208,152,178378,1,8,0:1:0:0:
264,144,178482,1,8,0:1:0:0:
320,136,178585,1,4,0:3:0:0:
48,272,178792,5,4,0:0:0:0:
200,328,178999,1,8,0:0:0:0:
360,264,179206,1,8,0:1:0:0:
280,232,179309,2,0,L|272:160,1,55,8|8,0:0|0:0,0:0:0:0:
480,64,179516,2,0,L|352:64,1,110,8|8,0:1|0:1,0:0:0:0:
144,176,179826,2,0,L|224:176,1,55,8|8,0:0|0:0,0:0:0:0:
376,280,180033,2,0,L|448:280,2,55,8|8|4,0:1|0:0|0:3,0:0:0:0:
40,120,180447,5,4,0:0:0:0:
352,280,181482,1,8,0:3:0:0:
192,256,181688,1,8,0:0:0:0:
184,184,181792,1,8,0:0:0:0:
176,112,181895,1,8,0:0:0:0:
464,176,182102,6,0,L|472:48,1,110,4|0,0:0|0:0,0:0:0:0:
328,64,182516,1,8,0:1:0:0:
464,272,182723,2,0,L|376:272,1,55,8|8,0:0|0:1,0:0:0:0:
224,264,182930,2,0,L|216:184,1,55,8|8,0:0|0:1,0:0:0:0:
304,200,183137,2,0,L|312:136,1,55,8|8,0:0|0:1,0:0:0:0:
120,96,183344,2,0,L|-8:96,1,110,8|8,0:1|0:1,0:0:0:0:
72,64,183654,1,8,0:1:0:0:
320,72,183757,5,8,0:1:0:0:
152,144,183964,2,0,L|152:280,1,110,2|0,0:0|0:0,0:0:0:0:
368,288,184275,2,0,L|232:288,1,110,10|0,0:0|0:0,0:0:0:0:
88,288,184585,2,0,P|56:200|128:160,1,165,10|8,0:0|0:0,0:0:0:0:
176,160,184999,1,8,0:0:0:0:
425,118,185413,6,0,L|480:128,3,55,6|0|0|0,1:2|1:0|1:0|1:0,0:0:0:0:
362,115,185826,1,0,1:0:0:0:
216,280,186033,1,2,0:0:0:0:
288,232,186137,2,0,L|416:216,1,110,0|0,1:0|1:0,0:0:0:0:
216,112,186551,1,0,1:0:0:0:
408,144,186757,2,0,P|416:48|392:16,1,110,0|8,1:0|0:0,0:0:0:0:
184,296,187068,6,0,P|88:248|72:184,1,165,12|0,0:0|1:0,0:0:0:0:
136,184,187482,1,8,0:0:0:0:
304,184,187688,1,2,1:0:0:0:
448,152,187895,1,8,0:0:0:0:
472,104,187999,1,8,0:3:0:0:
455,53,188102,1,8,0:0:0:0:
408,29,188206,1,8,0:0:0:0:
216,32,188309,2,0,L|64:40,1,110,4|0,0:1|0:0,0:0:0:0:
272,200,188723,6,0,L|280:280,1,55,12|0,1:2|1:0,0:0:0:0:
192,264,188930,2,0,L|184:336,1,55,2|0,1:0|1:0,0:0:0:0:
376,352,189137,1,8,1:2:0:0:
440,312,189240,1,0,1:0:0:0:
376,272,189344,1,2,1:0:0:0:
184,200,189447,2,0,L|336:200,1,110,0|0,1:0|0:0,0:0:0:0:
368,144,189757,2,0,L|288:144,1,55,8|8,1:2|1:2,0:0:0:0:
128,104,189964,2,0,L|24:104,2,55,8|8|8,1:1|1:3|1:1,0:0:0:0:
312,64,190275,5,4,0:0:0:0:
144,216,190585,1,0,0:0:0:0:
328,296,190792,2,0,L|424:296,1,55,0|0,1:0|0:0,0:0:0:0:
232,176,191102,2,0,P|208:120|256:56,1,110,0|8,1:0|1:2,0:0:0:0:
296,64,191413,1,8,1:2:0:0:
368,64,191516,1,8,0:0:0:0:
240,272,191723,2,0,L|120:280,1,110,4|0,1:3|0:0,0:0:0:0:
400,336,192033,5,6,0:0:0:0:
441,303,192137,1,0,1:0:0:0:
441,250,192240,1,0,1:0:0:0:
400,217,192344,1,0,1:0:0:0:
224,208,192447,2,0,L|120:208,1,55,10|0,1:2|1:0,0:0:0:0:
368,80,192757,2,0,L|496:80,1,110,2|0,0:1|0:0,0:0:0:0:
184,296,193171,2,0,P|160:240|208:176,1,110,2|0,1:0|0:0,0:0:0:0:
304,192,193482,6,0,P|352:136|280:72,1,165,10|0,0:0|0:0,0:0:0:0:
232,72,193895,1,8,1:2:0:0:
64,272,194102,2,0,L|56:176,1,55,10|0,0:1|0:0,0:0:0:0:
144,208,194309,2,0,L|152:112,1,55,8|8,0:0|0:0,0:0:0:0:
64,112,194516,2,0,L|168:112,1,55,10|2,1:1|1:2,0:0:0:0:
296,112,194826,1,0,1:0:0:0:
128,288,195033,2,0,L|120:152,1,110,8|0,0:3|0:0,0:0:0:0:
368,320,195344,6,0,P|432:272|344:184,1,220,4|8,0:0|0:0,0:0:0:0:
192,184,195964,1,8,0:0:0:0:
472,88,196171,2,0,L|224:88,1,220,4|0,0:0|0:0,0:0:0:0:
400,48,196792,1,8,0:0:0:0:
96,280,196999,6,0,L|88:144,1,110,4|0,0:0|0:0,0:0:0:0:
368,160,197413,2,0,L|512:160,1,110,2|0,0:0|0:0,0:0:0:0:
416,120,197723,1,8,0:1:0:0:
200,264,197826,2,0,L|56:264,1,110,8|4,0:1|0:3,0:0:0:0:
368,168,198240,1,8,0:1:0:0:
88,192,198447,6,0,P|48:104|152:64,1,220,4|0,0:0|0:0,0:0:0:0:
288,64,199068,1,8,0:1:0:0:
136,112,199275,2,0,L|128:200,1,55,8|8,0:0|0:1,0:0:0:0:
208,176,199482,2,0,L|216:256,1,55,8|8,0:0|0:0,0:0:0:0:
136,264,199688,2,0,L|48:264,2,55,8|8|8,0:0|0:0|0:1,0:0:0:0:
416,264,200102,6,0,L|424:128,1,110,2|8,0:1|0:0,0:0:0:0:
264,112,200516,1,8,0:0:0:0:
424,56,200723,1,8,0:1:0:0:
264,304,200930,2,0,L|256:208,1,55,8|0,0:0|0:0,0:0:0:0:
320,200,201137,2,0,L|256:200,1,55,8|8,0:0|0:0,0:0:0:0:
192,136,201344,2,0,L|336:136,1,110,8|8,0:0|0:0,0:0:0:0:
376,112,201654,1,8,0:1:0:0:
376,112,201757,1,8,0:0:0:0:
200,312,201964,6,0,L|72:312,1,110,8|0,0:0|0:0,0:0:0:0:
256,192,202378,1,8,0:1:0:0:
88,184,202585,2,0,L|80:64,1,110,8|8,0:0|0:0,0:0:0:0:
248,80,202999,2,0,L|256:0,1,55,8|8,0:0|0:0,0:0:0:0:
184,16,203206,2,0,L|48:16,1,110,8|8,0:1|0:0,0:0:0:0:
360,320,203620,6,0,L|368:176,1,110,4|0,0:0|0:0,0:0:0:0:
208,200,204033,1,8,0:1:0:0:
504,72,204240,2,0,L|360:72,1,110,4|8,0:0|0:0,0:0:0:0:
328,72,204551,1,8,0:0:0:0:
272,88,204654,1,8,0:1:0:0:
232,120,204757,1,8,0:1:0:0:
208,184,204861,1,8,0:0:0:0:
368,216,205068,1,8,0:1:0:0:
56,320,205275,6,0,L|48:176,1,110,4|0,0:0|0:0,0:0:0:0:
216,192,205688,2,0,L|360:192,1,110,8|0,0:1|0:1,0:0:0:0:
184,80,206102,2,0,L|96:80,2,55,8|8|8,0:0|0:0|0:1,0:0:0:0:
264,96,206413,2,0,L|272:192,1,55,8|8,0:0|0:0,0:0:0:0:
128,216,206723,1,8,0:1:0:0:
288,312,206930,6,0,L|432:312,1,110,8|0,0:0|0:0,0:0:0:0:
256,208,207344,1,8,0:1:0:0:
416,176,207551,1,0,0:0:0:0:
459,144,207654,1,8,0:0:0:0:
466,91,207757,1,8,0:2:0:0:
432,50,207861,1,2,0:3:0:0:
379,46,207964,1,8,0:1:0:0:
256,112,208171,2,0,L|400:112,1,110,8|8,0:0|0:1,0:0:0:0:
88,320,208585,6,0,P|24:224|120:176,1,220,4|8,0:0|0:1,0:0:0:0:
256,168,209206,2,0,L|352:168,1,55,8|2,0:0|0:3,0:0:0:0:
248,104,209413,2,0,L|240:24,1,55,8|2,0:0|0:3,0:0:0:0:
312,32,209620,2,0,L|400:32,2,55,8|8|8,0:1|0:3|0:0,0:0:0:0:
40,288,210033,6,0,L|256:192,1,220,4|8,0:0|0:0,0:0:0:0:
400,192,210654,1,8,0:1:0:0:
80,128,210861,1,12,0:0:0:0:
232,88,211068,2,0,L|312:88,2,55,8|8|8,0:1|0:1|0:0,0:0:0:0:
56,264,211482,2,0,L|48:176,1,55,8|8,0:1|0:1,0:0:0:0:
104,192,211688,1,4,0:3:0:0:
408,184,211895,5,12,0:0:0:0:
248,144,212102,2,0,L|176:144,2,55,8|8|2,0:0|0:0|0:0,0:0:0:0:
384,280,212516,2,0,L|464:272,1,55,8|8,0:0|0:1,0:0:0:0:
248,352,212826,2,0,L|248:256,1,55,8|8,0:3|0:0,0:0:0:0:
312,280,213033,1,8,0:0:0:0:
480,168,213137,2,0,L|336:168,1,110,8|2,0:1|0:0,0:0:0:0:
96,184,213551,5,10,0:0:0:0:
240,128,213757,2,0,L|328:128,2,55,8|8|10,0:0|0:1|0:1,0:0:0:0:
56,248,214171,2,0,L|128:248,1,55,8|2,0:0|0:0,0:0:0:0:
272,248,214482,2,0,L|344:248,2,55,2|8|8,0:0|0:3|0:0,0:0:0:0:
88,144,214792,2,0,L|232:144,1,110,8|8,0:1|0:0,0:0:0:0:
472,328,215206,6,0,L|480:208,1,110,2|0,0:0|0:0,0:0:0:0:
424,200,215516,1,8,0:1:0:0:
360,192,215620,1,8,0:1:0:0:
64,184,215826,2,0,P|24:104|56:32,1,165,2|8,0:0|0:3,0:0:0:0:
88,16,216240,1,8,0:0:0:0:
144,16,216344,1,8,0:0:0:0:
352,232,216447,2,0,L|462:232,1,110,8|0,0:1|0:0,0:0:0:0:
160,168,216861,5,6,0:0:0:0:
304,120,217068,1,2,0:0:0:0:
160,64,217275,1,4,0:3:0:0:
432,304,217482,2,0,L|360:304,1,55,12|8,0:0|0:1,0:0:0:0:
288,304,217688,2,0,L|136:304,1,110,8|4,0:1|0:3,0:0:0:0:
344,208,218102,2,0,L|352:88,1,110,8|8,0:0|0:0,0:0:0:0:
72,304,218516,6,0,L|64:168,1,110,4|0,0:0|0:0,0:0:0:0:
144,184,218826,2,0,L|232:168,1,55,8|8,0:0|0:0,0:0:0:0:
360,112,219137,2,0,L|288:112,1,55,8|0,0:0|0:0,0:0:0:0:
128,120,219344,2,0,L|48:120,2,55,8|8|8,0:1|0:1|0:0,0:0:0:0:
400,248,219757,1,8,0:0:0:0:
256,232,219964,6,0,P|208:144|296:88,1,220,8|8,0:0|0:0,0:0:0:0:
424,88,220585,1,8,0:0:0:0:
152,312,220792,2,0,L|144:192,1,110,2|8,0:0|0:1,0:0:0:0:
312,176,221206,1,8,0:0:0:0:
40,128,221413,2,0,L|40:48,1,55,8|8,0:1|0:1,0:0:0:0:
104,48,221620,1,8,0:0:0:0:
448,280,221826,5,8,0:0:0:0:
328,232,222033,1,8,0:0:0:0:
456,168,222240,1,8,0:0:0:0:
184,144,222447,2,0,L|96:144,1,55,8|8,0:0|0:0,0:0:0:0:
328,64,222654,2,0,L|440:64,1,110,8|8,0:1|0:3,0:0:0:0:
272,216,223068,1,8,0:0:0:0:
424,288,223275,1,8,0:0:0:0:
128,336,223482,6,0,B|48:208|176:32|288:32|408:168|272:312|200:352|160:248|32:136|24:120|104:8,1,770,4|0,0:0|0:0,0:0:0:0:
368,296,225137,6,0,L|496:296,1,110,4|0,0:0|0:0,0:0:0:0:
408,256,225447,1,8,0:3:0:0:
320,248,225551,2,0,L|312:136,1,110,8|8,0:0|0:3,0:0:0:0:
392,120,225861,2,0,L|400:32,1,55,8|4,0:0|0:3,0:0:0:0:
176,216,226275,1,8,0:0:0:0:
96,208,226378,2,0,L|88:80,1,110,8|0,0:0|0:0,0:0:0:0:
368,72,226792,6,0,L|488:72,1,110,2|0,0:0|0:0,0:0:0:0:
200,280,227206,2,0,L|56:280,1,110,14|0,0:1|0:0,0:0:0:0:
152,248,227516,1,8,0:0:0:0:
216,224,227620,1,8,0:0:0:0:
392,208,227826,2,0,L|400:64,1,110,8|8,0:0|0:1,0:0:0:0:
48,168,228240,6,0,L|304:168,1,220,2|0,0:0|0:0,0:0:0:0:
96,304,228861,2,0,L|0:304,2,55,8|8|8,0:1|0:0|0:0,0:0:0:0:
176,328,229171,2,0,P|240:264|224:184,1,165,8|8,0:1|0:0,0:0:0:0:
160,184,229585,1,8,0:0:0:0:
232,152,229688,1,8,0:1:0:0:
80,96,229895,1,8,0:0:0:0:
376,336,230102,6,0,L|384:216,1,110,8|0,0:3|0:0,0:0:0:0:
56,160,230516,2,0,L|208:160,1,110,8|8,0:1|0:0,0:0:0:0:
240,160,230826,1,8,0:0:0:0:
312,160,230930,1,8,0:0:0:0:
176,264,231137,1,2,0:0:0:0:
320,320,231344,1,8,0:1:0:0:
48,368,231551,6,0,L|40:232,1,110,2|8,0:0|0:0,0:0:0:0:
184,208,231964,1,2,0:0:0:0:
40,176,232171,1,8,0:0:0:0:
352,176,232378,1,6,0:1:0:0:
208,128,232585,1,8,0:0:0:0:
352,72,232792,1,2,0:0:0:0:
72,48,232999,2,0,L|16:48,2,55,8|8|8,0:1|0:0|0:0,0:0:0:0:
352,312,233413,5,4,0:3:0:0:
216,272,233620,1,8,0:0:0:0:
80,240,233826,1,8,0:1:0:0:
224,168,234033,1,8,0:0:0:0:
288,120,234137,2,0,L|168:120,1,110,8|0,0:1|0:0,0:0:0:0:
96,144,234447,2,0,L|88:240,1,55,8|8,0:0|0:0,0:0:0:0:
288,264,234654,2,0,L|400:264,1,110,8|0,0:1|0:0,0:0:0:0:
128,312,235068,6,0,L|-32:312,2,110,8|8|8,0:0|0:0|0:1,0:0:0:0:
288,304,235688,1,8,0:1:0:0:
368,280,235792,2,0,L|376:168,1,110,8|8,0:0|0:1,0:0:0:0:
288,160,236102,2,0,L|280:96,1,55,8|8,0:0|0:0,0:0:0:0:
480,48,236309,2,0,L|344:48,1,110,8|8,0:1|0:0,0:0:0:0:
56,280,236723,6,0,L|192:280,1,110,6|0,0:0|0:0,0:0:0:0:
328,264,237137,1,8,0:1:0:0:
56,200,237344,1,8,0:0:0:0:
52,145,237447,1,8,0:0:0:0:
49,90,237551,1,8,0:0:0:0:
224,48,237757,1,8,0:0:0:0:
168,40,237861,1,8,0:0:0:0:
112,32,237964,1,8,0:1:0:0:
456,312,238171,5,4,0:0:0:0:
328,248,238378,2,0,L|464:248,1,110,8|8,0:1|0:0,0:0:0:0:
168,256,238792,2,0,L|160:128,1,110,8|8,0:1|0:0,0:0:0:0:
440,72,239206,2,0,L|528:72,2,55,8|0|8,0:1|0:0|0:0,0:0:0:0:
272,64,239620,1,8,0:0:0:0:
112,64,239826,1,8,0:1:0:0:
424,336,240033,6,0,L|432:200,1,110,6|0,0:0|0:0,0:0:0:0:
144,224,240447,2,0,L|-8:224,1,110,14|0,0:1|0:0,0:0:0:0:
32,144,240757,1,8,0:0:0:0:
96,120,240861,1,8,0:0:0:0:
272,64,241068,1,8,0:0:0:0:
208,56,241171,1,8,0:0:0:0:
144,48,241275,1,8,0:1:0:0:
424,320,241482,6,0,P|488:272|400:168,1,220,2|8,0:0|0:0,0:0:0:0:
296,168,242102,1,8,0:1:0:0:
16,104,242309,2,0,L|168:104,1,110,4|0,0:0|0:0,0:0:0:0:
272,104,242723,2,0,L|352:104,1,55,8|8,0:0|0:0,0:0:0:0:
128,312,242930,2,0,L|0:312,1,110,8|8,0:1|0:0,0:0:0:0:
304,232,243344,6,0,L|416:232,2,110,4|8|8,0:0|0:0|0:1,0:0:0:0:
448,160,243964,2,0,L|456:72,1,55,8|8,0:0|0:1,0:0:0:0:
376,104,244171,2,0,L|240:104,1,110,8|8,0:0|0:0,0:0:0:0:
264,40,244482,1,8,0:0:0:0:
320,16,244585,1,8,0:1:0:0:
40,80,244792,6,0,L|32:216,1,110,2|0,0:0|0:0,0:0:0:0:
200,256,245206,1,8,0:0:0:0:
40,320,245413,1,8,0:1:0:0:
384,328,245620,1,8,0:0:0:0:
248,320,245826,1,8,0:1:0:0:
248,256,245930,1,8,0:1:0:0:
312,232,246033,1,8,0:0:0:0:
32,184,246240,1,8,0:1:0:0:
88,168,246344,1,8,0:1:0:0:
152,152,246447,1,4,0:3:0:0:
472,152,246654,6,0,L|480:8,1,110,4|8,0:0|0:0,0:0:0:0:
336,40,247068,1,8,0:1:0:0:
64,320,247275,2,0,P|0:232|88:168,1,220,2|8,0:0|0:0,0:0:0:0:
128,168,247792,1,8,0:0:0:0:
192,168,247895,1,8,0:1:0:0:
64,72,248102,1,0,0:0:0:0:
344,336,248309,6,0,L|488:336,1,110,2|8,0:0|0:0,0:0:0:0:
456,288,248620,1,8,0:0:0:0:
400,256,248723,1,8,0:1:0:0:
120,296,248930,2,0,L|112:184,1,110,2|8,0:0|0:0,0:0:0:0:
272,128,249344,1,2,0:0:0:0:
136,72,249551,1,8,0:1:0:0:
80,64,249654,1,8,0:0:0:0:
24,56,249757,1,4,0:3:0:0:
304,336,249964,5,4,0:0:0:0:
160,280,250171,1,8,0:0:0:0:
304,224,250378,2,0,L|400:224,2,55,8|8|8,0:1|0:3|0:0,0:0:0:0:
128,192,250688,2,0,P|112:144|120:80,1,110,8|8,0:1|0:1,0:0:0:0:
296,64,250999,2,0,L|224:64,1,55,8|0,0:0|0:0,0:0:0:0:
56,224,251206,1,8,0:1:0:0:
120,216,251309,1,8,0:0:0:0:
184,216,251413,1,8,0:0:0:0:
488,64,251620,5,4,0:0:0:0:
208,288,252654,1,8,0:3:0:0:
368,264,252861,1,8,0:0:0:0:
376,192,252964,1,8,0:0:0:0:
384,120,253068,1,8,0:0:0:0:
88,152,253275,6,0,L|80:24,1,110,4|0,0:0|0:0,0:0:0:0:
224,40,253688,1,8,0:1:0:0:
408,296,253895,2,0,L|344:296,1,55,8|8,0:0|0:1,0:0:0:0:
160,272,254102,2,0,L|168:192,1,55,8|8,0:0|0:1,0:0:0:0:
240,176,254309,2,0,L|160:176,1,55,8|8,0:0|0:1,0:0:0:0:
104,176,254516,1,8,0:1:0:0:
232,48,254723,2,0,L|240:120,1,55,8|8,0:1|0:1,0:0:0:0:
56,80,254930,5,8,0:1:0:0:
200,248,255137,2,0,L|208:112,1,110,2|0,0:0|0:0,0:0:0:0:
24,336,255447,2,0,L|160:336,1,110,2|0,0:0|0:0,0:0:0:0:
304,320,255757,2,0,L|184:320,1,110,2|8,0:0|0:0,0:0:0:0:
256,256,256068,1,8,0:0:0:0:
472,232,256171,1,8,0:1:0:0:
480,144,256275,1,8,0:1:0:0:
488,64,256378,1,8,0:0:0:0:
200,80,256585,5,4,0:0:0:0:
120,80,256688,2,0,L|0:80,2,110,2|2|2,0:0|0:0|0:0,0:0:0:0:
320,304,257309,2,0,L|440:304,1,110,2|0,0:0|0:0,0:0:0:0:
368,272,257620,2,0,L|312:272,1,55,2|2,0:0|0:0,0:0:0:0:
480,120,257826,2,0,L|488:40,1,55,8|8,0:0|0:1,0:0:0:0:
216,248,258137,5,6,0:0:0:0:
144,296,258240,1,2,0:0:0:0:
216,296,258344,2,0,L|336:296,2,110,2|2|2,0:0|0:0|0:0,0:0:0:0:
40,160,258964,2,0,L|176:160,1,110,2|0,0:0|0:0,0:0:0:0:
232,152,259275,2,0,L|240:64,1,55,8|8,0:3|0:3,0:0:0:0:
64,64,259482,2,0,L|-24:64,2,55,8|8|8,0:0|0:0|0:1,0:0:0:0:
352,280,259895,6,0,L|440:280,1,55,4|2,0:0|0:0,0:0:0:0:
128,192,260206,1,2,0:0:0:0:
64,144,260309,2,0,L|208:144,1,110,10|2,0:0|0:0,0:0:0:0:
360,80,260620,2,0,L|224:80,1,110,4|0,0:0|0:0,0:0:0:0:
184,256,260930,2,0,L|176:160,1,55,8|8,0:3|0:0,0:0:0:0:
376,168,261137,2,0,L|464:168,2,55,8|10|12,0:1|0:0|0:0,0:0:0:0:
184,344,261447,6,0,P|88:304|56:232,1,165,2|8,0:0|0:0,0:0:0:0:
224,176,261964,2,0,L|312:176,2,55,8|8|8,0:1|0:1|0:0,0:0:0:0:
48,168,262275,1,10,0:0:0:0:
208,328,262585,2,0,L|304:328,1,55,8|8,0:0|0:0,0:0:0:0:
200,224,262792,2,0,L|128:224,2,55,8|8|4,0:1|0:0|0:3,0:0:0:0:
488,160,263206,5,4,0:0:0:0:
336,256,263413,2,0,L|328:112,1,110,2|8,0:0|0:0,0:0:0:0:
408,104,263723,2,0,L|248:104,1,110,8|0,0:0|0:0,0:0:0:0:
120,104,264033,1,8,0:0:0:0:
256,224,264240,2,0,L|336:224,1,55,8|8,0:1|0:0,0:0:0:0:
144,336,264551,2,0,L|72:336,1,55,8|8,0:0|0:1,0:0:0:0:
408,336,264861,6,0,L|416:184,1,110,8|8,0:0|0:1,0:0:0:0:
208,200,265171,2,0,L|72:200,1,110,2|8,0:0|0:1,0:0:0:0:
320,104,265482,1,4,0:0:0:0:
256,192,265688,12,2,273137,0:0:0:0:
