osu file format v14

[General]
AudioFilename: 12. My Last Day.mp3
AudioLeadIn: 0
PreviewTime: 218306
Countdown: 0
SampleSet: Soft
StackLeniency: 0.2
Mode: 0
LetterboxInBreaks: 0
WidescreenStoryboard: 0

[Editor]
DistanceSpacing: 5.5
BeatDivisor: 4
GridSize: 32
TimelineZoom: 2.7

[Metadata]
Title:"My last day"
TitleUnicode:「私の最後の日」
Artist:yourness
ArtistUnicode:ユアネス
Creator:Kyouren
Version:What if one day...
Source:
Tags:watashi no saigo no hi 6 case 1st first one 1 full album 黒川侑司 Yuji Kurokawa 古閑翔平 Shohei Koga souzoucity 神村翔 田中雄大 Yudai Tanaka 小野貴寛 Takahiro Ono 釣俊輔 Shunsuke Tsuri agehasprings AOYAMA jpop j-pop japanese japan pop rock jrock j-rock rock alternative band 私の最後の日 my last day gokugohan12468 kittyadventure shiwakaze
BeatmapID:4586794
BeatmapSetID:2172797

[Difficulty]
HPDrainRate:5
CircleSize:4
OverallDifficulty:8
ApproachRate:8.7
SliderMultiplier:1
SliderTickRate:1

[Events]
//Background and Video events
0,0,"118124687_p12.jpg",0,0
Video,-78,"my last day.mp4"
//Break Periods
//Storyboard Layer 0 (Background)
//Storyboard Layer 1 (Fail)
//Storyboard Layer 2 (Pass)
//Storyboard Layer 3 (Foreground)
//Storyboard Layer 4 (Overlay)
//Storyboard Sound Samples

[TimingPoints]
9393,333.333333333333,6,2,1,30,1,0
9393,-153.846153846153,6,2,1,30,0,0
57392,-117.647058823529,6,2,1,40,0,0
73392,-133.333333333333,6,2,1,30,0,0
109392,-133.333333333333,6,2,1,35,0,0
110059,-133.333333333333,6,2,1,40,0,0
111392,-133.333333333333,6,2,1,50,0,0
114392,-142.857142857143,6,2,1,50,0,0
115059,-133.333333333333,6,2,1,50,0,0
115392,-133.333333333333,6,2,1,45,0,0
118392,-133.333333333333,6,2,1,50,0,0
121392,-117.647058823529,6,2,1,40,0,0
137392,-153.846153846153,6,2,1,30,0,0
149392,-153.846153846153,6,2,1,35,0,0
150392,-153.846153846153,6,2,1,40,0,0
151392,329.67032967033,6,2,1,30,1,0
151392,-1000,6,2,1,30,0,0
152216,-83.3333333333333,6,2,1,30,0,0
152381,333.333333333333,6,2,1,50,1,0
152381,-100,6,2,1,50,0,0
152631,-100,6,2,1,5,0,0
152714,-80,6,2,1,45,0,0
152964,-80,6,2,1,5,0,0
153047,-66.6666666666667,6,2,1,45,0,0
153297,-66.6666666666667,6,2,1,5,0,0
153381,-50,6,2,1,60,0,0
154381,-117.647058823529,6,2,1,60,0,0
169380,-100,6,2,1,60,0,0
174380,331.491712707182,6,2,1,60,1,0
176368,340.909090909091,6,2,1,60,1,0
177390,331.491712707182,6,2,1,60,1,0
178384,336.134453781513,6,2,1,60,1,0
179392,333.333333333333,6,2,1,60,1,0
185392,331.491712707182,6,2,1,60,1,0
185392,-222.22222222222,6,2,1,30,0,0
187380,333.333333333333,6,2,1,30,1,0
187380,-222.222222222221,6,2,1,30,0,0
191380,335.195530726257,6,2,1,30,1,0
191380,-222.222222222221,6,2,1,30,0,0
193391,331.491712707182,6,2,1,30,1,0
193391,-222.222222222221,6,2,1,30,0,0
196374,-153.846153846153,6,2,1,50,0,0
197368,335.195530726257,6,2,1,60,1,0
197368,-66.6666666666667,6,2,1,60,0,0
199379,333.333333333333,6,2,1,60,1,0
199379,-100,6,2,1,60,0,0
200379,-153.846153846153,6,2,1,60,0,0
200629,-153.846153846153,6,2,1,5,0,0
200712,-153.846153846153,6,2,1,60,0,0
200962,-153.846153846153,6,2,1,5,0,0
201045,-153.846153846153,6,2,1,60,0,0
201295,-153.846153846153,6,2,1,5,0,0
201379,-66.6666666666667,6,2,2,70,0,1
205629,-66.6666666666667,6,2,2,5,0,1
205712,-66.6666666666667,6,2,2,70,0,1
208295,-66.6666666666667,6,2,2,5,0,1
208379,-66.6666666666667,6,2,2,70,0,1
213379,335.195530726257,6,2,2,70,1,1
213379,-66.6666666666667,6,2,2,70,0,1
215390,333.333333333333,6,2,2,60,1,0
215390,-142.857142857143,6,2,2,60,0,0
215399,-142.857142857143,6,2,1,60,0,0
218390,-66.6666666666667,6,2,1,60,0,0
219390,333.333333333333,6,2,1,70,1,1
219390,-50,6,2,1,70,0,1
219399,-50,6,2,3,70,0,1
220640,-50,6,2,3,5,0,1
220723,-50,6,2,3,70,0,1
235056,-166.666666666667,6,2,3,70,0,0
235066,-166.666666666667,6,2,3,70,0,0
235306,-166.666666666667,6,2,3,5,0,0
235389,-50,6,2,3,70,0,1
239639,-50,6,2,3,5,0,1
239723,-50,6,2,3,70,0,1
249389,329.67032967033,6,2,1,70,1,1
249389,-50,6,2,1,70,0,1
251037,-50,6,2,1,70,0,0
251284,-50,6,2,3,5,0,0
251367,335.195530726257,6,2,3,70,1,1
251367,-47.6190476190476,6,2,3,70,0,1
251702,-66.6666666666667,6,2,2,70,0,1
253378,333.333333333333,6,2,2,70,1,1
253378,-66.6666666666667,6,2,2,70,0,1
261378,-50,6,2,2,70,0,1
261711,-66.6666666666667,6,2,2,70,0,1
266378,-153.846153846153,6,2,2,70,0,1
266628,-153.846153846153,6,2,2,5,0,1
266711,-66.6666666666667,6,2,2,70,0,1
266961,-66.6666666666667,6,2,2,5,0,1
267044,-50,6,2,2,70,0,0
267378,-50,6,2,2,70,0,1
273628,-50,6,2,2,5,0,1
273711,-50,6,2,2,70,0,1
273794,-50,6,2,2,5,0,1
273878,-50,6,2,2,70,0,1
275294,-50,6,2,3,70,0,1
279294,-50,6,2,3,5,0,1
279378,-50,6,2,1,70,0,1
282377,394.736842105263,6,2,1,70,1,1
282771,416.666666666666,6,2,1,70,1,1
283187,530.973451327432,6,2,1,70,1,1
283187,-54.054054054054,6,2,1,70,0,1
283717,335.195530726257,6,2,1,50,1,0
283717,-66.6666666666667,6,2,1,50,0,0
283800,-66.6666666666667,6,2,1,50,0,0
287152,-66.6666666666667,6,2,1,40,0,0
287739,-66.6666666666667,6,2,1,30,0,0
288409,-66.6666666666667,6,2,1,20,0,0
289080,-66.6666666666667,6,2,1,10,0,0
289750,-50,6,2,1,5,0,0

[Colours]
Combo1 : 170,255,189
Combo2 : 255,174,174
Combo3 : 255,215,174
Combo4 : 255,255,179

[HitObjects]
330,190,9393,6,0,B|411:179|381:200|459:188,1,129.999994049073,2|0,0:0|0:0,0:0:0:0:
255,100,10392,2,0,B|242:105|227:102|227:102|205:116|205:116|172:113|130:122,1,129.999994049073,2|0,0:3|0:0,0:0:0:0:
60,180,11392,1,2,0:0:0:0:
60,180,12059,1,0,0:3:0:0:
130,335,12392,6,0,B|151:255|123:283|143:207,1,129.999994049073,2|0,0:3|0:0,0:0:0:0:
35,270,13392,2,0,P|131:282|220:320,2,194.999991073609,2|2|2,0:0|0:0|0:0,0:0:0:0:
255,190,16059,5,0,0:0:0:0:
255,190,16392,1,2,0:0:0:0:
340,210,16726,1,0,0:0:0:0:
240,105,17059,1,2,0:0:0:0:
190,250,17392,6,0,B|115:238|139:252|60:240,1,129.999994049073,2|0,3:2|0:0,0:0:0:0:
255,190,18392,2,0,P|275:250|252:309,1,129.999994049073,2|0,0:3|0:0,0:0:0:0:
174,156,19392,6,0,P|221:113|285:111,1,129.999994049073,2|0,0:0|0:0,0:0:0:0:
460,95,20392,2,0,P|396:88|347:47,1,129.999994049073,2|0,0:3|0:0,0:0:0:0:
347,47,21392,5,2,0:0:0:0:
460,95,21726,1,0,0:0:0:0:
360,170,22059,1,2,0:0:0:0:
460,95,22392,6,0,P|465:159|472:224,1,129.999994049073,2|0,0:0|0:0,0:0:0:0:
340,360,23392,5,2,0:0:0:0:
320,235,23726,1,0,0:0:0:0:
215,315,24059,1,2,0:0:0:0:
340,360,24392,6,0,P|370:349|402:341,1,64.9999970245363,2|0,0:0|0:0,0:0:0:0:
215,315,25059,1,2,0:0:0:0:
320,235,25392,6,0,P|341:210|368:192,1,64.9999970245363,2|0,0:0|0:0,0:0:0:0:
325,120,25892,2,0,L|313:56,1,64.9999970245363,2|0,0:0|0:0,0:0:0:0:
190,160,26392,2,0,P|222:163|253:173,2,64.9999970245363,2|0|2,0:0|0:0|0:0,0:0:0:0:
75,260,27392,2,0,B|152:246|128:263|204:247,1,129.999994049073,2|2,0:0|0:0,0:0:0:0:
290,270,28392,1,0,0:0:0:0:
204,247,28726,5,2,0:0:0:0:
190,330,29059,1,2,0:0:0:0:
390,190,29392,6,0,P|379:159|376:126,1,64.9999970245363,2|0,0:0|0:0,0:0:0:0:
435,10,29892,2,0,P|445:40|448:73,1,64.9999970245363,2|0,0:0|0:0,0:0:0:0:
290,150,30392,2,0,P|258:142|226:136,2,64.9999970245363,2|0|2,0:0|0:0|0:0,0:0:0:0:
145,175,31392,6,0,P|137:206|131:238,1,64.9999970245363,2|0,0:0|0:0,0:0:0:0:
170,315,31892,2,0,P|201:322|233:328,1,64.9999970245363,2|0,0:0|0:0,0:0:0:0:
305,280,32392,1,2,0:0:0:0:
445,365,32726,5,2,0:0:0:0:
460,285,33059,1,2,0:0:0:0:
255,190,33392,6,0,P|287:184|319:178,1,64.9999970245363,2|0,0:0|0:0,0:0:0:0:
375,115,33892,2,0,L|389:51,1,64.9999970245363,2|0,0:0|0:0,0:0:0:0:
495,140,34392,2,0,P|503:171|502:203,2,64.9999970245363,2|0|2,0:0|0:0|0:0,0:0:0:0:
295,145,35392,2,0,B|385:166|329:162|419:182,1,129.999994049073,2|0,0:0|0:0,0:0:0:0:
305,235,36392,5,2,0:0:0:0:
295,145,36726,2,0,P|289:112|283:81,1,64.9999970245363,0|2,0:0|0:0,0:0:0:0:
160,190,37392,6,0,B|193:187|193:187|221:201,1,64.9999970245363,2|0,0:0|0:0,0:0:0:0:
305,235,37892,2,0,B|338:238|338:238|366:223,1,64.9999970245363,2|0,0:0|0:0,0:0:0:0:
235,290,38392,2,0,B|188:300|188:300|168:315|168:315|111:325,1,129.999994049073,2|0,0:0|0:0,0:0:0:0:
112,325,39392,6,0,P|143:331|173:343,1,64.9999970245363,2|0,0:0|0:0,0:0:0:0:
40,275,39892,2,0,L|32:210,1,64.9999970245363,2|0,0:0|0:0,0:0:0:0:
95,150,40392,5,2,0:0:0:0:
250,210,40726,1,2,0:0:0:0:
435,170,41059,1,2,0:0:0:0:
250,210,41392,6,0,P|249:177|244:145,1,64.9999970245363,2|0,0:0|0:0,0:0:0:0:
300,80,41892,2,0,B|331:90|331:90|334:93|334:93|360:102,1,64.9999970245363,2|0,0:0|0:0,0:0:0:0:
200,15,42392,2,0,P|172:31|159:60,2,64.9999970245363,2|0|2,0:0|0:0|0:0,0:0:0:0:
119,174,43392,2,0,P|180:152|244:145,1,129.999994049073,2|0,0:0|0:0,0:0:0:0:
305,205,44392,5,2,0:0:0:0:
115,315,44726,2,0,P|91:293|73:265,1,64.9999970245363,2|0,0:0|0:0,0:0:0:0:
185,90,45392,6,0,P|171:119|163:150,1,64.9999970245363,2|0,0:0|0:0,0:0:0:0:
75,30,45892,2,0,P|88:59|96:90,1,64.9999970245363,2|0,0:0|0:0,0:0:0:0:
245,150,46392,2,0,L|308:138,2,64.9999970245363,2|0|2,0:0|0:0|0:0,0:0:0:0:
125,255,47392,6,0,L|61:243,1,64.9999970245363,2|0,0:0|0:0,0:0:0:0:
205,305,47892,2,0,B|213:339|213:339|203:368,1,64.9999970245363,2|0,0:0|0:0,0:0:0:0:
300,240,48392,2,0,L|364:228,2,64.9999970245363,2|0|2,0:0|0:0|0:0,0:0:0:0:
200,140,49392,6,0,P|168:133|137:122,1,64.9999970245363,2|0,0:0|0:0,0:0:0:0:
60,135,49892,2,0,L|50:70,1,64.9999970245363,2|0,0:0|0:0,0:0:0:0:
175,245,50392,2,0,L|165:309,2,64.9999970245363,2|0|2,0:0|0:0|0:0,0:0:0:0:
305,145,51392,2,0,P|361:114|425:119,1,129.999994049073,2|0,0:0|0:0,0:0:0:0:
265,230,52392,5,2,0:0:0:0:
210,165,52726,2,0,L|218:100,1,64.9999970245363,2|0,0:0|0:0,0:0:0:0:
31,291,53392,6,0,P|59:277|91:271,1,64.9999970245363,2|0,0:0|0:0,0:0:0:0:
165,315,53892,2,0,L|156:379,1,64.9999970245363,2|0,0:0|0:0,0:0:0:0:
265,230,54392,2,0,B|346:219|316:240|394:228,1,129.999994049073,2|0,0:0|0:0,0:0:0:0:
210,165,55392,6,0,L|201:100,1,64.9999970245363,2|2,0:0|0:0,0:0:0:0:
130,65,56059,1,2,0:0:0:0:
295,135,56392,5,2,0:0:0:0:
160,245,56726,1,2,0:0:0:0:
295,135,57059,1,2,0:0:0:0:
71,249,57392,6,0,P|76:206|77:164,1,85.0000016212464,2|0,0:1|0:0,0:0:0:0:
95,80,57892,1,2,0:0:0:0:
15,105,58059,1,2,0:0:0:0:
160,245,58392,6,0,L|201:237,1,42.5000008106232,2|0,0:0|0:0,0:0:0:0:
290,170,58726,2,0,L|248:162,1,42.5000008106232,2|0,0:0|0:0,0:0:0:0:
200,95,59059,1,2,0:0:0:0:
345,240,59392,6,0,P|371:183|363:121,1,127.50000243187,2|2,0:0|0:0,0:0:0:0:
430,75,60059,2,0,L|435:32,1,42.5000008106232,2|0,0:0|0:0,0:0:0:0:
290,170,60392,2,0,L|278:85,2,85.0000016212464,2|2|2,0:0|0:0|0:0,0:0:0:0:
10,40,61392,6,0,P|49:54|91:54,1,85.0000016212464,2|0,0:0|0:0,0:0:0:0:
165,20,61892,1,2,0:0:0:0:
155,155,62059,2,0,P|171:141|185:125,1,42.5000008106232,2|0,0:0|0:0,0:0:0:0:
75,135,62392,5,2,0:0:0:0:
150,290,62726,1,2,0:0:0:0:
290,205,63059,1,2,0:0:0:0:
75,245,63392,6,0,P|48:302|56:364,1,127.50000243187,2|2,0:0|0:0,0:0:0:0:
170,190,64392,2,0,L|160:105,2,85.0000016212464,2|2|2,0:0|0:0|0:0,0:0:0:0:
320,360,65392,6,0,P|324:317|334:276,1,85.0000016212464,2|0,0:0|0:0,0:0:0:0:
365,165,65892,1,2,0:0:0:0:
290,205,66059,1,2,0:0:0:0:
410,235,66226,1,2,0:0:0:0:
245,135,66392,2,0,L|235:50,2,85.0000016212464,2|0|2,0:1|0:0|0:0,0:0:0:0:
165,310,67392,6,0,B|96:298|110:324|38:312,1,127.50000243187,2|2,0:0|0:0,0:0:0:0:
175,225,68059,2,0,L|169:182,1,42.5000008106232,2|0,0:0|0:0,0:0:0:0:
315,275,68392,2,0,L|305:360,2,85.0000016212464,2|2|2,0:0|0:0|0:0,0:0:0:0:
360,110,69392,6,0,L|402:105,1,42.5000008106232,2|0,0:0|0:0,0:0:0:0:
495,195,69726,2,0,L|410:185,1,85.0000016212464,2|2,0:0|0:0,0:0:0:0:
255,55,70392,6,0,B|231:60|208:54|208:54|158:99|94:76,1,170.000003242493,2|0,0:0|0:0,0:0:0:0:
0,245,71392,6,0,P|65:193|147:203,1,170.000003242493,2|0,0:0|0:0,0:0:0:0:
390,270,72392,2,0,L|350:284,1,42.5000008106232,2|0,0:0|0:0,0:0:0:0:
265,360,72726,2,0,L|272:318,1,42.5000008106232,2|0,0:0|0:0,0:0:0:0:
245,205,73059,2,0,L|277:232,1,42.5000008106232,2|0,0:0|0:0,0:0:0:0:
390,270,73392,6,0,L|377:343,1,75.0000028610231,2|0,0:0|0:0,0:0:0:0:
355,190,73892,2,0,L|367:116,1,75.0000028610231,2|0,0:0|0:0,0:0:0:0:
320,50,74392,5,2,0:0:0:0:
190,70,74726,1,2,0:0:0:0:
60,90,75059,1,2,0:0:0:0:
255,190,75392,6,0,B|178:177|194:207|106:193,1,150.000005722046,2|2,0:0|0:0,0:0:0:0:
21,266,76392,1,0,0:0:0:0:
110,370,76726,2,0,L|121:295,1,75.0000028610231,2|0,0:0|0:0,0:0:0:0:
108,112,77392,6,0,P|71:119|41:140,1,75.0000028610231,2|0,0:0|0:0,0:0:0:0:
175,230,77892,2,0,P|175:192|186:156,1,75.0000028610231,2|0,0:0|0:0,0:0:0:0:
90,210,78392,5,2,0:0:0:0:
257,203,78726,1,2,0:0:0:0:
175,55,79059,1,2,0:0:0:0:
330,150,79392,6,0,P|341:204|326:258,1,112.500004291535,2|2,0:0|0:0,0:0:0:0:
185,350,80226,1,0,0:0:0:0:
130,285,80392,2,0,P|156:259|192:248,2,75.0000028610231,2|2|2,0:0|0:0|0:0,0:0:0:0:
215,165,81392,6,0,P|181:148|144:145,1,75.0000028610231,2|0,0:0|0:0,0:0:0:0:
25,85,81892,2,0,P|62:84|96:69,1,75.0000028610231,2|0,0:0|0:0,0:0:0:0:
160,15,82392,5,2,0:0:0:0:
75,190,82726,1,2,0:0:0:0:
215,165,83059,1,2,0:0:0:0:
15,260,83392,6,0,P|23:315|31:371,1,112.500004291535,2|0,0:0|0:0,0:0:0:0:
107,343,84059,2,0,P|102:305|96:268,1,75.0000028610231,2|0,0:0|0:0,0:0:0:0:
215,165,84726,2,0,P|219:202|225:239,1,75.0000028610231,2|0,0:0|0:0,0:0:0:0:
380,340,85392,6,0,P|375:302|369:265,1,75.0000028610231,2|0,0:0|0:0,0:0:0:0:
445,220,85892,2,0,P|449:182|455:145,1,75.0000028610231,2|0,0:0|0:0,0:0:0:0:
410,75,86392,2,0,B|329:61|344:99|262:87,1,150.000005722046,2|0,0:0|0:0,0:0:0:0:
50,70,87392,6,0,P|87:66|124:59,1,75.0000028610231,2|0,0:0|0:0,0:0:0:0:
135,145,87892,2,0,P|97:147|60:154,1,75.0000028610231,2|0,0:0|0:0,0:0:0:0:
61,154,88392,5,2,0:0:0:0:
20,305,88726,1,2,0:0:0:0:
180,275,89059,1,2,0:0:0:0:
90,235,89392,6,0,P|103:308|111:383,1,150.000005722046,2|0,0:1|0:0,0:0:0:0:
235,80,90392,2,0,P|248:153|256:228,1,150.000005722046,2|0,0:0|0:0,0:0:0:0:
465,345,91392,2,0,P|457:270|443:196,1,150.000005722046,2|0,0:0|0:0,0:0:0:0:
377,142,92226,1,0,0:0:0:0:
455,55,92392,5,2,0:0:0:0:
295,110,92726,1,2,0:0:0:0:
130,60,93059,1,2,0:0:0:0:
14,155,93392,6,0,P|50:146|86:135,2,75.0000028610231,2|2|2,0:0|0:0|0:0,0:0:0:0:
130,60,94392,2,0,P|115:132|143:201,1,150.000005722046,2|2,0:0|0:0,0:0:0:0:
30,280,95392,6,0,P|66:275|103:283,1,75.0000028610231,2|0,0:0|0:0,0:0:0:0:
275,300,96059,2,0,L|312:294,1,37.5000014305115,2|0,0:0|0:0,0:0:0:0:
200,350,96392,2,0,P|193:313|192:275,2,75.0000028610231,2|2|2,0:0|0:0|0:0,0:0:0:0:
143,200,97392,6,0,P|167:129|218:75,1,150.000005722046,2|0,0:0|0:0,0:0:0:0:
290,115,98226,1,2,0:0:0:0:
380,20,98392,1,2,0:0:0:0:
140,95,98726,2,0,P|124:61|118:24,1,75.0000028610231,2|0,0:0|0:0,0:0:0:0:
255,190,99392,6,0,P|186:219|112:213,1,150.000005722046,2|2,0:0|0:0,0:0:0:0:
290,115,100392,2,0,L|364:125,2,75.0000028610231,2|0|2,0:0|0:0|0:0,0:0:0:0:
430,65,101392,6,0,P|456:134|442:207,1,150.000005722046,2|2,0:0|0:0,0:0:0:0:
240,240,102392,2,0,P|286:182|356:158,1,150.000005722046,2|2,0:0|0:0,0:0:0:0:
490,315,103392,2,0,P|416:302|360:254,1,150.000005722046,2|2,0:0|0:0,0:0:0:0:
255,135,104392,2,0,L|262:60,2,75.0000028610231,2|2|2,0:0|0:0|0:0,0:0:0:0:
120,280,105392,6,0,P|110:205|95:132,1,150.000005722046,2|0,0:0|0:0,0:0:0:0:
255,365,106392,2,0,P|270:291|279:217,1,150.000005722046,2|2,0:0|0:0,0:0:0:0:
420,30,107392,2,0,P|449:98|445:172,1,150.000005722046,2|0,0:0|0:0,0:0:0:0:
370,285,108392,5,2,0:0:0:0:
270,130,108726,1,2,0:0:0:0:
145,260,109059,1,2,0:0:0:0:
15,205,109392,6,0,P|52:200|88:192,1,75.0000028610231,2|2,0:0|0:0,0:0:0:0:
228,252,110059,1,2,0:0:0:0:
150,130,110392,2,0,L|157:55,2,75.0000028610231,2|2|2,0:0|0:0|0:0,0:0:0:0:
300,300,111392,5,2,0:0:0:0:
280,180,111726,1,2,0:0:0:0:
306,294,112059,1,2,0:0:0:0:
485,175,112392,2,0,P|426:129|352:123,1,150.000005722046,2|2,0:0|0:0,0:0:0:0:
200,145,113226,5,0,0:0:0:0:
200,145,113392,2,0,L|207:70,1,75.0000028610231,2|0,0:0|0:0,0:0:0:0:
115,245,114059,1,2,0:0:0:0:
0,45,114392,2,0,P|68:54|123:97,1,139.999995727539,2|2,0:0|0:0,0:0:0:0:
200,145,115226,1,2,0:0:0:0:
200,145,115392,6,0,B|286:130|260:161|348:144,1,150.000005722046,2|2,0:0|0:0,0:0:0:0:
115,245,116392,2,0,P|77:241|42:228,1,75.0000028610231,2|0,0:0|0:0,0:0:0:0:
220,300,117059,2,0,L|212:336,1,37.5000014305115,2|0,0:0|0:0,0:0:0:0:
310,370,117392,6,0,L|291:221,1,150.000005722046,2|2,0:0|0:0,0:0:0:0:
355,5,118392,2,0,L|373:153,1,150.000005722046,2|2,0:0|0:0,0:0:0:0:
204,194,119392,5,2,0:0:0:0:
155,260,119726,1,0,0:0:0:0:
78,150,120059,1,2,0:0:0:0:
157,126,120392,5,2,0:0:0:0:
76,233,120726,1,2,0:0:0:0:
155,115,121059,1,2,0:0:0:0:
280,250,121392,6,0,B|305:255|329:248|329:248|375:296|438:266,1,170.000003242493,2|2,3:1|0:0,0:0:0:0:
205,205,122392,2,0,P|195:246|201:287,2,85.0000016212464,2|0|2,0:0|0:0|0:0,0:0:0:0:
140,355,123392,6,0,P|58:342|11:273,1,170.000003242493,2|0,0:0|0:0,0:0:0:0:
95,135,124392,2,0,L|84:219,2,85.0000016212464,2|2|2,0:0|0:0|0:0,0:0:0:0:
0,0,125392,6,0,P|72:41|156:34,1,170.000003242493,2|2,3:2|0:0,0:0:0:0:
275,105,126392,2,0,P|232:104|192:117,1,85.0000016212464,2|0,0:0|0:0,0:0:0:0:
360,190,127059,1,2,0:0:0:0:
500,100,127392,2,0,P|433:49|350:50,1,170.000003242493,2|0,0:0|0:0,0:0:0:0:
240,240,128392,5,2,0:0:0:0:
345,315,128726,1,2,0:0:0:0:
360,190,129059,1,2,0:0:0:0:
170,339,129392,6,0,P|126:329|77:326,1,85.0000016212464,2|2,3:1|0:0,0:0:0:0:
240,240,130059,1,2,0:0:0:0:
220,120,130392,2,0,P|141:146|107:221,1,170.000003242493,2|2,0:0|0:0,0:0:0:0:
340,140,131392,6,0,P|332:98|328:55,1,85.0000016212464,2|0,0:0|0:0,0:0:0:0:
510,280,132059,2,0,P|439:236|357:249,1,170.000003242493,2|2,0:0|0:0,0:0:0:0:
420,330,133059,1,2,0:0:0:0:
240,175,133392,5,2,3:2:0:0:
285,315,133726,1,2,0:0:0:0:
325,130,134059,1,2,0:0:0:0:
160,250,134392,2,0,P|118:239|76:234,1,85.0000016212464,2|2,0:0|0:0,0:0:0:0:
205,90,135059,1,2,0:0:0:0:
357,249,135392,6,0,P|439:243|494:180,1,170.000003242493,2|0,0:0|0:0,0:0:0:0:
375,35,136392,1,2,0:0:0:0:
400,160,136726,1,2,0:0:0:0:
365,25,137059,1,2,0:0:0:0:
195,195,137392,6,0,B|124:179|138:207|66:190,1,129.999994049073,2|0,0:0|0:0,0:0:0:0:
260,140,138392,2,0,P|291:131|321:120,2,64.9999970245363,2|0|2,0:0|0:0|0:0,0:0:0:0:
155,285,139392,6,0,P|213:313|277:320,1,129.999994049073,2|0,0:0|0:0,0:0:0:0:
415,345,140392,2,0,P|383:351|353:365,2,64.9999970245363,2|0|2,0:0|0:0|0:0,0:0:0:0:
315,245,141392,5,2,0:0:0:0:
344,78,141726,1,2,0:0:0:0:
250,190,142059,1,2,0:0:0:0:
409,132,142392,1,2,0:0:0:0:
264,107,142726,1,0,0:0:0:0:
394,216,143059,1,2,0:0:0:0:
344,78,143392,6,0,P|271:16|176:21,1,194.999991073609,2|2,0:0|0:0,0:0:0:0:
10,140,145059,2,0,L|41:131,1,32.4999985122681,2|0,0:0|0:0,0:0:0:0:
120,160,145392,6,0,P|122:127|119:95,1,64.9999970245363,2|0,0:0|0:0,0:0:0:0:
255,190,146059,2,0,P|257:222|254:254,1,64.9999970245363,2|0,0:0|0:0,0:0:0:0:
322,128,146726,5,2,0:0:0:0:
500,190,147059,1,2,0:0:0:0:
330,120,147392,6,0,L|323:55,1,64.9999970245363,2|0,0:0|0:0,0:0:0:0:
392,204,148059,1,2,0:0:0:0:
460,35,148392,2,0,L|453:100,2,64.9999970245363,2|2|2,0:0|0:0|0:0,0:0:0:0:
255,190,149392,6,0,P|198:159|135:169,1,129.999994049073,2|2,0:0|0:0,0:0:0:0:
5,55,150392,2,0,P|61:85|125:83,1,129.999994049073,2|2,0:0|0:0,0:0:0:0:
195,35,151392,6,0,L|193:16,1,20,2|0,0:0|0:0,0:0:0:0:
190,150,152216,6,0,L|160:157,1,29.9999990844727,0|0,3:0|3:0,0:0:0:0:
200,135,152381,6,0,L|272:153,1,75,6|0,3:2|0:0,0:0:0:0:
420,95,152714,6,0,P|376:78|330:84,1,93.75,8|0,0:3|0:0,0:0:0:0:
315,225,153047,6,0,B|382:216|363:244|425:234,1,112.500004291535,4|0,0:3|0:0,0:0:0:0:
495,190,153381,6,0,P|406:219|408:313,1,200,6|0,3:2|1:2,0:0:0:0:
484,349,153797,1,0,1:0:0:0:
484,349,153881,1,0,1:0:0:0:
285,350,154047,5,0,1:0:0:0:
315,225,154214,1,0,1:0:0:0:
190,280,154381,6,0,P|204:240|207:197,1,85.0000016212464,2|0,1:2|1:0,0:0:0:0:
160,45,154881,1,2,1:2:0:0:
100,200,155047,1,0,1:2:0:0:
235,95,155214,1,0,1:2:0:0:
25,160,155381,6,0,P|11:200|8:243,1,85.0000016212464,2|0,1:2|1:0,0:0:0:0:
59,309,155797,1,0,1:0:0:0:
59,309,155881,1,0,1:0:0:0:
170,370,156047,5,0,1:0:0:0:
282,308,156214,1,0,1:0:0:0:
235,95,156381,6,0,L|223:179,1,85.0000016212464,2|0,1:2|1:0,0:0:0:0:
377,294,156881,1,2,1:2:0:0:
345,175,157047,1,0,1:0:0:0:
203,261,157214,1,0,1:0:0:0:
420,220,157381,6,0,P|432:179|435:137,1,85.0000016212464,2|0,1:2|1:0,0:0:0:0:
384,74,157797,1,0,1:0:0:0:
384,74,157881,1,0,1:0:0:0:
305,5,158047,5,0,1:0:0:0:
270,140,158214,1,0,1:0:0:0:
220,55,158381,6,0,P|180:39|138:39,1,85.0000016212464,2|0,1:2|1:0,0:0:0:0:
25,165,158881,1,2,1:2:0:0:
125,135,159047,1,0,1:0:0:0:
155,230,159214,1,0,1:0:0:0:
55,260,159381,6,0,P|49:302|42:344,1,85.0000016212464,2|0,1:2|1:0,0:0:0:0:
48,353,159797,1,0,1:0:0:0:
53,361,159881,1,2,1:2:0:0:
255,365,160047,5,0,1:2:0:0:
155,230,160214,1,0,1:2:0:0:
335,165,160381,5,10,0:2:0:0:
170,240,160547,1,8,0:2:0:0:
240,40,160714,5,8,0:3:0:0:
205,125,160881,1,8,0:3:0:0:
110,15,161047,5,4,0:3:0:0:
115,30,161214,1,4,0:3:0:0:
335,165,161381,6,0,P|342:123|355:82,1,85.0000016212464,6|0,3:2|1:0,0:0:0:0:
429,49,161797,1,0,1:0:0:0:
429,49,161881,1,0,1:0:0:0:
390,230,162047,5,0,1:0:0:0:
255,200,162214,1,0,1:0:0:0:
420,310,162381,6,0,P|453:283|472:246,1,85.0000016212464,6|0,3:2|1:0,0:0:0:0:
313,271,162881,1,2,1:2:0:0:
485,370,163047,1,0,1:0:0:0:
390,230,163214,1,0,1:0:0:0:
230,360,163381,6,0,P|188:352|146:344,1,85.0000016212464,2|0,1:2|1:0,0:0:0:0:
84,294,163797,1,0,1:0:0:0:
84,294,163881,1,0,1:0:0:0:
45,190,164047,5,0,1:0:0:0:
165,145,164214,1,0,1:0:0:0:
0,100,164381,6,0,P|42:101|83:113,1,85.0000016212464,2|0,1:2|1:0,0:0:0:0:
185,240,164881,1,2,1:2:0:0:
285,115,165047,2,0,L|278:73,1,42.5000008106232,0|0,1:0|1:0,0:0:0:0:
360,170,165381,6,0,B|404:176|394:188|440:194,1,85.0000016212464,2|0,1:2|1:0,0:0:0:0:
440,194,165797,1,0,1:0:0:0:
440,194,165881,1,0,1:0:0:0:
435,65,166047,5,0,1:0:0:0:
320,0,166214,1,0,1:0:0:0:
285,115,166381,6,0,P|245:130|204:139,1,85.0000016212464,2|0,1:2|1:0,0:0:0:0:
360,170,166880,1,2,1:2:0:0:
185,240,167047,1,0,1:0:0:0:
287,327,167214,1,0,1:0:0:0:
110,290,167380,6,0,P|97:249|95:207,1,85.0000016212464,2|0,1:2|1:0,0:0:0:0:
29,164,167797,1,0,1:0:0:0:
29,164,167880,1,0,1:0:0:0:
5,50,168047,5,0,1:0:0:0:
120,100,168214,1,0,3:0:0:0:
225,15,168380,2,0,L|216:56,1,42.5000008106232,14|0,0:0|0:0,0:0:0:0:
360,170,168714,5,8,0:3:0:0:
330,70,168880,1,0,3:3:0:0:
440,240,169047,5,4,0:3:0:0:
465,145,169214,1,0,3:3:0:0:
255,335,169380,6,0,P|250:285|244:235,1,100,6|0,3:2|1:0,0:0:0:0:
179,189,169797,1,0,1:0:0:0:
179,189,169880,1,0,1:0:0:0:
330,70,170047,5,0,1:0:0:0:
364,168,170214,1,0,1:0:0:0:
255,15,170380,6,0,B|199:21|218:35|159:43,1,100,6|0,3:2|1:0,0:0:0:0:
85,165,170880,1,2,1:2:0:0:
0,50,171047,1,0,1:0:0:0:
80,80,171214,1,0,1:0:0:0:
30,235,171380,6,0,L|42:334,1,100,2|0,1:2|1:0,0:0:0:0:
119,374,171797,1,0,1:0:0:0:
119,374,171880,1,0,1:0:0:0:
345,280,172047,5,0,1:0:0:0:
210,300,172214,1,0,1:0:0:0:
280,140,172380,6,0,L|268:239,1,100,6|0,3:2|1:0,0:0:0:0:
345,280,172880,1,2,1:2:0:0:
195,185,173047,1,0,1:0:0:0:
365,120,173214,1,0,1:0:0:0:
132,128,173380,6,0,P|129:78|152:34,1,100,2|0,1:2|1:0,0:0:0:0:
229,69,173797,1,0,1:0:0:0:
229,69,173880,1,0,1:0:0:0:
330,0,174047,5,2,1:2:0:0:
365,120,174214,1,2,1:2:0:0:
195,185,174380,6,0,P|243:176|291:191,1,100,6|0,3:2|1:0,0:0:0:0:
435,290,174877,1,2,1:2:0:0:
285,360,175042,1,0,1:0:0:0:
335,275,175208,1,0,1:0:0:0:
285,360,175374,6,0,P|236:349|186:353,1,100,2|0,1:2|1:0,0:0:0:0:
119,309,175788,1,0,1:0:0:0:
119,309,175871,1,2,1:2:0:0:
195,185,176037,5,0,1:0:0:0:
220,265,176203,1,0,3:0:0:0:
30,190,176368,5,14,0:2:0:0:
90,60,176538,1,8,0:0:0:0:
25,180,176708,1,8,0:0:0:0:
195,185,176879,5,8,0:3:0:0:
170,15,177049,1,4,0:3:0:0:
300,110,177220,1,4,0:3:0:0:
495,45,177390,6,0,B|444:37|451:57|395:49,1,100,6|0,3:2|1:0,0:0:0:0:
319,29,177804,1,0,1:0:0:0:
319,29,177887,1,0,1:0:0:0:
170,100,178052,5,2,1:2:0:0:
285,195,178218,1,2,1:2:0:0:
96,197,178384,6,0,P|145:188|195:185,1,100,6|0,3:2|1:0,0:0:0:0:
250,300,178888,1,2,1:2:0:0:
365,235,179056,1,0,1:0:0:0:
245,310,179224,1,0,1:0:0:0:
285,195,179392,6,0,L|276:95,1,100,2|0,1:2|1:0,0:0:0:0:
422,27,179892,1,0,1:0:0:0:
422,27,179975,1,0,1:0:0:0:
422,27,180058,2,0,L|426:76,1,50,2|2,1:2|1:2,0:0:0:0:
200,55,180392,6,0,P|234:20|283:11,1,100,6|2,3:2|1:2,0:0:0:0:
370,140,180892,1,0,1:2:0:0:
195,170,181058,1,8,0:3:0:0:
210,260,181225,1,4,0:3:0:0:
385,230,181392,6,0,P|395:278|400:328,1,100,2|0,1:2|1:0,0:0:0:0:
334,374,181808,1,0,1:0:0:0:
334,374,181892,1,0,1:0:0:0:
285,195,182058,5,2,1:2:0:0:
210,260,182225,1,2,1:2:0:0:
25,235,182392,6,0,B|82:225|71:241|125:230,1,100,6|0,3:2|1:0,0:0:0:0:
285,195,182892,1,2,1:2:0:0:
195,170,183058,1,0,1:0:0:0:
300,285,183225,1,0,1:0:0:0:
360,130,183392,6,0,P|368:81|357:32,1,100,2|0,1:2|3:0,0:0:0:0:
285,195,183892,1,8,0:2:0:0:
410,210,184058,6,0,L|459:218,1,50,0|0,3:0|3:0,0:0:0:0:
280,85,184392,2,0,P|234:64|185:63,2,100,14|2|2,1:2|0:0|0:0,0:0:0:0:
510,0,185392,5,2,0:0:0:0:
510,0,186054,2,0,L|503:45,2,44.999998626709,0|2|0,0:0|0:0|0:0,0:0:0:0:
430,90,187049,1,2,0:0:0:0:
255,25,187380,6,0,P|267:68|272:112,1,89.9999972534181,2|0,0:0|0:0,0:0:0:0:
345,200,188380,2,0,L|351:155,2,44.999998626709,2|2|2,0:0|0:0|0:0,0:0:0:0:
190,285,189380,6,0,P|228:262|273:258,1,89.9999972534181,2|0,0:0|0:0,0:0:0:0:
110,250,190380,2,0,P|105:205|116:162,1,89.9999972534181,2|2,0:0|0:0,0:0:0:0:
60,350,191380,6,0,P|23:324|0:286,1,89.9999972534181,2|2,0:0|0:0,0:0:0:0:
110,250,192385,2,0,L|104:205,1,44.999998626709,2|0,0:0|0:0,0:0:0:0:
40,150,193055,1,2,0:0:0:0:
255,55,193391,6,0,L|243:144,1,89.9999972534181,2|2,0:0|0:0,0:0:0:0:
350,280,194385,2,0,L|361:191,1,89.9999972534181,2|0,0:0|0:0,0:0:0:0:
170,340,195379,2,0,L|214:334,2,44.999998626709,2|0|2,0:0|0:0|0:0,0:0:0:0:
260,260,196374,6,0,L|243:131,1,129.999994049073,2|8,0:0|0:3,0:0:0:0:
160,215,197203,1,4,0:3:0:0:
340,180,197368,6,0,P|413:177|471:223,1,150.000005722046,6|0,3:2|0:0,0:0:0:0:
385,265,197870,1,0,3:0:0:0:
425,145,198038,2,0,L|415:70,1,75.0000028610231,8|4,0:3|0:3,0:0:0:0:
340,30,198373,6,0,B|421:11|398:45|488:24,1,150.000005722046,6|0,3:2|0:0,0:0:0:0:
510,110,198876,1,0,3:0:0:0:
335,15,199043,2,0,P|298:23|261:28,1,75.0000028610231,10|4,0:0|0:3,0:0:0:0:
105,260,199379,5,8,0:0:0:0:
55,165,199545,1,0,3:0:0:0:
185,215,199712,1,8,0:0:0:0:
170,60,199879,1,8,0:0:0:0:
240,290,200045,1,8,0:0:0:0:
372,148,200212,1,8,0:0:0:0:
230,195,200379,6,0,L|185:215,1,48.7499977684022,6|0,3:2|0:0,0:0:0:0:
235,175,200712,6,0,L|239:126,1,48.7499977684022,8|0,0:3|0:0,0:0:0:0:
250,190,201045,6,0,L|289:218,1,48.7499977684022,4|0,0:3|0:0,0:0:0:0:
230,195,201379,6,0,P|155:197|90:163,1,150.000005722046,4|2,3:2|0:0,0:0:0:0:
280,50,201879,1,8,0:0:0:0:
372,148,202045,2,0,P|409:148|445:138,1,75.0000028610231,2|0,3:2|0:0,0:0:0:0:
180,90,202379,6,0,P|153:64|136:30,1,75.0000028610231,10|0,0:0|0:0,0:0:0:0:
370,28,202712,1,2,3:2:0:0:
265,150,202879,1,8,0:0:0:0:
372,148,203045,2,0,P|361:184|352:220,1,75.0000028610231,2|0,3:2|0:0,0:0:0:0:
230,360,203379,6,0,P|212:287|161:233,1,150.000005722046,6|2,3:2|0:0,0:0:0:0:
300,290,203879,1,8,0:0:0:0:
154,236,204045,2,0,L|166:160,1,75.0000028610231,2|0,3:2|0:0,0:0:0:0:
88,297,204379,6,0,P|26:309|0:309,1,75.0000028610231,10|0,0:0|0:0,0:0:0:0:
244,135,204712,2,0,P|284:146|323:165,1,75.0000028610231,2|8,3:2|0:0,0:0:0:0:
80,150,205045,2,0,L|68:75,1,75.0000028610231,2|0,3:2|0:0,0:0:0:0:
210,310,205379,6,0,B|273:300|261:321|321:312,1,112.500004291535,6|0,3:2|0:0,0:0:0:0:
392,348,205712,2,0,P|427:360|464:364,1,75.0000028610231,2|8,0:0|0:0,0:0:0:0:
382,208,206045,2,0,P|395:173|400:136,1,75.0000028610231,2|0,3:2|0:0,0:0:0:0:
180,230,206379,6,0,L|107:250,1,75.0000028610231,10|0,0:0|0:0,0:0:0:0:
250,130,206712,1,2,0:0:0:0:
265,285,206879,1,8,0:0:0:0:
260,120,207045,2,0,B|269:86|269:86|260:47,1,75.0000028610231,2|0,3:2|0:0,0:0:0:0:
45,35,207379,6,0,P|102:81|176:81,1,150.000005722046,2|2,3:2|0:0,0:0:0:0:
95,113,207879,1,8,0:0:0:0:
305,210,208045,2,0,P|249:204|200:229,1,112.500004291535,2|0,3:2|0:0,0:0:0:0:
190,245,208379,5,12,0:0:0:0:
360,285,208545,1,0,3:0:0:0:
115,200,208712,1,8,0:0:0:0:
305,210,208879,5,8,0:3:0:0:
245,320,209045,1,4,0:3:0:0:
235,150,209212,1,4,0:3:0:0:
145,350,209379,6,0,B|69:330|78:361|-3:339,1,150.000005722046,4|2,3:2|0:0,0:0:0:0:
155,365,209879,1,8,0:0:0:0:
76,254,210045,2,0,L|88:180,1,75.0000028610231,2|0,3:2|0:0,0:0:0:0:
315,370,210379,6,0,P|333:298|312:227,1,150.000005722046,10|2,0:0|0:0,0:0:0:0:
236,274,210879,1,0,3:0:0:0:
132,98,211045,2,0,P|157:125|174:158,1,75.0000028610231,2|8,3:2|0:0,0:0:0:0:
180,166,211295,1,8,0:0:0:0:
184,174,211379,6,0,P|251:143|326:144,1,150.000005722046,2|2,3:2|3:2,0:0:0:0:
450,30,211879,1,8,0:0:0:0:
480,110,212045,2,0,P|443:109|400:102,1,75.0000028610231,2|0,3:2|0:0,0:0:0:0:
272,218,212379,6,0,P|245:148|243:73,1,150.000005722046,10|2,0:0|3:2,0:0:0:0:
385,204,212879,1,8,0:0:0:0:
337,52,213045,1,2,3:2:0:0:
205,150,213212,1,8,0:0:0:0:
195,150,213295,1,8,0:0:0:0:
185,150,213379,6,0,P|145:139|78:51,1,150.000005722046,6|8,3:2|0:3,0:0:0:0:
150,20,213881,1,4,0:3:0:0:
95,135,214049,1,4,0:3:0:0:
20,160,214216,1,4,0:3:0:0:
272,218,214384,6,0,P|281:292|272:366,1,150.000005722046,4|0,3:2|3:0,0:0:0:0:
198,331,214887,1,8,0:0:0:0:
191,253,215054,1,0,3:0:0:0:
272,366,215222,5,8,0:0:0:0:
277,371,215306,1,8,0:0:0:0:
282,375,215390,2,0,L|246:26,1,349.999989318848,4|0,3:2|0:0,0:0:0:0:
60,60,217390,5,8,0:3:0:0:
115,255,217556,1,8,0:3:0:0:
175,130,217723,5,0,3:3:0:0:
170,145,217890,1,4,0:3:0:0:
335,70,218056,5,4,0:3:0:0:
320,340,218390,5,10,0:0:0:0:
370,351,218501,1,8,0:0:0:0:
417,339,218612,1,8,0:0:0:0:
445,293,218723,2,0,L|440:243,1,50.0000019073487,10|8,0:0|0:0,0:0:0:0:
370,185,218945,5,8,0:3:0:0:
360,193,219056,2,0,L|355:242,2,50.0000019073487,8|4|4,0:3|0:3|0:3,0:0:0:0:
290,145,219390,5,6,3:2:0:0:
455,30,219556,2,0,P|447:79|442:129,1,100,0|2,3:0|0:0,0:0:0:0:
220,210,219890,1,0,3:0:0:0:
151,49,220056,2,0,P|200:41|248:29,1,100,2|0,0:0|3:0,0:0:0:0:
169,291,220390,6,0,P|103:256|30:266,1,150,10|0,0:0|0:0,0:0:0:0:
100,225,220723,2,0,P|117:178|113:128,1,100,2|8,0:0|0:0,0:0:0:0:
32,138,220973,1,8,0:0:0:0:
25,130,221056,2,0,L|47:22,1,100,10|8,0:2|0:0,0:0:0:0:
235,355,221390,6,0,P|270:262|249:166,1,200,2|2,3:2|0:0,0:0:0:0:
195,95,221890,1,8,0:0:0:0:
340,160,222056,2,0,L|354:61,1,100,2|0,3:2|0:0,0:0:0:0:
170,295,222390,6,0,P|161:245|142:199,1,100,10|0,0:0|0:0,0:0:0:0:
235,355,222723,1,2,0:0:0:0:
385,340,222890,1,8,0:0:0:0:
382,332,222973,1,8,0:0:0:0:
380,325,223056,2,0,P|395:277|401:227,1,100,2|8,3:2|0:0,0:0:0:0:
65,139,223390,6,0,P|161:122|249:166,1,200,2|2,3:2|0:0,0:0:0:0:
170,295,223890,1,0,3:0:0:0:
312,228,224056,2,0,P|327:180|325:131,1,100,2|0,0:0|3:0,0:0:0:0:
440,20,224390,6,0,P|483:109|486:208,1,200,10|2,0:0|0:0,0:0:0:0:
410,145,224890,1,8,0:0:0:0:
250,166,225056,6,0,L|245:66,1,100,2|8,3:2|0:0,0:0:0:0:
183,19,225306,1,8,0:0:0:0:
183,19,225390,1,2,3:2:0:0:
180,225,225556,6,0,P|136:201|87:189,1,100,8|2,0:0|3:2,0:0:0:0:
332,198,225890,1,8,0:0:0:0:
280,320,226056,1,2,3:2:0:0:
410,145,226223,1,8,0:0:0:0:
250,166,226390,5,10,0:0:0:0:
385,270,226556,1,8,0:0:0:0:
300,90,226723,1,8,0:3:0:0:
490,100,226890,1,8,0:3:0:0:
400,40,227056,1,4,0:3:0:0:
465,220,227223,1,4,0:3:0:0:
250,166,227390,6,0,P|200:173|151:185,1,100,6|0,3:2|0:0,0:0:0:0:
385,270,227723,2,0,P|335:277|286:289,1,100,2|8,0:0|0:0,0:0:0:0:
400,40,228056,2,0,P|350:47|301:59,1,100,2|0,3:2|0:0,0:0:0:0:
100,255,228390,6,0,P|50:171|76:77,1,200,14|2,0:0|3:2,0:0:0:0:
250,166,228890,1,8,0:0:0:0:
180,330,229056,2,0,P|133:347|83:343,1,100,2|8,3:2|0:0,0:0:0:0:
325,212,229390,6,0,P|374:216|416:241,1,100,2|0,3:2|0:0,0:0:0:0:
175,125,229723,2,0,L|188:25,1,100,2|8,0:0|0:0,0:0:0:0:
325,212,230056,2,0,L|303:13,1,200,2|10,3:2|0:0,0:0:0:0:
235,195,230556,1,0,0:0:0:0:
400,130,230723,6,0,P|446:112|495:115,1,100,2|8,3:2|0:0,0:0:0:0:
325,212,231056,2,0,P|342:258|339:307,1,100,2|8,3:2|0:0,0:0:0:0:
275,360,231306,1,8,0:0:0:0:
265,365,231390,2,0,L|165:352,1,100,6|0,3:2|0:0,0:0:0:0:
60,245,231723,5,2,0:3:0:0:
232,195,231890,1,12,0:3:0:0:
105,75,232056,1,4,0:3:0:0:
130,175,232223,1,4,0:3:0:0:
310,120,232390,6,0,P|306:70|305:20,1,100,4|8,3:2|0:0,0:0:0:0:
305,20,232640,1,8,0:0:0:0:
305,20,232723,1,8,0:0:0:0:
385,195,232890,1,0,3:3:0:0:
465,140,233056,2,0,P|479:92|499:46,1,100,8|0,0:0|0:0,0:0:0:0:
265,220,233390,6,0,P|220:198|177:172,1,100,4|8,3:2|0:0,0:0:0:0:
177,172,233640,1,8,0:0:0:0:
177,172,233723,1,8,0:0:0:0:
50,285,233889,1,8,0:0:0:0:
80,195,234056,1,8,0:0:0:0:
110,355,234223,1,8,0:0:0:0:
270,310,234389,6,0,P|318:298|368:292,1,100,4|0,3:2|0:0,0:0:0:0:
455,150,234723,1,8,0:3:0:0:
465,245,234889,1,4,0:3:0:0:
258,102,235056,6,0,L|263:57,1,44.999998626709,4|0,0:3|0:0,0:0:0:0:
350,120,235389,6,0,B|248:117|291:46|173:41,1,200,4|2,3:2|0:0,0:0:0:0:
25,175,235889,1,8,0:0:0:0:
110,210,236056,2,0,P|156:194|189:157,1,100,2|0,3:2|0:0,0:0:0:0:
100,5,236389,6,0,L|87:104,1,100,10|0,0:0|0:0,0:0:0:0:
260,230,236723,1,2,3:2:0:0:
280,90,236889,1,8,0:0:0:0:
40,265,237056,2,0,P|74:300|121:316,1,100,2|8,3:2|0:0,0:0:0:0:
189,374,237306,1,8,0:0:0:0:
189,374,237389,1,2,3:2:0:0:
350,200,237556,6,0,P|253:183|164:227,1,200,8|8,0:0|0:0,0:0:0:0:
440,140,238056,2,0,B|450:93|450:93|436:42,1,100,2|0,3:2|0:0,0:0:0:0:
500,240,238389,6,0,P|496:289|495:339,1,100,10|0,0:0|0:0,0:0:0:0:
350,200,238723,2,0,P|350:150|354:100,1,100,2|8,3:2|0:0,0:0:0:0:
245,275,239056,1,2,3:3:0:0:
242,299,239139,1,2,0:3:0:0:
241,324,239223,1,2,0:3:0:0:
240,349,239306,1,2,0:3:0:0:
240,374,239389,6,0,P|165:363|90:359,1,150,6|0,3:2|0:0,0:0:0:0:
30,300,239723,2,0,P|33:250|35:200,1,100,2|8,0:0|0:0,0:0:0:0:
205,95,240056,2,0,P|201:144|199:194,1,100,2|0,3:2|0:0,0:0:0:0:
0,110,240389,6,0,P|3:60|5:10,1,100,10|0,0:0|0:0,0:0:0:0:
120,240,240723,1,2,3:2:0:0:
115,145,240889,1,8,0:0:0:0:
285,285,241056,2,0,P|288:235|290:185,1,100,2|8,3:2|0:0,0:0:0:0:
350,125,241306,1,8,0:0:0:0:
360,115,241389,6,0,P|455:125|495:212,1,200,6|0,3:2|3:0,0:0:0:0:
430,370,241889,2,0,L|433:321,1,50,8|2,0:0|0:3,0:0:0:0:
375,260,242056,1,2,3:3:0:0:
375,247,242139,1,2,0:3:0:0:
376,235,242223,1,2,0:3:0:0:
377,222,242306,1,2,0:3:0:0:
378,210,242389,5,12,0:0:0:0:
285,285,242556,1,8,0:0:0:0:
272,108,242723,5,8,0:3:0:0:
225,190,242889,1,8,0:3:0:0:
135,95,243056,5,4,0:3:0:0:
140,110,243223,1,4,0:3:0:0:
10,290,243389,6,0,B|34:293|56:285|56:285|106:358|190:328,1,200,4|2,3:2|0:0,0:0:0:0:
378,210,243889,1,8,0:0:0:0:
272,108,244056,2,0,P|255:154|257:204,1,100,2|0,3:2|0:0,0:0:0:0:
465,295,244389,2,0,P|481:248|479:198,1,100,10|0,0:0|0:0,0:0:0:0:
380,80,244723,5,2,0:2:0:0:
310,285,244889,1,8,0:0:0:0:
272,108,245056,1,2,3:2:0:0:
172,237,245223,1,8,0:0:0:0:
172,237,245306,1,8,0:0:0:0:
172,237,245389,5,2,3:2:0:0:
75,65,245556,2,0,P|82:114|86:164,1,100,8|2,0:0|0:0,0:0:0:0:
190,40,245889,1,8,0:0:0:0:
280,200,246056,2,0,P|329:198|373:176,1,100,2|0,3:2|0:0,0:0:0:0:
130,320,246389,2,0,P|88:292|39:290,1,100,10|0,0:0|0:0,0:0:0:0:
245,340,246723,5,2,3:2:0:0:
195,140,246889,1,8,0:0:0:0:
340,280,247056,1,2,3:2:0:0:
462,137,247223,1,8,0:0:0:0:
462,137,247306,1,8,0:0:0:0:
462,137,247389,6,0,L|441:335,1,200,4|2,3:2|0:0,0:0:0:0:
330,180,247889,1,8,0:0:0:0:
245,340,248056,2,0,P|238:290|224:242,1,100,2|0,3:2|3:0,0:0:0:0:
265,50,248389,6,0,P|189:112|92:105,1,200,4|0,3:2|0:0,0:0:0:0:
165,20,248889,1,8,0:0:0:0:
330,180,249056,2,0,P|338:229|333:278,1,100,0|0,3:2|0:0,0:0:0:0:
155,295,249389,5,8,0:3:0:0:
195,140,249553,2,0,P|221:182|232:230,1,100,8|0,0:3|0:0,0:0:0:0:
85,230,249883,5,4,0:3:0:0:
300,5,250048,2,0,P|296:54|280:102,1,100,4|4,0:3|0:3,0:0:0:0:
50,40,250378,6,0,P|64:87|96:125,1,100,10|0,0:0|0:0,0:0:0:0:
405,165,250707,2,0,P|359:185|309:189,1,100,10|0,0:0|0:0,0:0:0:0:
85,230,251037,6,0,P|150:264|225:262,1,150,10|0,0:0|0:0,0:0:0:0:
235,255,251367,6,0,P|131:251|41:303,1,209.999993591309,4|2,3:2|0:0,0:0:0:0:
300,350,251869,1,0,3:2:0:0:
310,189,252037,2,0,P|275:174|238:167,1,75.0000028610231,2|0,0:0|3:0,0:0:0:0:
390,310,252372,6,0,P|460:287|500:226,1,150.000005722046,10|2,0:0|3:2,0:0:0:0:
380,90,252875,1,0,3:0:0:0:
445,155,253042,1,8,0:0:0:0:
458,130,253126,1,8,0:0:0:0:
465,103,253210,1,8,0:0:0:0:
465,74,253294,1,8,0:0:0:0:
458,47,253378,6,0,P|411:11|311:30,1,150.000005722046,4|2,3:2|0:0,0:0:0:0:
240,55,253878,1,0,3:0:0:0:
281,196,254044,2,0,P|293:160|296:123,1,75.0000028610231,2|0,0:0|3:0,0:0:0:0:
163,15,254378,6,0,P|150:50|147:87,1,75.0000028610231,10|0,0:0|0:0,0:0:0:0:
210,150,254711,1,2,3:2:0:0:
296,123,254878,1,0,3:0:0:0:
75,135,255044,1,8,0:0:0:0:
77,153,255128,1,8,0:0:0:0:
80,172,255211,1,8,0:0:0:0:
83,190,255294,1,8,0:0:0:0:
86,209,255378,6,0,L|107:357,1,150.000005722046,4|2,3:2|0:0,0:0:0:0:
310,320,255878,1,0,3:0:0:0:
255,255,256044,2,0,P|217:257|184:275,1,75.0000028610231,8|8,0:3|0:3,0:0:0:0:
385,275,256378,6,0,L|406:126,1,150.000005722046,10|2,0:0|3:2,0:0:0:0:
380,5,256878,1,0,3:0:0:0:
300,40,257044,2,0,L|310:114,1,75.0000028610231,10|0,0:0|0:0,0:0:0:0:
490,170,257378,6,0,P|520:102|508:30,1,150.000005722046,4|2,3:2|3:2,0:0:0:0:
302,198,257878,2,0,P|266:186|240:159,1,75.0000028610231,8|2,0:0|0:0,0:0:0:0:
395,155,258211,1,0,3:0:0:0:
427,363,258378,5,10,0:0:0:0:
330,315,258544,1,8,0:0:0:0:
505,290,258711,1,8,0:0:0:0:
410,250,258878,1,8,0:3:0:0:
430,370,259044,1,4,0:3:0:0:
320,320,259211,1,4,0:3:0:0:
302,198,259378,6,0,B|222:171|241:208|154:181,1,150.000005722046,4|2,3:2|0:0,0:0:0:0:
25,260,259878,1,0,3:0:0:0:
25,260,260044,2,0,P|61:251|98:246,1,75.0000028610231,2|0,0:0|3:0,0:0:0:0:
145,95,260378,6,0,P|71:100|14:54,1,150.000005722046,10|10,0:0|0:0,0:0:0:0:
215,145,260878,2,0,L|206:220,1,75.0000028610231,0|8,3:0|0:0,0:0:0:0:
230,248,261128,1,8,0:0:0:0:
266,257,261211,1,8,0:0:0:0:
302,251,261294,1,8,0:0:0:0:
333,230,261378,6,0,P|239:244|218:336,1,200,4|2,3:2|0:0,0:0:0:0:
350,360,261878,1,0,3:0:0:0:
430,250,262044,2,0,P|427:212|425:175,1,75.0000028610231,2|0,0:0|3:0,0:0:0:0:
490,50,262378,6,0,P|427:88|353:84,1,150.000005722046,10|2,0:0|3:2,0:0:0:0:
255,25,262878,1,0,3:0:0:0:
290,180,263044,1,10,0:0:0:0:
140,130,263211,1,0,3:0:0:0:
298,192,263378,6,0,L|278:340,1,150.000005722046,4|2,3:2|0:0,0:0:0:0:
170,230,263878,1,0,3:0:0:0:
170,230,264044,2,0,P|181:265|186:302,1,75.0000028610231,8|8,0:3|0:3,0:0:0:0:
140,130,264378,6,0,P|66:131|8:85,1,150.000005722046,10|10,0:0|0:0,0:0:0:0:
200,26,264878,1,0,3:0:0:0:
290,180,265044,1,8,0:0:0:0:
292,161,265128,1,8,0:0:0:0:
294,142,265211,1,8,0:0:0:0:
296,124,265294,1,8,0:0:0:0:
298,105,265378,1,4,3:2:0:0:
405,240,265544,5,8,0:0:0:0:
401,209,265628,1,8,0:0:0:0:
397,178,265711,1,8,0:0:0:0:
475,310,265878,5,8,0:0:0:0:
495,135,266044,1,8,0:0:0:0:
475,310,266211,1,8,0:0:0:0:
495,135,266378,6,0,L|488:86,1,48.7499977684022,4|0,3:2|0:0,0:0:0:0:
510,10,266711,6,0,P|464:41|408:46,1,112.500004291535,8|0,0:3|0:0,0:0:0:0:
335,10,267044,5,4,0:3:0:0:
290,180,267211,1,4,0:3:0:0:
140,55,267378,5,4,3:2:0:0:
230,15,267544,2,0,L|219:114,1,100,0|2,3:0|0:0,0:0:0:0:
190,240,267878,5,0,3:0:0:0:
25,135,268044,2,0,P|74:135|119:156,1,100,2|0,0:0|3:0,0:0:0:0:
290,180,268378,6,0,P|387:180|463:117,1,200,12|10,0:0|0:0,0:0:0:0:
356,84,268878,1,0,3:0:0:0:
189,239,269044,1,8,0:0:0:0:
192,263,269128,1,8,0:0:0:0:
195,288,269211,1,8,0:0:0:0:
198,313,269294,1,8,0:0:0:0:
201,338,269378,5,4,3:2:0:0:
65,245,269544,2,0,P|50:148|106:68,1,200,0|0,3:0|3:0,0:0:0:0:
265,155,270044,2,0,L|165:143,1,100,2|0,0:0|3:0,0:0:0:0:
380,35,270378,5,10,0:0:0:0:
415,190,270544,1,8,0:0:0:0:
376,44,270711,1,2,3:2:0:0:
419,181,270877,1,0,3:0:0:0:
495,80,271044,5,10,0:0:0:0:
265,155,271211,1,8,0:0:0:0:
261,136,271294,1,8,0:0:0:0:
258,118,271378,1,2,3:2:0:0:
325,240,271544,2,0,P|311:288|305:337,1,100,0|2,3:2|0:0,0:0:0:0:
350,125,271878,5,0,3:0:0:0:
190,225,272044,2,0,P|140:219|98:193,1,100,2|0,0:0|3:0,0:0:0:0:
345,15,272378,6,0,P|267:75|170:70,1,200,10|2,0:0|0:0,0:0:0:0:
75,100,272878,1,0,3:0:0:0:
190,225,273044,1,8,0:0:0:0:
187,249,273128,1,8,0:0:0:0:
184,274,273211,1,8,0:0:0:0:
181,299,273294,1,8,0:0:0:0:
178,324,273378,6,0,B|261:309|247:347|326:331,1,150,4|0,3:2|0:0,0:0:0:0:
455,375,273711,6,0,L|405:367,1,50,8|0,0:0|0:0,0:0:0:0:
295,250,273878,6,0,P|295:151|343:64,1,200,4|0,3:2|3:0,0:0:0:0:
465,95,274378,5,8,0:0:0:0:
385,200,274544,1,8,0:0:0:0:
230,10,274711,5,8,0:3:0:0:
210,105,274878,1,8,0:3:0:0:
60,60,275044,5,4,0:3:0:0:
65,75,275211,1,4,0:3:0:0:
20,220,275378,5,4,3:2:0:0:
103,357,275544,2,0,B|106:328|123:299|123:299|101:277|101:277|125:222|104:173,1,200,0|0,3:0|3:0,0:0:0:0:
255,345,276044,2,0,B|242:312|242:312|240:291|240:291|221:251,1,100,2|0,0:0|3:0,0:0:0:0:
500,200,276378,6,0,P|430:267|332:266,1,200,12|2,0:0|0:0,0:0:0:0:
275,95,276878,1,0,3:0:0:0:
375,30,277044,1,8,0:0:0:0:
384,52,277128,1,8,0:0:0:0:
389,77,277211,1,8,0:0:0:0:
390,102,277294,1,8,0:0:0:0:
385,126,277378,6,0,B|281:100|295:160|188:134,1,200,4|2,3:2|0:0,0:0:0:0:
25,215,277878,1,0,3:2:0:0:
25,215,278044,2,0,P|72:201|122:194,1,100,2|0,0:0|3:0,0:0:0:0:
275,95,278378,5,10,0:0:0:0:
100,30,278544,1,8,0:0:0:0:
275,95,278711,2,0,L|260:193,1,100,2|0,0:0|3:0,0:0:0:0:
450,360,279044,6,0,P|468:288|437:222,1,150,10|0,0:0|0:0,0:0:0:0:
360,160,279378,6,0,L|345:258,1,100,12|0,0:2|3:0,0:0:0:0:
123,194,279711,1,8,0:0:0:0:
165,325,279878,1,0,3:0:0:0:
275,95,280044,5,8,0:0:0:0:
250,225,280211,1,0,3:0:0:0:
30,105,280378,6,0,P|79:97|127:85,1,100,10|0,0:0|3:0,0:0:0:0:
360,160,280711,1,8,0:0:0:0:
205,30,280878,1,0,3:0:0:0:
250,225,281044,1,8,0:0:0:0:
365,55,281211,1,0,3:0:0:0:
245,235,281378,5,12,0:0:0:0:
440,110,281544,2,0,P|473:202|451:299,1,200,0|0,3:0|3:0,0:0:0:0:
340,380,282044,2,0,L|351:280,1,100,4|0,3:2|0:0,0:0:0:0:
275,95,282377,5,10,0:0:0:0:
245,235,282574,1,8,0:0:0:0:
128,142,282771,1,8,0:3:0:0:
212,158,282979,1,8,0:3:0:0:
30,220,283187,6,0,L|15:81,1,138.749999470711,4|0,0:3|0:0,0:0:0:0:
0,0,283717,5,6,3:2:0:0:
256,192,283800,12,0,289750,0:0:0:0:
