osu file format v14

[General]
AudioFilename: audio.mp3
AudioLeadIn: 0
PreviewTime: 60522
Countdown: 0
SampleSet: Soft
StackLeniency: 0.3
Mode: 0
LetterboxInBreaks: 0
WidescreenStoryboard: 1

[Editor]
Bookmarks: 12054,35781,47610
DistanceSpacing: 1
BeatDivisor: 8
GridSize: 4
TimelineZoom: 2.000001

[Metadata]
Title:Kago no Naka ni Tori (TV Size)
TitleUnicode:籠の中に鳥 (TV Size)
Artist:yourness
ArtistUnicode:ユアネス
Creator:waefwerf
Version:Insane
Source:イエスタデイをうたって
Tags:yesterday wo utatte sing for me a bird in a cage anime pop ost ending japanese striderin
BeatmapID:2504904
BeatmapSetID:1202748

[Difficulty]
HPDrainRate:5
CircleSize:4
OverallDifficulty:7
ApproachRate:8.5
SliderMultiplier:2
SliderTickRate:1

[Events]
//Background and Video events
0,0,"bg.jpg",0,0
//Break Periods
//Storyboard Layer 0 (Background)
//Storyboard Layer 1 (Fail)
//Storyboard Layer 2 (Pass)
//Storyboard Layer 3 (Foreground)
//Storyboard Layer 4 (Overlay)
//Storyboard Sound Samples

[TimingPoints]
215,740.740740740741,4,2,1,25,1,0
215,-111.111111111111,4,2,1,25,0,0
12059,-83.3333333333333,4,2,1,50,0,0
35394,-100,4,2,1,40,0,0
35802,739.371534195933,4,2,1,50,1,0
35802,-111.111111111111,4,2,1,50,0,0
44674,-83.3333333333333,4,2,1,50,0,0
45413,-100,4,2,1,50,0,0
46153,-83.3333333333333,4,2,1,50,0,0
47015,-83.3333333333333,4,2,1,30,0,0
47139,-83.3333333333333,4,2,1,40,0,0
47262,-83.3333333333333,4,2,1,50,0,0
47615,740.740740740741,4,2,1,50,1,0
47615,-83.3333333333333,4,2,1,50,0,0
53535,740.740740740741,4,2,1,40,1,0
53535,-125,4,2,1,40,0,0
58742,784.313725490196,4,2,1,40,1,0
58742,-166.666666666667,4,2,1,40,0,0
59328,705.882352941176,4,2,1,50,1,0
59504,740.740740740741,4,2,1,50,1,0
60964,-100,4,2,1,60,0,0
62444,739.371534195933,4,2,1,70,1,1
62444,-66.6666666666667,4,2,1,70,0,1
83555,750,4,2,1,60,1,0
83741,721.153846153846,4,2,1,55,1,0
83741,-71.4285714285714,4,2,1,55,0,0
84099,721.587492483464,4,2,1,55,1,0
84282,745.341614906833,4,2,1,55,1,0
84282,-71.4285714285714,4,2,1,55,0,0
84656,740.740740740741,4,2,1,45,1,0
84656,-125,4,2,1,45,0,0
86147,-125,4,2,1,30,0,0
86182,681.818181818182,4,2,1,30,1,0

[Colours]
Combo1 : 114,129,138
Combo2 : 150,143,129
Combo3 : 255,89,28
Combo4 : 236,20,0
Combo5 : 227,183,100
Combo6 : 200,135,101
Combo7 : 255,255,255
Combo8 : 255,135,25

[HitObjects]
468,100,215,118,0,B|412:106|403:148|343:154,2,134.999995880127,2|2|2,0:0|0:0|0:0,0:0:0:0:
253,185,2807,5,2,0:0:0:0:
319,208,2992,1,0,0:0:0:0:
244,211,3177,2,0,B|188:205|179:163|119:157,1,134.999995880127,2|2,0:0|0:0,0:0:0:0:
60,117,3918,1,0,3:0:0:0:
19,313,4289,2,0,P|5:287|101:261,1,179.999994506836,2|0,0:0|0:0,0:0:0:0:
227,378,5400,2,0,P|251:365|286:305,1,89.9999972534181,2|0,3:2|0:0,0:0:0:0:
394,187,5955,1,0,0:0:0:0:
394,187,6048,1,0,0:0:0:0:
394,187,6140,102,0,P|392:219|405:324,1,134.999995880127,2|0,0:0|0:0,0:0:0:0:
499,217,6881,6,2,B|525:121|413:143|444:49,1,179.999994506836,2|0,3:2|0:0,0:0:0:0:
305,20,8548,1,2,0:0:0:0:
296,32,8733,2,0,L|240:26,1,44.999998626709,2|0,0:0|0:0,0:0:0:0:
154,12,9103,2,0,P|132:22|82:83,1,89.9999972534181,2|0,0:0|0:0,0:0:0:0:
162,139,9659,1,0,0:0:0:0:
162,139,9844,102,0,L|262:127,1,89.9999972534181,2|0,3:2|0:0,0:0:0:0:
65,202,10585,1,2,0:0:0:0:
121,250,10770,2,0,L|221:262,1,89.9999972534181
300,246,11326,2,0,P|327:255|360:359,1,134.999995880127,2|0,3:2|0:0,0:0:0:0:
398,218,12066,53,4,1:0:0:0:
274,374,12622,1,0,0:0:0:0:
274,374,12807,2,0,P|235:345|154:332,1,119.999996337891,8|0,0:0|0:0,0:0:0:0:
4,318,13363,2,0,P|62:308|111:274,1,119.999996337891,0|0,3:0|0:0,0:0:0:0:
63,215,13918,5,0,1:0:0:0:
1,158,14103,2,0,P|21:119|29:90,1,59.9999981689454,2|8,0:0|0:0,0:0:0:0:
155,195,14474,2,0,P|157:151|164:122,1,59.9999981689454,2|0,0:0|0:0,0:0:0:0:
169,2,14844,1,0,0:0:0:0:
109,57,15029,102,0,P|51:63|10:21,1,119.999996337891,0|0,1:0|0:0,0:0:0:0:
166,117,15585,1,0,0:0:0:0:
227,59,15770,2,0,P|267:17|325:23,1,119.999996337891,8|2,0:0|0:0,0:0:0:0:
443,139,16326,1,2,3:0:0:0:
443,139,16418,1,0,3:0:0:0:
443,139,16511,5,0,3:2:0:0:
458,17,16696,1,2,3:2:0:0:
326,123,16881,2,0,P|347:174|354:203,1,59.9999981689454,0|0,1:0|0:0,0:0:0:0:
502,195,17252,2,0,P|477:238|460:315,1,119.999996337891,10|0,0:2|0:0,0:0:0:0:
486,384,17807,1,0,0:0:0:0:
380,321,17992,102,0,P|321:314|273:268,1,119.999996337891,0|0,1:0|0:0,0:0:0:0:
330,215,18548,1,2,0:0:0:0:
286,358,18733,2,0,L|178:378,1,89.9999972534181,8|2,0:0|0:0,0:0:0:0:
30,303,19289,1,0,3:0:0:0:
101,258,19474,1,0,0:0:0:0:
116,338,19659,1,0,0:0:0:0:
36,129,19844,5,2,1:2:0:0:
6,199,20029,2,0,P|22:253|27:271,1,59.9999981689454,2|8,0:0|0:0,0:0:0:0:
235,81,20400,101,2,0:0:0:0:
314,183,20585,1,2,0:0:0:0:
391,125,20770,1,2,0:0:0:0:
359,254,20955,2,0,P|318:236|217:225,1,119.999996337891,0|0,1:0|0:0,0:0:0:0:
180,270,21511,1,2,0:0:0:0:
357,378,21696,2,0,P|416:370|471:347,1,119.999996337891,8|0,0:0|0:0,0:0:0:0:
452,203,22252,1,2,0:2:0:0:
505,278,22437,5,0,3:0:0:0:
361,202,22622,1,2,3:2:0:0:
503,136,22807,2,0,L|514:55,1,59.9999981689454,4|0,1:2|0:0,0:0:0:0:
452,203,23177,1,8,0:0:0:0:
358,67,23363,2,0,L|347:-14,2,59.9999981689454,2|0|0,0:0|0:0|0:0,0:0:0:0:
506,10,23918,102,0,P|499:50|393:129,1,179.999994506836,4|0,1:0|0:0,0:0:0:0:
231,12,24659,2,0,P|276:29|296:50,1,59.9999981689454,10|0,0:0|0:0,0:0:0:0:
243,222,25029,1,0,0:0:0:0:
194,157,25215,2,0,L|203:78,2,59.9999981689454,2|0|0,3:2|0:0|3:0,0:0:0:0:
106,6,25770,2,0,L|112:134,1,119.999996337891,2|8,1:2|0:0,0:0:0:0:
25,212,26326,2,0,P|10:178|8:137,1,59.9999981689454,2|0,0:0|0:0,0:0:0:0:
2,300,26696,1,0,0:0:0:0:
92,267,26881,6,0,L|255:295,1,119.999996337891,0|0,1:0|0:0,0:0:0:0:
288,331,27437,1,0,0:0:0:0:
409,224,27622,2,0,L|246:252,1,119.999996337891,8|0,0:0|0:0,0:0:0:0:
329,143,28177,1,2,3:0:0:0:
329,143,28270,1,0,3:0:0:0:
329,143,28363,101,0,3:0:0:0:
199,205,28548,1,2,3:2:0:0:
234,71,28733,2,0,L|221:-7,1,59.9999981689454,4|0,1:2|0:0,0:0:0:0:
145,49,29103,1,8,0:0:0:0:
313,39,29289,2,0,L|382:48,2,59.9999981689454,2|0|0,0:0|0:0|0:0,0:0:0:0:
130,61,29844,6,0,P|46:37|4:-4,1,119.999996337891,0|0,1:0|0:0,0:0:0:0:
201,117,30400,1,0,0:0:0:0:
138,171,30585,2,0,P|101:184|71:188,1,59.9999981689454,8|0,0:0|0:0,0:0:0:0:
251,221,30955,1,2,0:0:0:0:
182,270,31140,1,0,3:0:0:0:
313,375,31326,102,0,P|336:347|342:240,1,119.999996337891,2|4,0:0|1:2,0:0:0:0:
253,62,31881,1,2,0:0:0:0:
201,117,32066,2,0,P|197:153|206:181,1,59.9999981689454,8|0,0:0|3:0,0:0:0:0:
256,237,32437,5,2,0:0:0:0:
376,147,32622,1,2,0:0:0:0:
512,209,32808,5,4,1:0:0:0:
512,209,33548,1,4,1:1:0:0:
512,209,34289,1,4,1:0:0:0:
512,209,35029,1,4,1:0:0:0:
418,241,35400,22,0,L|423:193,2,33.3333333333333,8|4|4,0:3|0:3|0:3,0:0:0:0:
508,355,35802,6,0,P|454:326|331:294,1,179.999994506836,4|2,1:0|0:3,0:0:0:0:
340,295,36911,1,2,0:0:0:0:
286,346,37095,2,0,P|236:370|186:376,1,89.9999972534181,2|0,0:0|0:0,0:0:0:0:
202,375,37650,1,0,1:0:0:0:
107,321,37835,2,0,P|75:316|1:312,2,89.9999972534181,2|2|0,0:0|0:0|0:0,0:0:0:0:
6,211,38759,102,0,B|85:227|80:164|149:183,1,134.999995880127,0|0,1:0|0:0,0:0:0:0:
194,220,39498,1,2,0:3:0:0:
252,148,39868,1,2,0:0:0:0:
252,148,40053,2,0,P|285:164|353:182,1,89.9999972534181,2|0,0:0|0:0,0:0:0:0:
336,179,40607,1,2,1:2:0:0:
430,247,40792,2,0,P|466:226|524:217,2,89.9999972534181,0|2|0,0:0|0:0|0:0,0:0:0:0:
512,122,41716,6,0,P|480:117|345:40,1,179.999994506836,0|2,1:0|0:3,0:0:0:0:
352,47,42826,1,0,0:0:0:0:
294,2,43010,2,0,P|269:8|205:43,1,89.9999972534181
167,116,43565,1,2,1:2:0:0:
167,116,43750,2,0,P|117:105|63:87,2,89.9999972534181,0|2|0,0:0|0:0|0:0,0:0:0:0:
135,25,44674,85,4,1:2:0:0:
9,124,44859,1,0,3:0:0:0:
16,155,44951,1,2,3:0:0:0:
23,187,45044,1,2,3:0:0:0:
105,154,45228,1,2,0:0:0:0:
20,271,45413,2,0,P|81:283|141:292,1,100,2|0,1:2|0:0,0:0:0:0:
199,255,45968,1,2,1:2:0:0:
310,384,46153,86,0,P|320:344|322:315,1,59.9999981689454,0|0,0:0|3:0,0:0:0:0:
151,352,46522,2,0,P|141:312|139:283,1,59.9999981689454,2|0,1:3|0:0,0:0:0:0:
338,188,46892,2,0,P|341:162|340:137,2,39.9999987792969,8|8|8,0:3|0:3|3:3,0:0:0:0:
149,159,47262,2,0,P|146:133|147:108,2,39.9999987792969,4|4|4,0:3|0:3|0:3,0:0:0:0:
253,0,47615,102,0,L|243:184,1,179.999994506836,4|0,1:0|0:0,0:0:0:0:
235,259,48356,1,8,0:0:0:0:
360,131,48726,5,2,0:0:0:0:
235,259,48911,2,0,P|272:242|352:249,1,119.999996337891,2|8,3:2|0:0,0:0:0:0:
391,311,49467,1,2,1:2:0:0:
512,228,49652,2,0,L|437:241,1,59.9999981689454,2|8,0:0|0:0,0:0:0:0:
300,120,50022,2,0,L|375:133,1,59.9999981689454,2|0,0:0|0:0,0:0:0:0:
491,33,50393,1,2,3:0:0:0:
491,33,50485,1,0,3:0:0:0:
491,33,50578,5,0,1:0:0:0:
418,4,51319,1,4,1:2:0:0:
389,77,52059,1,4,1:0:0:0:
462,106,52800,1,4,1:0:0:0:
258,34,53356,1,0,0:0:0:0:
258,34,53535,22,0,P|226:48|129:68,1,120,4|0,1:0|0:0,0:0:0:0:
0,217,54831,1,0,0:0:0:0:
45,158,55016,2,0,P|77:172|136:189,1,80,2|0,0:0|0:0,0:0:0:0:
228,279,55572,1,0,0:0:0:0:
160,249,55757,2,0,P|121:260|85:276,1,80,0|0,3:0|0:0,0:0:0:0:
108,344,56312,1,0,0:0:0:0:
228,192,56497,6,0,L|235:101,2,80,0|0|0,0:0|0:0|3:0,0:0:0:0:
262,252,57609,1,0,0:0:0:0:
346,147,57979,2,0,L|335:15,1,120
429,208,58742,2,0,L|437:142,1,59.9999981689454,0|0,3:0|0:0,0:0:0:0:
499,21,59328,1,4,0:3:0:0:
499,21,59416,1,0,3:0:0:0:
499,21,59504,37,0,1:0:0:0:
337,181,59874,1,0,1:0:0:0:
511,180,60244,5,0,1:0:0:0:
342,5,60615,1,0,1:0:0:0:
197,111,60985,38,0,B|125:100|144:167|55:146,1,150,4|0,1:0|0:0,0:0:0:0:
58,146,61633,1,0,3:0:0:0:
58,146,61726,1,2,3:0:0:0:
20,298,61911,1,0,3:0:0:0:
20,298,62096,2,0,L|28:369,1,50
133,384,62444,22,0,P|149:345|169:156,1,225.000008583069,4|0,1:0|0:0,0:0:0:0:
27,0,63183,2,0,P|6:45|2:154,1,150.000005722046,10|0,0:0|0:0,0:0:0:0:
238,110,63737,1,0,3:0:0:0:
238,110,63830,1,0,0:0:0:0:
238,110,63922,1,2,0:0:0:0:
171,46,64107,1,2,3:3:0:0:
109,179,64292,2,0,P|113:229|116:279,1,75.0000028610231,0|0,1:0|0:0,0:0:0:0:
327,207,64662,2,0,P|333:133|356:24,1,150.000005722046,10|0,0:0|0:0,0:0:0:0:
409,11,65216,1,0,3:0:0:0:
272,19,65401,5,0,1:0:0:0:
429,123,65586,1,0,3:0:0:0:
311,227,65771,2,0,L|229:210,1,75.0000028610231,4|0,0:0|0:0,0:0:0:0:
507,293,66140,2,0,P|447:305|347:358,1,150.000005722046,10|0,0:0|0:0,0:0:0:0:
185,288,66695,1,0,3:0:0:0:
185,288,66787,1,0,3:0:0:0:
185,288,66880,53,2,1:2:0:0:
286,359,67065,1,2,3:0:0:0:
368,211,67249,2,0,L|356:132,1,75.0000028610231,2|0,1:2|0:0,0:0:0:0:
301,275,67619,37,10,3:2:0:0:
203,188,67804,1,2,3:2:0:0:
86,310,67989,2,0,L|77:389,1,75.0000028610231,2|0,0:0|0:0,0:0:0:0:
23,254,68358,6,0,P|30:215|41:89,1,150.000005722046,0|0,1:2|0:0,0:0:0:0:
224,0,69098,2,0,P|217:39|206:165,1,150.000005722046,8|0,0:0|0:0,0:0:0:0:
132,75,69652,1,0,3:0:0:0:
132,75,69745,1,0,3:0:0:0:
132,75,69837,53,2,1:2:0:0:
304,148,70022,1,0,0:0:0:0:
149,241,70207,1,6,0:0:0:0:
202,160,70392,37,2,3:0:0:0:
202,160,70484,1,2,3:0:0:0:
202,160,70577,1,2,3:0:0:0:
350,283,70761,1,4,3:0:0:0:
396,111,70946,1,4,3:0:0:0:
225,278,71131,5,2,3:2:0:0:
446,360,71316,2,0,L|477:187,1,150.000005722046,4|0,1:0|0:0,0:0:0:0:
406,4,71870,1,0,3:0:0:0:
406,4,72055,2,0,L|389:88,1,75.0000028610231,10|0,0:0|0:0,0:0:0:0:
331,329,72425,2,0,P|293:323|259:309,1,75.0000028610231,2|0,0:0|3:0,0:0:0:0:
251,301,72702,1,0,3:0:0:0:
248,290,72795,54,0,P|254:252|253:197,1,75.0000028610231,4|0,1:2|0:0,0:0:0:0:
282,8,73164,38,0,P|282:45|287:82,1,75.0000028610231,4|0,3:0|0:0,0:0:0:0:
293,96,73442,1,0,0:0:0:0:
301,108,73534,5,10,0:0:0:0:
177,40,73719,1,4,3:0:0:0:
88,215,73904,53,4,3:0:0:0:
212,147,74089,1,0,3:0:0:0:
99,0,74273,38,0,P|110:65|115:170,2,150.000005722046,4|0|8,1:0|0:0|0:0,0:0:0:0:
181,39,75198,1,0,0:0:0:0:
0,233,75383,6,0,P|57:243|117:295,1,112.500004291535,4|0,1:0|0:0,0:0:0:0:
129,295,75752,2,0,P|139:248|153:201,1,75.0000028610231,2|0,3:2|0:0,0:0:0:0:
4,13,76122,2,0,P|15:62|30:103,1,75.0000028610231,0|0,1:0|0:0,0:0:0:0:
243,123,76492,1,10,0:0:0:0:
121,13,76676,1,0,0:0:0:0:
48,153,76861,1,6,0:0:0:0:
251,42,77046,1,0,3:0:0:0:
265,44,77139,1,0,3:0:0:0:
279,46,77231,53,4,1:0:0:0:
419,19,77416,1,2,3:0:0:0:
346,164,77601,37,2,3:0:0:0:
462,195,77786,1,4,3:0:0:0:
338,312,77970,5,4,3:0:0:0:
435,286,78155,1,4,3:0:0:0:
203,275,78340,53,4,1:0:0:0:
271,384,78525,1,2,0:0:0:0:
271,384,78710,2,0,P|285:338|293:235,1,150.000005722046,2|0,0:0|1:0,0:0:0:0:
162,26,79264,1,0,3:0:0:0:
162,26,79357,1,2,3:0:0:0:
162,26,79449,1,2,3:0:0:0:
287,134,79634,1,4,3:0:0:0:
136,194,79819,1,4,3:0:0:0:
190,111,80004,37,2,0:0:0:0:
16,224,80188,2,0,L|48:392,1,150.000005722046,4|0,1:0|0:0,0:0:0:0:
288,133,80928,2,0,L|256:301,1,150.000005722046,10|0,0:0|0:0,0:0:0:0:
394,376,81482,1,0,3:0:0:0:
394,376,81575,1,0,3:0:0:0:
394,376,81667,6,0,P|410:325|412:288,1,75.0000028610231,2|2,1:2|3:0,0:0:0:0:
310,101,82037,1,0,1:0:0:0:
483,223,82222,1,0,0:0:0:0:
463,78,82407,53,10,0:0:0:0:
340,235,82591,1,2,0:0:0:0:
213,93,82776,37,0,0:0:0:0:
388,169,82961,1,2,0:0:0:0:
245,291,83146,2,0,P|236:345|236:380,1,75.0000028610231,4|0,1:0|0:0,0:0:0:0:
306,157,83555,5,8,3:3:0:0:
350,222,83741,2,0,P|357:259|362:296,1,69.9999978637696,8|0,3:3|0:0,0:0:0:0:
192,84,84099,1,4,3:3:0:0:
142,151,84282,2,0,P|135:188|130:225,1,69.9999978637696,4|0,3:3|0:0,0:0:0:0:
271,1,84656,70,0,L|253:252,1,240,4|0,1:0|0:0,0:0:0:0:
253,240,86182,1,2,0:0:0:0:
