osu file format v14

[General]
AudioFilename: audio.mp3
AudioLeadIn: 0
PreviewTime: 77925
Countdown: 1
SampleSet: None
StackLeniency: 0.7
Mode: 0
LetterboxInBreaks: 0
WidescreenStoryboard: 0

[Editor]
DistanceSpacing: 0.8
BeatDivisor: 4
GridSize: 4
TimelineZoom: 1.5

[Metadata]
Title:don coi
TitleUnicode:don coi
Artist:your lie in april
ArtistUnicode:your lie in april
Creator:-[-[--R--]-]-
Version:owo
Source:
Tags:lonely
BeatmapID:2058013
BeatmapSetID:983513

[Difficulty]
HPDrainRate:5
CircleSize:4
OverallDifficulty:7
ApproachRate:9.2
SliderMultiplier:1.4
SliderTickRate:1

[Events]
//Background and Video events
0,0,"your lie in april quick.png",0,0
//Break Periods
//Storyboard Layer 0 (Background)
//Storyboard Layer 1 (Fail)
//Storyboard Layer 2 (Pass)
//Storyboard Layer 3 (Foreground)
//Storyboard Sound Samples

[TimingPoints]
1425,-100,4,1,0,35,0,0
2925,375,4,1,0,35,1,0
5925,-80,4,1,0,35,0,0
8925,-71.4285714285714,4,1,0,35,0,0
13425,-50,4,1,0,35,0,0
26925,-71.4285714285714,4,1,0,35,0,0
47925,-57.1428571428571,4,1,0,35,0,0
59925,-50,4,1,0,35,0,0
71925,-47.6190476190476,4,1,0,35,0,0
74925,-41.6666666666667,4,1,0,35,0,0
77925,-38.4615384615385,4,1,0,35,0,0
95925,-133.333333333333,4,1,0,35,0,0

[HitObjects]
256,192,1425,12,0,2737,0:0:0:0:
149,73,2925,6,0,L|167:169,1,70
190,273,3300,1,0,0:0:0:0:
291,180,3487,1,0,0:0:0:0:
189,313,3675,2,0,P|152:322|112:317,1,70
34,168,4050,5,0,0:0:0:0:
30,294,4237,1,0,0:0:0:0:
30,294,4331,1,0,0:0:0:0:
30,294,4425,2,0,P|49:348|51:378,1,70
176,182,4800,2,0,P|174:228|179:259,1,70
71,111,5175,6,0,P|86:160|87:207,1,70
304,29,5550,2,0,P|298:68|306:110,1,70
459,340,5925,6,0,L|399:268,1,87.5
294,124,6300,1,0,0:0:0:0:
168,215,6487,1,0,0:0:0:0:
324,153,6675,2,0,P|371:117|386:86,1,87.5
221,8,7050,5,0,0:0:0:0:
480,81,7237,1,0,0:0:0:0:
480,81,7331,1,0,0:0:0:0:
480,81,7425,2,0,P|451:137|447:177,1,87.5
328,82,7800,2,0,P|294:123|247:145,1,87.5
435,259,8175,6,0,P|417:316|425:353,1,87.5
143,190,8550,2,0,P|102:227|56:248,1,87.5
75,30,8925,6,0,L|121:137,1,97.9999970092774
197,284,9300,1,0,0:0:0:0:
30,262,9487,1,0,0:0:0:0:
183,223,9675,2,0,P|263:202|315:227,1,97.9999970092774
392,352,10050,5,0,0:0:0:0:
378,94,10237,1,0,0:0:0:0:
378,94,10331,1,0,0:0:0:0:
378,94,10425,2,0,L|373:199,1,97.9999970092774
229,137,10800,2,0,L|242:263,1,97.9999970092774
482,195,11175,6,0,L|456:304,1,97.9999970092774
159,253,11550,2,0,L|179:361,1,97.9999970092774
397,172,11925,5,0,0:0:0:0:
369,301,12112,1,0,0:0:0:0:
253,131,12300,5,0,0:0:0:0:
265,280,12487,1,0,0:0:0:0:
402,57,12675,5,0,0:0:0:0:
375,285,12862,1,0,0:0:0:0:
230,27,13050,5,0,0:0:0:0:
261,263,13237,1,0,0:0:0:0:
398,73,13425,6,0,P|446:92|489:176,1,140
255,160,13800,2,0,P|197:196|171:268,1,140
197,383,14175,5,0,0:0:0:0:
114,146,14362,1,0,0:0:0:0:
316,269,14550,1,0,0:0:0:0:
66,298,14737,1,0,0:0:0:0:
239,168,14925,6,0,P|324:113|372:118,1,140
402,299,15300,1,0,0:0:0:0:
443,62,15487,1,0,0:0:0:0:
471,309,15675,6,0,P|434:349|329:354,1,140
119,266,16050,1,0,0:0:0:0:
367,192,16237,1,0,0:0:0:0:
367,192,16331,1,0,0:0:0:0:
367,192,16425,1,0,0:0:0:0:
119,71,16612,5,0,0:0:0:0:
409,222,16800,1,0,0:0:0:0:
171,290,16987,1,0,0:0:0:0:
328,31,17175,1,0,0:0:0:0:
220,311,17362,1,0,0:0:0:0:
461,245,17550,1,0,0:0:0:0:
116,350,17737,1,0,0:0:0:0:
327,230,17925,6,0,P|366:182|380:96,1,140
218,274,18300,1,0,0:0:0:0:
142,88,18487,1,0,0:0:0:0:
103,241,18675,2,0,L|79:385,1,140
202,134,19050,2,0,L|218:278,1,140
184,58,19425,5,0,0:0:0:0:
235,355,19612,1,0,0:0:0:0:
293,68,19800,5,0,0:0:0:0:
245,313,19987,1,0,0:0:0:0:
89,151,20175,5,0,0:0:0:0:
337,230,20362,1,0,0:0:0:0:
337,230,20456,1,0,0:0:0:0:
337,230,20550,1,0,0:0:0:0:
182,44,20737,1,0,0:0:0:0:
206,276,20925,5,0,0:0:0:0:
279,336,21112,1,0,0:0:0:0:
296,244,21300,1,0,0:0:0:0:
218,330,21487,1,0,0:0:0:0:
331,303,21675,1,0,0:0:0:0:
244,231,21862,1,0,0:0:0:0:
417,272,22050,5,0,0:0:0:0:
148,233,22237,1,0,0:0:0:0:
371,199,22425,2,0,P|412:153|432:66,1,140
157,132,22800,2,0,P|145:51|176:-7,1,140
230,214,23175,5,0,0:0:0:0:
321,49,23362,1,0,0:0:0:0:
350,323,23550,5,0,0:0:0:0:
286,126,23737,1,0,0:0:0:0:
146,359,23925,1,0,0:0:0:0:
256,192,24112,12,0,25425,0:0:0:0:
121,88,25612,5,0,0:0:0:0:
151,157,25800,1,0,0:0:0:0:
230,98,25987,1,0,0:0:0:0:
258,226,26175,1,0,0:0:0:0:
357,73,26362,1,0,0:0:0:0:
341,301,26550,1,0,0:0:0:0:
496,101,26737,1,0,0:0:0:0:
438,367,26925,6,0,P|445:310|422:247,1,97.9999970092774
268,348,27300,2,0,P|264:298|287:225,1,97.9999970092774
385,193,27675,6,0,P|394:135|378:76,1,97.9999970092774
225,191,28050,1,0,0:0:0:0:
140,90,28237,1,0,0:0:0:0:
60,246,28425,6,0,P|106:280|161:289,1,97.9999970092774
273,126,28800,2,0,P|199:130|167:168,1,97.9999970092774
290,325,29175,2,0,P|309:272|295:198,1,97.9999970092774
230,68,29550,1,0,0:0:0:0:
147,240,29737,1,0,0:0:0:0:
374,145,29925,6,0,L|274:185,1,97.9999970092774
147,240,30300,1,0,0:0:0:0:
314,286,30487,1,0,0:0:0:0:
137,358,30675,2,0,P|76:345|41:288,1,97.9999970092774
54,100,31050,1,0,0:0:0:0:
144,285,31237,1,0,0:0:0:0:
144,157,31425,5,0,0:0:0:0:
200,92,31612,1,0,0:0:0:0:
224,173,31800,1,0,0:0:0:0:
224,173,31893,1,0,0:0:0:0:
224,173,31987,1,0,0:0:0:0:
276,58,32175,5,0,0:0:0:0:
169,241,32362,1,0,0:0:0:0:
215,12,32550,5,0,0:0:0:0:
236,293,32737,1,0,0:0:0:0:
188,89,32925,6,0,P|134:123|105:192,1,97.9999970092774
54,328,33300,1,0,0:0:0:0:
24,135,33487,1,0,0:0:0:0:
148,267,33675,2,0,P|203:271|256:262,1,97.9999970092774
390,182,34050,1,0,0:0:0:0:
180,182,34237,1,0,0:0:0:0:
333,102,34425,6,0,L|465:106,1,97.9999970092774
285,243,34800,2,0,L|393:200,1,97.9999970092774
153,87,35175,2,0,L|244:157,1,97.9999970092774
394,269,35550,1,0,0:0:0:0:
173,261,35737,1,0,0:0:0:0:
246,309,35925,5,0,0:0:0:0:
201,207,36112,1,0,0:0:0:0:
150,303,36300,1,0,0:0:0:0:
297,217,36487,5,0,0:0:0:0:
115,226,36675,1,0,0:0:0:0:
203,362,36862,1,0,0:0:0:0:
14,263,37050,5,0,0:0:0:0:
320,311,37237,1,0,0:0:0:0:
320,311,37331,1,0,0:0:0:0:
320,311,37425,1,0,0:0:0:0:
217,178,37612,1,0,0:0:0:0:
148,341,37800,1,0,0:0:0:0:
301,108,37987,5,0,0:0:0:0:
377,292,38175,1,0,0:0:0:0:
204,40,38362,5,0,0:0:0:0:
114,212,38550,1,0,0:0:0:0:
386,22,38737,1,0,0:0:0:0:
381,221,38925,2,0,L|375:333,1,97.9999970092774
291,272,39300,1,0,0:0:0:0:
205,336,39487,1,0,0:0:0:0:
125,230,39675,6,0,L|241:258,1,97.9999970092774
326,189,40050,1,0,0:0:0:0:
293,76,40237,1,0,0:0:0:0:
240,173,40425,2,0,L|193:279,1,97.9999970092774
49,88,40800,2,0,L|66:216,1,97.9999970092774
162,25,41175,2,0,L|138:144,1,97.9999970092774
89,297,41550,1,0,0:0:0:0:
235,235,41737,1,0,0:0:0:0:
61,196,41925,6,0,L|171:223,1,97.9999970092774
351,259,42300,1,0,0:0:0:0:
202,109,42487,1,0,0:0:0:0:
251,350,42675,2,0,L|229:244,1,97.9999970092774
324,182,43050,2,0,L|358:62,1,97.9999970092774
400,247,43425,6,0,L|310:285,1,97.9999970092774
181,108,43800,2,0,L|251:178,1,97.9999970092774
382,318,44175,1,0,0:0:0:0:
158,239,44362,1,0,0:0:0:0:
397,113,44550,1,0,0:0:0:0:
287,368,44737,1,0,0:0:0:0:
209,126,44925,6,0,P|142:112|96:133,1,97.9999970092774
15,204,45300,1,0,0:0:0:0:
83,325,45487,1,0,0:0:0:0:
163,181,45675,1,0,0:0:0:0:
229,350,45862,2,0,P|306:363|363:335,1,97.9999970092774
434,126,46237,1,0,0:0:0:0:
465,275,46425,5,0,0:0:0:0:
351,171,46612,1,0,0:0:0:0:
320,338,46800,1,0,0:0:0:0:
250,128,46987,1,0,0:0:0:0:
185,348,47175,2,0,L|175:235,1,97.9999970092774
20,283,47550,2,0,L|47:154,1,97.9999970092774
233,52,47925,6,0,P|296:67|373:228,1,245.000002336502
70,88,48487,1,0,0:0:0:0:
59,291,48675,2,0,B|217:266|134:365|319:339,1,245.000002336502
332,29,49237,1,0,0:0:0:0:
402,282,49425,5,0,0:0:0:0:
330,71,49612,1,0,0:0:0:0:
258,318,49800,5,0,0:0:0:0:
329,118,49987,1,0,0:0:0:0:
487,262,50175,5,0,0:0:0:0:
220,192,50362,1,0,0:0:0:0:
402,72,50550,1,0,0:0:0:0:
321,330,50737,1,0,0:0:0:0:
151,98,50925,6,0,P|102:142|90:208,1,122.500001168251
333,126,51300,2,0,P|293:41|235:18,1,122.500001168251
184,274,51675,2,0,B|214:323|214:323|327:301,1,122.500001168251
435,262,52050,1,0,0:0:0:0:
235,190,52237,1,0,0:0:0:0:
424,172,52425,6,0,P|478:132|480:71,1,122.500001168251
323,320,52800,2,0,P|305:243|362:164,1,122.500001168251
104,349,53175,2,0,B|165:366|165:366|226:339,1,122.500001168251
50,129,53550,1,0,0:0:0:0:
14,315,53737,1,0,0:0:0:0:
156,232,53925,6,0,P|219:209|284:227,1,122.500001168251
454,183,54300,2,0,P|381:163|333:99,1,122.500001168251
139,27,54675,2,0,B|114:88|114:88|133:160,1,122.500001168251
190,352,55050,1,0,0:0:0:0:
53,193,55237,1,0,0:0:0:0:
281,227,55425,6,0,P|351:268|381:318,1,122.500001168251
501,135,55800,2,0,P|435:156|408:217,1,122.500001168251
230,96,56175,1,0,0:0:0:0:
222,112,56268,1,0,0:0:0:0:
215,128,56362,1,0,0:0:0:0:
207,144,56456,1,0,0:0:0:0:
200,159,56550,2,0,L|135:298,1,122.500001168251
301,182,56925,6,0,P|380:168|449:209,1,122.500001168251
361,260,57300,1,0,0:0:0:0:
238,117,57487,1,0,0:0:0:0:
203,298,57675,2,0,B|152:320|152:320|81:293,1,122.500001168251
18,208,58050,5,0,0:0:0:0:
107,89,58237,1,0,0:0:0:0:
216,197,58425,2,0,P|213:286|196:328,1,122.500001168251
374,70,58800,2,0,P|365:157|379:209,1,122.500001168251
229,103,59175,5,0,0:0:0:0:
151,256,59362,1,0,0:0:0:0:
427,139,59550,5,0,0:0:0:0:
500,281,59737,1,0,0:0:0:0:
278,313,59925,6,0,P|198:339|111:312,1,140
58,107,60300,1,0,0:0:0:0:
16,325,60487,1,0,0:0:0:0:
194,102,60675,6,0,L|208:259,1,140
100,24,61050,2,0,L|43:182,1,140
318,26,61425,1,0,0:0:0:0:
171,328,61612,2,0,P|101:289|92:203,1,140
74,32,61987,1,0,0:0:0:0:
250,201,62175,1,0,0:0:0:0:
328,28,62362,1,0,0:0:0:0:
459,203,62550,1,0,0:0:0:0:
103,50,62737,1,0,0:0:0:0:
264,230,62925,6,0,L|360:340,1,140
206,324,63300,2,0,B|148:297|136:361|26:303,1,140
91,83,63675,2,0,P|119:171|96:236,1,140
314,18,64050,2,0,P|301:105|317:157,1,140
431,318,64425,1,0,0:0:0:0:
225,205,64612,1,0,0:0:0:0:
433,141,64800,1,0,0:0:0:0:
308,335,64987,1,0,0:0:0:0:
296,84,65175,6,0,L|353:229,1,140
220,225,65550,2,0,L|173:378,1,140
125,109,65925,6,0,P|183:67|289:92,1,140
425,223,66300,2,0,P|348:296|266:267,1,140
111,219,66675,1,0,0:0:0:0:
306,127,66862,1,0,0:0:0:0:
208,366,67050,6,0,P|215:273|191:182,1,140
342,376,67425,2,0,P|353:268|378:203,1,140
451,73,67800,1,0,0:0:0:0:
273,142,67987,1,0,0:0:0:0:
501,257,68175,2,0,L|364:189,1,140
241,351,68550,2,0,L|407:309,1,140
173,178,68925,6,0,B|146:247|146:247|160:348,1,140
298,154,69300,1,0,0:0:0:0:
433,293,69487,1,0,0:0:0:0:
501,132,69675,2,0,P|487:57|415:29,1,140
313,208,70050,1,0,0:0:0:0:
210,37,70237,1,0,0:0:0:0:
97,204,70425,2,0,L|24:332,1,140
351,119,70800,2,0,L|418:273,1,140
183,86,71175,6,0,P|119:71|35:159,1,140
335,297,71550,2,0,P|425:312|469:280,1,140
364,70,71925,6,0,L|388:233,1,146.999995513916
411,363,72300,1,0,0:0:0:0:
371,141,72487,1,0,0:0:0:0:
223,47,72675,6,0,L|195:215,1,146.999995513916
166,337,73050,1,0,0:0:0:0:
210,117,73237,1,0,0:0:0:0:
382,46,73425,5,0,0:0:0:0:
436,300,73612,1,0,0:0:0:0:
278,45,73800,5,0,0:0:0:0:
201,270,73987,1,0,0:0:0:0:
502,142,74175,5,0,0:0:0:0:
177,112,74362,1,0,0:0:0:0:
486,183,74550,1,0,0:0:0:0:
168,158,74737,1,0,0:0:0:0:
306,248,74925,6,0,B|286:249|281:270|281:270|281:294|309:306|309:306|339:310|352:291|352:291|360:269|363:45,1,335.999989746094
185,294,75487,1,0,0:0:0:0:
356,52,75675,5,0,0:0:0:0:
408,348,75862,1,0,0:0:0:0:
195,99,76050,5,0,0:0:0:0:
474,213,76237,1,0,0:0:0:0:
134,326,76425,2,0,B|142:278|92:247|92:247|152:193|152:193|67:117|149:7,1,335.999989746094
249,14,76987,1,0,0:0:0:0:
279,36,77081,1,0,0:0:0:0:
307,53,77175,1,0,0:0:0:0:
467,164,77362,1,0,0:0:0:0:
179,153,77550,1,0,0:0:0:0:
408,318,77737,1,0,0:0:0:0:
119,347,77925,6,0,P|90:238|119:140,1,181.999991668702
220,10,78300,1,0,0:0:0:0:
262,309,78487,1,0,0:0:0:0:
78,62,78675,2,0,L|44:269,1,181.999991668702
307,333,79050,5,0,0:0:0:0:
210,171,79237,1,0,0:0:0:0:
210,171,79331,1,0,0:0:0:0:
210,171,79425,1,0,0:0:0:0:
140,355,79612,1,0,0:0:0:0:
349,190,79800,1,0,0:0:0:0:
48,221,79987,1,0,0:0:0:0:
245,360,80175,1,0,0:0:0:0:
220,45,80362,1,0,0:0:0:0:
130,316,80550,5,0,0:0:0:0:
193,17,80738,1,0,0:0:0:0:
245,335,80925,2,0,P|328:372|432:333,1,181.999991668702
465,42,81300,1,0,0:0:0:0:
502,246,81487,1,0,0:0:0:0:
344,89,81675,2,0,L|301:273,1,181.999991668702
168,54,82050,5,0,0:0:0:0:
211,249,82237,1,0,0:0:0:0:
93,132,82425,5,0,0:0:0:0:
41,344,82612,1,0,0:0:0:0:
252,79,82800,1,0,0:0:0:0:
345,299,82987,1,0,0:0:0:0:
179,130,83175,5,0,0:0:0:0:
128,349,83362,1,0,0:0:0:0:
128,349,83456,1,0,0:0:0:0:
128,349,83550,1,0,0:0:0:0:
350,170,83737,1,0,0:0:0:0:
61,226,83925,1,0,0:0:0:0:
397,292,84112,5,0,0:0:0:0:
102,218,84300,1,0,0:0:0:0:
432,118,84487,5,0,0:0:0:0:
145,209,84675,1,0,0:0:0:0:
465,295,84862,5,0,0:0:0:0:
191,198,85050,1,0,0:0:0:0:
334,9,85237,1,0,0:0:0:0:
323,280,85425,2,0,P|223:335|143:318,1,181.999991668702
32,77,85800,2,0,P|124:91|170:181,1,181.999991668702
193,363,86175,1,0,0:0:0:0:
278,124,86362,1,0,0:0:0:0:
366,304,86550,1,0,0:0:0:0:
447,172,86737,1,0,0:0:0:0:
195,332,86925,6,0,P|257:250|344:211,1,181.999991668702
115,255,87300,1,0,0:0:0:0:
489,244,87487,1,0,0:0:0:0:
359,85,87675,6,0,L|376:288,1,181.999991668702
117,110,88050,5,0,0:0:0:0:
289,27,88237,1,0,0:0:0:0:
289,27,88331,1,0,0:0:0:0:
289,27,88425,1,0,0:0:0:0:
268,216,88612,1,0,0:0:0:0:
171,16,88800,1,0,0:0:0:0:
351,131,88987,1,0,0:0:0:0:
131,228,89175,1,0,0:0:0:0:
235,15,89362,1,0,0:0:0:0:
283,307,89550,5,0,0:0:0:0:
233,0,89737,1,0,0:0:0:0:
207,339,89925,2,0,P|101:364|19:345,1,181.999991668702
30,36,90300,1,0,0:0:0:0:
1,267,90487,1,0,0:0:0:0:
145,102,90675,2,0,L|151:293,1,181.999991668702
338,26,91050,5,0,0:0:0:0:
264,266,91237,1,0,0:0:0:0:
426,109,91425,2,0,L|436:330,1,181.999991668702
207,75,91800,2,0,L|145:273,1,181.999991668702
429,61,92175,5,0,0:0:0:0:
155,278,92362,1,0,0:0:0:0:
155,278,92456,1,0,0:0:0:0:
155,278,92550,1,0,0:0:0:0:
261,92,92737,1,0,0:0:0:0:
333,369,92925,1,0,0:0:0:0:
239,131,93112,5,0,0:0:0:0:
84,344,93300,1,0,0:0:0:0:
309,174,93487,5,0,0:0:0:0:
455,352,93675,1,0,0:0:0:0:
181,146,93862,5,0,0:0:0:0:
6,253,94050,1,0,0:0:0:0:
246,356,94237,5,0,0:0:0:0:
91,89,94425,2,0,P|86:187|120:270,1,181.999991668702
363,35,94800,2,0,P|376:158|341:233,1,181.999991668702
170,358,95175,1,0,0:0:0:0:
255,74,95362,1,0,0:0:0:0:
321,373,95550,2,0,P|205:276|147:289,1,181.999991668702
256,192,95925,12,0,97425,0:0:0:0:
212,128,97612,5,0,0:0:0:0:
195,268,97800,1,0,0:0:0:0:
336,67,97987,1,0,0:0:0:0:
186,244,98175,5,0,0:0:0:0:
333,98,98362,1,0,0:0:0:0:
377,376,98550,1,0,0:0:0:0:
512,184,98737,1,0,0:0:0:0:
