osu file format v14

[General]
AudioFilename: Light in Baby Tree.mp3
AudioLeadIn: 0
PreviewTime: 18250
Countdown: 0
SampleSet: Normal
StackLeniency: 0.7
Mode: 3
LetterboxInBreaks: 0
SpecialStyle: 0
WidescreenStoryboard: 1

[Editor]
Bookmarks: 218,18218,29252,40286,51321,62355,84424,105114,106493,128562,139597,150631,161666
DistanceSpacing: 0.8
BeatDivisor: 4
GridSize: 32
TimelineZoom: 1.5

[Metadata]
Title:Light in Baby Tree
TitleUnicode:Light in Baby Tree
Artist:youmi
ArtistUnicode:youmi
Creator:SurfChu85
Version:seedling (insane)
Source:
Tags:Kiyama Kazutaka NewAge New Age Healing Chill Chillout Piano Music Box Electronic Instrumental Lenfried- Koibenii
BeatmapID:1898033
BeatmapSetID:909582

[Difficulty]
HPDrainRate:7.5
CircleSize:7
OverallDifficulty:7.5
ApproachRate:5
SliderMultiplier:1.4
SliderTickRate:1

[Events]
//Background and Video events
0,0,"bg.jpg",0,0
//Break Periods
//Storyboard Layer 0 (Background)
//Storyboard Layer 1 (Fail)
//Storyboard Layer 2 (Pass)
//Storyboard Layer 3 (Foreground)
//Storyboard Layer 4 (Overlay)
//Storyboard Sound Samples
Sample,29252,0,"LR_Kick Normal Med.wav",65
Sample,30459,0,"LR_Kick Normal Med.wav",65
Sample,33217,0,"LR_Kick Normal Med.wav",65
Sample,34424,0,"LR_Kick Normal Med.wav",65
Sample,34597,0,"LR5_HiHat NSynth.wav",65
Sample,34769,0,"LR_Kick Normal Med.wav",65
Sample,35976,0,"LR_Kick Normal Med.wav",65
Sample,38735,0,"LR_Kick Normal Med.wav",65
Sample,39942,0,"LR_Kick Normal Med.wav",65
Sample,40114,0,"LR5_HiHat NSynth.wav",65
Sample,40631,0,"bell2.wav",45
Sample,41493,0,"LR_Kick Normal Med.wav",65
Sample,42011,0,"bell2.wav",45
Sample,43390,0,"bell2.wav",45
Sample,44252,0,"LR_Kick Normal Med.wav",65
Sample,44769,0,"bell2.wav",45
Sample,45114,0,"bell2.wav",45
Sample,47011,0,"LR_Kick Normal Med.wav",65
Sample,47528,0,"bell2.wav",45
Sample,48390,0,"bell2.wav",45
Sample,48907,0,"bell2.wav",45
Sample,49252,0,"bell2.wav",45
Sample,49769,0,"LR_Kick Normal Med.wav",65
Sample,50631,0,"bell2.wav",45
Sample,50976,0,"LR_Kick Normal Med.wav",65
Sample,51149,0,"LR5_HiHat NSynth.wav",65
Sample,51321,0,"cymbal whistle.wav",65
Sample,52528,0,"LR_Kick Normal Med.wav",65
Sample,53390,0,"bell2.wav",45
Sample,53907,0,"bell2.wav",45
Sample,56149,0,"bell2.wav",45
Sample,58045,0,"LR_Kick Normal Med.wav",65
Sample,59424,0,"bell2.wav",45
Sample,61666,0,"bell2.wav",45
Sample,62183,0,"LR5_HiHat NSynth.wav",65
Sample,62355,0,"bell2.wav",45
Sample,62700,0,"LR_HiHat Click2.wav",65
Sample,63045,0,"LR_Drum Hit Open 2.wav",65
Sample,63907,0,"LR_Drum Hit Open 2.wav",65
Sample,64080,0,"LR_Kick Normal Med.wav",65
Sample,64424,0,"LR_Drum Hit Open 2.wav",65
Sample,65114,0,"bell2.wav",45
Sample,65804,0,"LR_Drum Hit Open 2.wav",65
Sample,66321,0,"LR5_HiHat NSynth.wav",65
Sample,67183,0,"LR_Drum Hit Open 2.wav",65
Sample,67528,0,"LR_HiHat Click2.wav",65
Sample,67700,0,"LR5_HiHat NSynth.wav",65
Sample,67873,0,"bell2.wav",45
Sample,68562,0,"LR_Drum Hit Open 2.wav",65
Sample,69424,0,"LR_Drum Hit Open 2.wav",65
Sample,69597,0,"LR_Kick Normal Med.wav",65
Sample,69942,0,"LR_Drum Hit Open 2.wav",65
Sample,70459,0,"LR_HiHat Click2.wav",65
Sample,71321,0,"LR_Drum Hit Open 2.wav",65
Sample,71838,0,"LR5_HiHat NSynth.wav",65
Sample,72183,0,"LR_Drum Hit Open 2.wav",65
Sample,72355,0,"LR_Kick Normal Med.wav",65
Sample,72700,0,"LR_Drum Hit Open 2.wav",65
Sample,73045,0,"LR_HiHat Click2.wav",65
Sample,73217,0,"LR5_HiHat NSynth.wav",65
Sample,73390,0,"LR_HiHat Click2.wav",65
Sample,73390,0,"bell2.wav",45
Sample,73735,0,"LR_HiHat Click2.wav",65
Sample,74080,0,"LR_Drum Hit Open 2.wav",65
Sample,74942,0,"LR_Drum Hit Open 2.wav",65
Sample,75114,0,"LR_Kick Normal Med.wav",65
Sample,75459,0,"LR_Drum Hit Open 2.wav",65
Sample,76149,0,"bell2.wav",45
Sample,76838,0,"LR_Drum Hit Open 2.wav",65
Sample,77355,0,"LR5_HiHat NSynth.wav",65
Sample,78217,0,"LR_Drum Hit Open 2.wav",65
Sample,78562,0,"LR_HiHat Click2.wav",65
Sample,78735,0,"LR5_HiHat NSynth.wav",65
Sample,79597,0,"LR_Drum Hit Open 2.wav",65
Sample,80459,0,"LR_Drum Hit Open 2.wav",65
Sample,80631,0,"LR_Kick Normal Med.wav",65
Sample,80976,0,"LR_Drum Hit Open 2.wav",65
Sample,81493,0,"LR_HiHat Click2.wav",65
Sample,81666,0,"bell2.wav",45
Sample,82011,0,"LR_HiHat Click2.wav",65
Sample,82355,0,"LR_Drum Hit Open 2.wav",65
Sample,82873,0,"LR5_HiHat NSynth.wav",65
Sample,83217,0,"LR_Drum Hit Open 2.wav",65
Sample,84252,0,"LR5_HiHat NSynth.wav",65
Sample,84424,0,"cymbal whistle.wav",65
Sample,84424,0,"LR_HiHat Click2.wav",65
Sample,84769,0,"LR_HiHat Click2.wav",65
Sample,85114,0,"LR_Drum Hit Open 2.wav",65
Sample,85976,0,"LR_Drum Hit Open 2.wav",65
Sample,86149,0,"LR_Kick Normal Med.wav",65
Sample,86493,0,"LR_Drum Hit Open 2.wav",65
Sample,86838,0,"LR_HiHat Click2.wav",65
Sample,87528,0,"LR_HiHat Click2.wav",65
Sample,87873,0,"LR_Drum Hit Open 2.wav",65
Sample,88390,0,"LR5_HiHat NSynth.wav",65
Sample,88735,0,"LR_Drum Hit Open 2.wav",65
Sample,89252,0,"LR_Drum Hit Open 2.wav",65
Sample,89597,0,"LR_HiHat Click2.wav",65
Sample,90286,0,"LR_HiHat Click2.wav",65
Sample,90631,0,"LR_Drum Hit Open 2.wav",65
Sample,91493,0,"LR_Drum Hit Open 2.wav",65
Sample,91666,0,"LR_Kick Normal Med.wav",65
Sample,92011,0,"LR_Drum Hit Open 2.wav",65
Sample,92355,0,"LR_HiHat Click2.wav",65
Sample,92528,0,"LR_HiHat Click2.wav",65
Sample,93045,0,"LR_HiHat Click2.wav",65
Sample,93390,0,"LR_Drum Hit Open 2.wav",65
Sample,93907,0,"LR5_HiHat NSynth.wav",65
Sample,94252,0,"LR_Drum Hit Open 2.wav",65
Sample,94424,0,"LR_Kick Normal Med.wav",65
Sample,94769,0,"LR_Drum Hit Open 2.wav",65
Sample,95114,0,"LR_Kick Normal Med.wav",65
Sample,95286,0,"LR5_HiHat NSynth.wav",65
Sample,95459,0,"LR_HiHat Click2.wav",65
Sample,95804,0,"LR_HiHat Click2.wav",65
Sample,96149,0,"LR_Drum Hit Open 2.wav",65
Sample,97011,0,"LR_Drum Hit Open 2.wav",65
Sample,97183,0,"LR_Kick Normal Med.wav",65
Sample,97528,0,"LR_Drum Hit Open 2.wav",65
Sample,97873,0,"LR_HiHat Click2.wav",65
Sample,98045,0,"LR_HiHat Click2.wav",65
Sample,98562,0,"LR_HiHat Click2.wav",65
Sample,99424,0,"LR5_HiHat NSynth.wav",65
Sample,99769,0,"LR_Drum Hit Open 2.wav",65
Sample,100286,0,"LR_Drum Hit Open 2.wav",65
Sample,100631,0,"LR_Kick Normal Med.wav",65
Sample,100804,0,"LR5_HiHat NSynth.wav",65
Sample,100976,0,"LR_HiHat Click2.wav",65
Sample,101666,0,"LR_Drum Hit Open 2.wav",65
Sample,102528,0,"LR_Drum Hit Open 2.wav",65
Sample,103390,0,"LR_HiHat Click2.wav",65
Sample,103562,0,"LR_HiHat Click2.wav",65
Sample,104769,0,"LR_Kick Normal Med.wav",65
Sample,104942,0,"LR5_HiHat NSynth.wav",65
Sample,105114,0,"LR_Kick Normal Med.wav",65
Sample,105459,0,"bitter hat.wav",65
Sample,105804,0,"LR_Drum Hit Open 2.wav",65
Sample,106838,0,"bell2.wav",45
Sample,107700,0,"LR_Kick Normal Med.wav",65
Sample,108217,0,"bell2.wav",45
Sample,108562,0,"bell2.wav",45
Sample,109080,0,"bell2.wav",45
Sample,109597,0,"bell2.wav",45
Sample,110459,0,"LR_Kick Normal Med.wav",65
Sample,110976,0,"bell2.wav",45
Sample,111321,0,"LR_Kick Normal Med.wav",65
Sample,111321,0,"bell2.wav",45
Sample,113217,0,"LR_Kick Normal Med.wav",65
Sample,113735,0,"bell2.wav",45
Sample,114597,0,"bell2.wav",45
Sample,115459,0,"bell2.wav",45
Sample,115976,0,"LR_Kick Normal Med.wav",65
Sample,116838,0,"LR_Kick Normal Med.wav",65
Sample,116838,0,"bell2.wav",45
Sample,117183,0,"LR_Kick Normal Med.wav",65
Sample,117355,0,"LR5_HiHat NSynth.wav",65
Sample,117528,0,"bell2.wav",45
Sample,117873,0,"bell2.wav",45
Sample,118735,0,"LR_Kick Normal Med.wav",65
Sample,119252,0,"bell2.wav",45
Sample,119597,0,"bell2.wav",45
Sample,120114,0,"bell2.wav",45
Sample,120631,0,"bell2.wav",45
Sample,121493,0,"LR_Kick Normal Med.wav",65
Sample,122011,0,"bell2.wav",45
Sample,122355,0,"LR_Kick Normal Med.wav",65
Sample,122355,0,"bell2.wav",45
Sample,124252,0,"LR_Kick Normal Med.wav",65
Sample,124769,0,"bell2.wav",45
Sample,125114,0,"bell2.wav",45
Sample,125631,0,"bell2.wav",45
Sample,126149,0,"bell2.wav",45
Sample,126493,0,"bell2.wav",45
Sample,127011,0,"LR_Kick Normal Med.wav",65
Sample,127873,0,"LR_Kick Normal Med.wav",65
Sample,127873,0,"bell2.wav",45
Sample,128217,0,"LR_Kick Normal Med.wav",65
Sample,128390,0,"LR5_HiHat NSynth.wav",65
Sample,128562,0,"bell2.wav",45
Sample,128562,0,"cymbal whistle.wav",65
Sample,129769,0,"LR_Kick Normal Med.wav",65
Sample,130976,0,"LR_Chm_Soft_NLV.wav",65
Sample,132528,0,"LR_Chm_Soft_NLV.wav",65
Sample,133735,0,"LR_Kick Normal Med.wav",65
Sample,133907,0,"LR5_HiHat NSynth.wav",65
Sample,134080,0,"bell2.wav",45
Sample,135286,0,"LR_Kick Normal Med.wav",65
Sample,138045,0,"LR_Chm_Soft_NLV.wav",65
Sample,139252,0,"LR_Chm_Soft_NLV.wav",65
Sample,139424,0,"LR5_HiHat NSynth.wav",65
Sample,139597,0,"LR_Kick Normal Med.wav",65
Sample,139597,0,"bell2.wav",45
Sample,140804,0,"LR_Kick Normal Med.wav",65
Sample,143562,0,"LR_Chm_Soft_NLV.wav",65
Sample,144769,0,"LR_Kick Normal Med.wav",65
Sample,144942,0,"LR5_HiHat NSynth.wav",65
Sample,145114,0,"bell2.wav",45
Sample,146321,0,"LR_Kick Normal Med.wav",65
Sample,149080,0,"LR_Chm_Soft_NLV.wav",65
Sample,150286,0,"LR_Chm_Soft_NLV.wav",65
Sample,150459,0,"LR5_HiHat NSynth.wav",65
Sample,150631,0,"bell2.wav",45

[TimingPoints]
218,500,4,1,1,30,1,0
218,-68.965515,4,1,1,30,0,0
18224,344.82758,4,1,1,45,1,0

[HitObjects]
182,192,218,128,0,718:0:0:0:45:bell2.wav
109,192,718,128,0,968:0:0:0:0:
182,192,968,128,0,1218:0:0:0:0:
256,192,1218,128,0,1718:0:0:0:0:
329,192,1718,128,0,2093:0:0:0:0:
329,192,2218,128,0,2718:0:0:0:45:bell2.wav
36,192,2218,128,0,3218:0:0:0:0:
475,192,2718,128,0,3218:0:0:0:0:
182,192,3218,128,0,3718:0:0:0:0:
256,192,3718,128,0,3968:0:0:0:0:
329,192,3968,128,0,4218:0:0:0:0:
402,192,4218,128,0,4718:0:0:0:45:bell2.wav
36,192,4218,128,0,5218:0:0:0:0:
329,192,4718,128,0,5218:0:0:0:0:
109,192,5218,128,0,5718:0:0:0:0:
256,192,5718,128,0,6218:0:0:0:0:
109,192,6218,128,0,7218:0:0:0:45:bell2.wav
329,192,6218,128,0,6718:0:0:0:0:
402,192,6718,128,0,7093:0:0:0:0:
402,192,7218,128,0,7718:0:0:0:0:
329,192,8218,128,0,8468:0:0:0:45:bell2.wav
109,192,8468,128,0,8718:0:0:0:0:
36,192,8468,128,0,9218:0:0:0:0:
182,192,8718,128,0,8968:0:0:0:0:
256,192,8968,128,0,9218:0:0:0:0:
329,192,9218,128,0,9718:0:0:0:0:
402,192,9718,128,0,10093:0:0:0:0:
402,192,10218,128,0,10718:0:0:0:45:bell2.wav
475,192,10718,128,0,11218:0:0:0:0:
182,192,11218,128,0,11718:0:0:0:0:
256,192,11718,128,0,11968:0:0:0:0:
329,192,11968,128,0,12218:0:0:0:0:
402,192,12218,128,0,12468:0:0:0:45:bell2.wav
36,192,12218,128,0,13218:0:0:0:0:
329,192,12468,128,0,12718:0:0:0:0:
256,192,12718,128,0,13218:0:0:0:0:
109,192,13218,128,0,13718:0:0:0:0:
182,192,13718,128,0,14218:0:0:0:0:
329,192,14218,128,0,14718:0:0:0:45:bell2.wav
36,192,14218,128,0,15218:0:0:0:0:
402,192,14718,128,0,15218:0:0:0:0:
109,192,15218,128,0,18224:0:0:0:0:
475,192,17218,128,0,17718:0:0:0:0:
402,192,17718,128,0,18224:0:0:0:0:
36,192,18224,128,0,19258:0:0:0:45:bell2.wav
182,192,18224,128,0,18568:0:0:0:0:
109,192,18568,128,0,18741:0:0:0:0:
182,192,18741,128,0,18913:0:0:0:0:
256,192,18913,128,0,19258:0:0:0:0:
329,192,19258,128,0,19517:0:0:0:0:
329,192,19603,128,0,19948:0:0:0:45:bell2.wav
475,192,19948,128,0,20292:0:0:0:0:
402,192,20292,128,0,20637:0:0:0:0:
182,192,20637,128,0,20810:0:0:0:0:
256,192,20810,128,0,20982:0:0:0:0:
329,192,20982,128,0,21327:0:0:0:45:bell2.wav
36,192,20982,128,0,21672:0:0:0:0:
256,192,21327,128,0,21672:0:0:0:0:
109,192,21672,128,0,22017:0:0:0:0:
182,192,22017,128,0,22361:0:0:0:0:
256,192,22361,128,0,22706:0:0:0:45:bell2.wav
329,192,22706,128,0,22965:0:0:0:0:
329,192,23051,128,0,23741:0:0:0:0:
182,192,23741,128,0,23913:0:0:0:45:bell2.wav
36,192,23913,128,0,24086:0:0:0:0:
109,192,24086,128,0,24258:0:0:0:0:
182,192,24258,128,0,24430:0:0:0:0:
256,192,24430,128,0,24775:0:0:0:0:
402,192,24775,128,0,25034:0:0:0:0:
402,192,25120,128,0,25465:0:0:0:45:bell2.wav
475,192,25465,128,0,25810:0:0:0:0:
329,192,25810,128,0,26155:0:0:0:0:
109,192,25810,128,0,26499:0:0:0:0:
182,192,26155,128,0,26327:0:0:0:0:
256,192,26327,128,0,26499:0:0:0:0:
329,192,26499,128,0,26672:0:0:0:45:bell2.wav
36,192,26499,128,0,27879:0:0:0:0:
256,192,26672,128,0,26844:0:0:0:0:
182,192,26844,128,0,27189:0:0:0:0:
109,192,27189,128,0,27534:0:0:0:0:
182,192,27534,128,0,27879:0:0:0:0:
256,192,27879,128,0,28223:0:0:0:45:bell2.wav
402,192,28223,128,0,28568:0:0:0:0:
475,192,28223,128,0,29258:0:0:0:0:
329,192,28568,128,0,29258:0:0:0:0:
182,192,29258,128,0,29603:0:0:0:45:bell2.wav
109,192,29603,128,0,29775:0:0:0:65:LR_Kick Normal Med.wav
182,192,29775,128,0,29948:0:0:0:0:
256,192,29948,128,0,30292:0:0:0:65:LR_Drum Hit Open 2.wav
329,192,30292,128,0,30551:0:0:0:0:
329,192,30637,128,0,30982:0:0:0:45:bell2.wav
475,192,30982,128,0,31327:0:0:0:65:LR_Kick Normal Med.wav
402,192,31327,128,0,31672:0:0:0:65:LR_Drum Hit Open 2.wav
182,192,31672,128,0,31844:0:0:0:65:LR_Kick Normal Med.wav
256,192,31844,128,0,32017:0:0:0:65:LR5_HiHat NSynth.wav
36,192,32017,128,0,32706:0:0:0:45:bell2.wav
329,192,32017,128,0,32361:0:0:0:65:LR_Kick Normal Med.wav
256,192,32361,128,0,32706:0:0:0:65:LR_Kick Normal Med.wav
109,192,32706,128,0,33051:0:0:0:65:LR_Drum Hit Open 2.wav
182,192,33051,128,0,33396:0:0:0:0:
256,192,33396,128,0,33741:0:0:0:45:bell2.wav
329,192,33741,128,0,33999:0:0:0:65:LR_Kick Normal Med.wav
329,192,34086,128,0,34775:0:0:0:65:LR_Drum Hit Open 2.wav
182,192,34775,128,0,34948:0:0:0:45:bell2.wav
36,192,34948,128,0,35120:0:0:0:0:
109,192,35120,128,0,35292:0:0:0:65:LR_Kick Normal Med.wav
182,192,35292,128,0,35465:0:0:0:0:
256,192,35465,128,0,35810:0:0:0:65:LR_Drum Hit Open 2.wav
402,192,35810,128,0,36068:0:0:0:0:
402,192,36155,128,0,36499:0:0:0:45:bell2.wav
475,192,36499,128,0,36844:0:0:0:65:LR_Kick Normal Med.wav
109,192,36844,128,0,37534:0:0:0:65:LR_Drum Hit Open 2.wav
329,192,36844,128,0,37189:0:0:0:0:
182,192,37189,128,0,37361:0:0:0:65:LR_Kick Normal Med.wav
256,192,37361,128,0,37534:0:0:0:65:LR5_HiHat NSynth.wav
36,192,37534,128,0,38913:0:0:0:45:bell2.wav
329,192,37534,128,0,37706:0:0:0:65:LR_Kick Normal Med.wav
256,192,37706,128,0,37879:0:0:0:0:
182,192,37879,128,0,38223:0:0:0:65:LR_Kick Normal Med.wav
109,192,38223,128,0,38568:0:0:0:65:LR_Drum Hit Open 2.wav
182,192,38568,128,0,38913:0:0:0:0:
256,192,38913,128,0,39258:0:0:0:45:bell2.wav
36,192,39258,128,0,40292:0:0:0:65:LR_Kick Normal Med.wav
402,192,39258,128,0,39603:0:0:0:0:
329,192,39603,128,0,40292:0:0:0:65:LR_Drum Hit Open 2.wav
182,192,40292,128,0,40637:0:0:0:45:bell2.wav
475,192,40292,128,0,40982:0:0:0:65:LR_Kick Normal Med.wav
109,192,40637,128,0,40810:0:0:0:65:LR_Kick Normal Med.wav
182,192,40810,128,0,40982:0:0:0:0:
256,192,40982,128,0,41327:0:0:0:65:LR_Drum Hit Open 2.wav
36,192,40982,128,0,41327:0:0:0:45:bell2.wav
329,192,41327,128,0,41586:0:0:0:45:bell2.wav
109,192,41327,128,0,41586:0:0:0:0:
329,192,41672,128,0,42017:0:0:0:45:bell2.wav
109,192,41672,128,0,42017:0:0:0:0:
475,192,42017,128,0,42361:0:0:0:65:LR_Kick Normal Med.wav
402,192,42361,128,0,42706:0:0:0:65:LR_Drum Hit Open 2.wav
36,192,42361,128,0,42706:0:0:0:45:bell2.wav
256,192,42706,128,0,42879:0:0:0:65:LR_Kick Normal Med.wav
109,192,42706,128,0,43051:0:0:0:45:bell2.wav
329,192,42879,128,0,43051:0:0:0:45:bell2.wav
402,192,43051,128,0,43396:0:0:0:45:bell2.wav
36,192,43051,128,0,43741:0:0:0:65:LR_Kick Normal Med.wav
182,192,43051,128,0,43741:0:0:0:0:
256,192,43396,128,0,43741:0:0:0:65:LR_Kick Normal Med.wav
109,192,43741,128,0,44086:0:0:0:65:LR_Drum Hit Open 2.wav
402,192,43741,128,0,44086:0:0:0:45:bell2.wav
182,192,44086,128,0,44430:0:0:0:45:bell2.wav
329,192,44086,128,0,44430:0:0:0:0:
256,192,44430,128,0,44775:0:0:0:45:bell2.wav
475,192,44430,128,0,44775:0:0:0:0:
329,192,44775,128,0,45034:0:0:0:65:LR_Kick Normal Med.wav
329,192,45120,128,0,45810:0:0:0:65:LR_Drum Hit Open 2.wav
36,192,45465,128,0,45637:0:0:0:65:LR_Kick Normal Med.wav
109,192,45637,128,0,45810:0:0:0:65:LR5_HiHat NSynth.wav
256,192,45810,128,0,45982:0:0:0:45:bell2.wav
475,192,45810,128,0,46155:0:0:0:65:LR_Kick Normal Med.wav
36,192,45982,128,0,47189:0:0:0:0:
182,192,45982,128,0,46155:0:0:0:0:
109,192,46155,128,0,46327:0:0:0:65:LR_Kick Normal Med.wav
402,192,46155,128,0,46499:0:0:0:45:bell2.wav
182,192,46327,128,0,46499:0:0:0:0:
256,192,46499,128,0,46844:0:0:0:65:LR_Drum Hit Open 2.wav
329,192,46499,128,0,46844:0:0:0:45:bell2.wav
402,192,46844,128,0,47103:0:0:0:45:bell2.wav
182,192,46844,128,0,47189:0:0:0:0:
402,192,47189,128,0,47534:0:0:0:45:bell2.wav
109,192,47189,128,0,47706:0:0:0:0:
475,192,47534,128,0,47879:0:0:0:65:LR_Kick Normal Med.wav
402,192,47706,128,0,48223:0:0:0:0:
256,192,47879,128,0,48223:0:0:0:65:LR_Drum Hit Open 2.wav
109,192,47879,128,0,48568:0:0:0:45:bell2.wav
182,192,48223,128,0,48396:0:0:0:65:LR_Kick Normal Med.wav
329,192,48223,128,0,48568:0:0:0:45:bell2.wav
256,192,48396,128,0,48568:0:0:0:65:LR5_HiHat NSynth.wav
36,192,48568,128,0,49948:0:0:0:45:bell2.wav
402,192,48568,128,0,48741:0:0:0:65:LR_Kick Normal Med.wav
475,192,48568,128,0,49086:0:0:0:0:
256,192,48741,128,0,48913:0:0:0:45:bell2.wav
182,192,48913,128,0,49258:0:0:0:65:LR_Kick Normal Med.wav
329,192,49086,128,0,49603:0:0:0:0:
109,192,49258,128,0,49603:0:0:0:65:LR_Drum Hit Open 2.wav
182,192,49603,128,0,49948:0:0:0:45:bell2.wav
402,192,49603,128,0,49948:0:0:0:0:
256,192,49948,128,0,50292:0:0:0:45:bell2.wav
329,192,49948,128,0,50292:0:0:0:0:
402,192,50292,128,0,50637:0:0:0:65:LR_Kick Normal Med.wav
36,192,50292,128,0,51327:0:0:0:45:bell2.wav
329,192,50637,128,0,51327:0:0:0:65:LR_Drum Hit Open 2.wav
182,192,51327,128,0,51672:0:0:0:65:LR_Kick Normal Med.wav
475,192,51327,128,0,52017:0:0:0:45:bell2.wav
329,192,51499,128,0,51672:0:0:0:0:
109,192,51672,128,0,51844:0:0:0:65:LR_Kick Normal Med.wav
402,192,51672,128,0,51844:0:0:0:45:bell2.wav
182,192,51844,128,0,52017:0:0:0:0:
329,192,51844,128,0,52017:0:0:0:0:
256,192,52017,128,0,52361:0:0:0:65:LR_Drum Hit Open 2.wav
36,192,52017,128,0,52361:0:0:0:45:bell2.wav
109,192,52017,128,0,52189:0:0:0:0:
329,192,52361,128,0,52620:0:0:0:45:bell2.wav
109,192,52361,128,0,52620:0:0:0:0:
329,192,52706,128,0,53051:0:0:0:45:bell2.wav
109,192,52706,128,0,53051:0:0:0:0:
182,192,52879,128,0,53051:0:0:0:0:
475,192,53051,128,0,53396:0:0:0:65:LR_Kick Normal Med.wav
256,192,53051,128,0,53223:0:0:0:45:bell2.wav
329,192,53223,128,0,53568:0:0:0:0:
182,192,53396,128,0,53568:0:0:0:65:LR_Drum Hit Open 2.wav
475,192,53568,128,0,53741:0:0:0:0:
182,192,53741,128,0,53913:0:0:0:65:LR_Kick Normal Med.wav
109,192,53741,128,0,54086:0:0:0:45:bell2.wav
329,192,53741,128,0,53913:0:0:0:0:
256,192,53913,128,0,54086:0:0:0:65:LR5_HiHat NSynth.wav
36,192,54086,128,0,54775:0:0:0:65:LR_Kick Normal Med.wav
329,192,54086,128,0,54430:0:0:0:45:bell2.wav
182,192,54086,128,0,54430:0:0:0:0:
109,192,54258,128,0,54430:0:0:0:0:
256,192,54430,128,0,54775:0:0:0:65:LR_Kick Normal Med.wav
402,192,54430,128,0,54603:0:0:0:45:bell2.wav
475,192,54603,128,0,54775:0:0:0:0:
109,192,54775,128,0,55120:0:0:0:65:LR_Drum Hit Open 2.wav
329,192,54775,128,0,55120:0:0:0:45:bell2.wav
402,192,54775,128,0,54948:0:0:0:0:
182,192,55120,128,0,55465:0:0:0:45:bell2.wav
402,192,55120,128,0,55465:0:0:0:0:
256,192,55120,128,0,55292:0:0:0:0:
329,192,55292,128,0,55465:0:0:0:65:LR_Kick Normal Med.wav
256,192,55465,128,0,55810:0:0:0:45:bell2.wav
475,192,55465,128,0,56155:0:0:0:0:
109,192,55465,128,0,55810:0:0:0:0:
329,192,55810,128,0,56068:0:0:0:65:LR_Kick Normal Med.wav
36,192,55810,128,0,55982:0:0:0:45:bell2.wav
109,192,55982,128,0,56327:0:0:0:0:
329,192,56155,128,0,56844:0:0:0:65:LR_Drum Hit Open 2.wav
256,192,56327,128,0,56844:0:0:0:0:
36,192,56499,128,0,56672:0:0:0:65:LR_Kick Normal Med.wav
182,192,56672,128,0,56844:0:0:0:65:LR5_HiHat NSynth.wav
402,192,56844,128,0,57017:0:0:0:65:LR_Kick Normal Med.wav
475,192,56844,128,0,57189:0:0:0:45:bell2.wav
36,192,57017,128,0,58223:0:0:0:45:bell2.wav
256,192,57017,128,0,57189:0:0:0:0:
109,192,57189,128,0,57361:0:0:0:65:LR_Kick Normal Med.wav
402,192,57189,128,0,57534:0:0:0:45:bell2.wav
329,192,57189,128,0,57361:0:0:0:0:
182,192,57361,128,0,57534:0:0:0:45:bell2.wav
256,192,57534,128,0,57879:0:0:0:65:LR_Drum Hit Open 2.wav
329,192,57534,128,0,57879:0:0:0:45:bell2.wav
109,192,57534,128,0,57706:0:0:0:0:
402,192,57879,128,0,58137:0:0:0:45:bell2.wav
182,192,57879,128,0,58137:0:0:0:0:
402,192,58223,128,0,58568:0:0:0:45:bell2.wav
182,192,58223,128,0,58568:0:0:0:0:
36,192,58396,128,0,58568:0:0:0:0:
475,192,58568,128,0,58913:0:0:0:65:LR_Kick Normal Med.wav
109,192,58568,128,0,58741:0:0:0:45:bell2.wav
256,192,58741,128,0,58913:0:0:0:0:
109,192,58913,128,0,59603:0:0:0:65:LR_Drum Hit Open 2.wav
329,192,58913,128,0,59258:0:0:0:45:bell2.wav
402,192,59086,128,0,59258:0:0:0:0:
182,192,59258,128,0,59430:0:0:0:65:LR_Kick Normal Med.wav
475,192,59258,128,0,59603:0:0:0:45:bell2.wav
256,192,59430,128,0,59603:0:0:0:65:LR5_HiHat NSynth.wav
36,192,59603,128,0,60982:0:0:0:65:LR_Kick Normal Med.wav
329,192,59603,128,0,59775:0:0:0:45:bell2.wav
402,192,59603,128,0,59948:0:0:0:0:
256,192,59775,128,0,59948:0:0:0:45:bell2.wav
109,192,59775,128,0,59948:0:0:0:0:
182,192,59948,128,0,60292:0:0:0:65:LR_Kick Normal Med.wav
329,192,59948,128,0,60292:0:0:0:45:bell2.wav
475,192,59948,128,0,60120:0:0:0:0:
402,192,60120,128,0,60292:0:0:0:0:
109,192,60292,128,0,60637:0:0:0:65:LR_Drum Hit Open 2.wav
256,192,60292,128,0,60465:0:0:0:45:bell2.wav
182,192,60637,128,0,60982:0:0:0:45:bell2.wav
329,192,60637,128,0,60982:0:0:0:0:
402,192,60637,128,0,60810:0:0:0:0:
475,192,60810,128,0,60982:0:0:0:65:LR_Kick Normal Med.wav
256,192,60982,128,0,61327:0:0:0:45:bell2.wav
402,192,60982,128,0,61327:0:0:0:0:
109,192,60982,128,0,61327:0:0:0:0:
36,192,61327,128,0,62361:0:0:0:65:LR_Kick Normal Med.wav
329,192,61327,128,0,61672:0:0:0:45:bell2.wav
475,192,61327,128,0,61413:0:0:0:0:
182,192,61327,128,0,61499:0:0:0:0:
475,192,61499,128,0,62017:0:0:0:0:
109,192,61499,128,0,61844:0:0:0:0:
256,192,61672,128,0,62361:0:0:0:65:LR_Drum Hit Open 2.wav
329,192,61844,128,0,62017:0:0:0:0:
109,192,62017,128,0,62361:0:0:0:65:LR_Kick Normal Med.wav
182,192,62361,128,0,63396:0:0:0:65:LR_Kick Normal Med.wav
402,192,62361,128,0,62879:0:0:0:65:cymbal whistle.wav
256,192,62879,128,0,63396:0:0:0:65:LR_Kick Normal Med.wav
329,192,63396,128,0,63568:0:0:0:65:LR_Kick Normal Med.wav
109,192,63396,1,0,0:0:0:0:
402,192,63568,128,0,63741:0:0:0:65:LR5_HiHat NSynth.wav
182,192,63568,1,0,0:0:0:0:
475,192,63741,128,0,64775:0:0:0:65:LR_Kick Normal Med.wav
256,192,63741,128,0,64258:0:0:0:45:bell2.wav
329,192,64258,128,0,64775:0:0:0:0:
402,192,64775,128,0,64948:0:0:0:65:LR_Kick Normal Med.wav
182,192,64775,1,0,0:0:0:65:LR_HiHat Click2.wav
329,192,64948,128,0,65120:0:0:0:65:LR_HiHat Click2.wav
109,192,64948,1,0,0:0:0:0:
256,192,65120,128,0,66155:0:0:0:65:LR_Kick Normal Med.wav
36,192,65120,128,0,65637:0:0:0:65:LR_HiHat Click2.wav
109,192,65637,128,0,66155:0:0:0:65:LR_Kick Normal Med.wav
402,192,66155,128,0,66499:0:0:0:65:LR_Kick Normal Med.wav
36,192,66155,128,0,66499:0:0:0:0:
329,192,66499,128,0,66672:0:0:0:65:LR_Kick Normal Med.wav
109,192,66499,1,0,0:0:0:45:bell2.wav
402,192,66672,128,0,66844:0:0:0:65:LR_Drum Hit Open 2.wav
182,192,66672,1,0,0:0:0:0:
329,192,66844,128,0,67879:0:0:0:65:LR_Kick Normal Med.wav
109,192,66844,128,0,67879:0:0:0:0:
256,192,67017,128,0,67534:0:0:0:0:
475,192,67534,128,0,67879:0:0:0:65:LR_Kick Normal Med.wav
402,192,67879,128,0,68913:0:0:0:65:LR_Kick Normal Med.wav
256,192,67879,128,0,68396:0:0:0:65:LR_HiHat Click2.wav
182,192,68396,128,0,68913:0:0:0:65:LR_Kick Normal Med.wav
36,192,68913,128,0,69086:0:0:0:65:LR_Kick Normal Med.wav
256,192,68913,1,0,0:0:0:0:
109,192,69086,128,0,69258:0:0:0:65:LR5_HiHat NSynth.wav
329,192,69086,1,0,0:0:0:0:
256,192,69258,128,0,70292:0:0:0:65:LR_Kick Normal Med.wav
402,192,69258,128,0,69775:0:0:0:45:bell2.wav
36,192,69775,128,0,70292:0:0:0:0:
329,192,70292,128,0,70637:0:0:0:65:LR_Kick Normal Med.wav
109,192,70292,1,0,0:0:0:65:LR_HiHat Click2.wav
402,192,70637,128,0,71155:0:0:0:65:LR_Kick Normal Med.wav
182,192,70637,128,0,71155:0:0:0:65:LR_HiHat Click2.wav
36,192,70637,128,0,71672:0:0:0:45:bell2.wav
475,192,71155,128,0,71672:0:0:0:65:LR_Kick Normal Med.wav
256,192,71155,128,0,71672:0:0:0:0:
402,192,71672,128,0,72017:0:0:0:65:LR_Kick Normal Med.wav
182,192,71672,128,0,72017:0:0:0:0:
109,192,71672,128,0,72017:0:0:0:0:
256,192,72017,128,0,72534:0:0:0:65:LR_Kick Normal Med.wav
36,192,72017,128,0,72534:0:0:0:45:bell2.wav
475,192,72017,128,0,72534:0:0:0:0:
329,192,72534,128,0,73396:0:0:0:0:
109,192,72534,128,0,73396:0:0:0:0:
182,192,72534,128,0,73051:0:0:0:0:
402,192,73051,128,0,73396:0:0:0:65:LR_Kick Normal Med.wav
182,192,73396,128,0,74430:0:0:0:65:LR_Kick Normal Med.wav
256,192,73396,128,0,73913:0:0:0:65:cymbal whistle.wav
402,192,73913,128,0,74430:0:0:0:65:LR_Kick Normal Med.wav
329,192,74430,128,0,74603:0:0:0:65:LR_Kick Normal Med.wav
109,192,74430,1,0,0:0:0:0:
402,192,74603,128,0,74775:0:0:0:65:LR5_HiHat NSynth.wav
182,192,74603,1,0,0:0:0:0:
475,192,74775,128,0,75810:0:0:0:65:LR_Kick Normal Med.wav
256,192,74775,128,0,75292:0:0:0:45:bell2.wav
36,192,75292,128,0,75810:0:0:0:0:
402,192,75810,128,0,75982:0:0:0:65:LR_Kick Normal Med.wav
182,192,75810,1,0,0:0:0:65:LR_HiHat Click2.wav
329,192,75982,128,0,76155:0:0:0:65:LR_HiHat Click2.wav
109,192,75982,1,0,0:0:0:0:
256,192,76155,128,0,77189:0:0:0:65:LR_Kick Normal Med.wav
36,192,76155,128,0,76672:0:0:0:65:LR_HiHat Click2.wav
109,192,76672,128,0,77189:0:0:0:65:LR_Kick Normal Med.wav
182,192,77189,128,0,77534:0:0:0:65:LR_Kick Normal Med.wav
36,192,77189,1,0,0:0:0:0:
329,192,77189,128,0,77534:0:0:0:0:
256,192,77534,128,0,77706:0:0:0:65:LR_Kick Normal Med.wav
36,192,77534,128,0,78051:0:0:0:45:bell2.wav
402,192,77706,128,0,77879:0:0:0:65:LR_Drum Hit Open 2.wav
329,192,77879,128,0,78913:0:0:0:65:LR_Kick Normal Med.wav
109,192,78051,128,0,78568:0:0:0:0:
256,192,78568,128,0,78913:0:0:0:65:LR_Kick Normal Med.wav
36,192,78913,128,0,79948:0:0:0:65:LR_Kick Normal Med.wav
182,192,78913,1,0,0:0:0:65:LR_HiHat Click2.wav
402,192,78913,128,0,79430:0:0:0:45:bell2.wav
256,192,79430,128,0,79948:0:0:0:65:LR_Kick Normal Med.wav
109,192,79948,128,0,80120:0:0:0:65:LR_Kick Normal Med.wav
329,192,79948,128,0,80292:0:0:0:0:
182,192,80120,128,0,80292:0:0:0:65:LR5_HiHat NSynth.wav
256,192,80292,128,0,81327:0:0:0:65:LR_Kick Normal Med.wav
402,192,80292,128,0,80810:0:0:0:45:bell2.wav
36,192,80292,128,0,81327:0:0:0:0:
475,192,80810,128,0,81327:0:0:0:0:
329,192,81327,128,0,81672:0:0:0:65:LR_Kick Normal Med.wav
182,192,81327,128,0,81672:0:0:0:65:LR_HiHat Click2.wav
109,192,81327,128,0,81672:0:0:0:0:
402,192,81672,128,0,82189:0:0:0:65:LR_Kick Normal Med.wav
36,192,81672,128,0,82189:0:0:0:65:LR_HiHat Click2.wav
475,192,82189,128,0,82706:0:0:0:65:LR_Kick Normal Med.wav
256,192,82189,128,0,82706:0:0:0:0:
182,192,82706,128,0,83051:0:0:0:65:LR_Kick Normal Med.wav
402,192,82706,128,0,83051:0:0:0:0:
109,192,82706,128,0,83051:0:0:0:0:
256,192,83051,128,0,83396:0:0:0:65:LR_Kick Normal Med.wav
36,192,83051,128,0,83741:0:0:0:45:bell2.wav
475,192,83051,128,0,83568:0:0:0:0:
329,192,83396,128,0,83741:0:0:0:65:LR_Kick Normal Med.wav
182,192,83568,128,0,84086:0:0:0:0:
402,192,83741,128,0,84086:0:0:0:65:LR_Drum Hit Open 2.wav
109,192,83741,128,0,84430:0:0:0:0:
475,192,84086,128,0,84430:0:0:0:65:LR_Kick Normal Med.wav
256,192,84086,128,0,84430:0:0:0:65:LR_HiHat Click2.wav
182,192,84430,128,0,85810:0:0:0:65:LR_Kick Normal Med.wav
402,192,84430,128,0,84948:0:0:0:45:bell2.wav
329,192,84948,128,0,85465:0:0:0:65:LR_Kick Normal Med.wav
256,192,85465,128,0,85637:0:0:0:65:LR_Kick Normal Med.wav
109,192,85637,128,0,85810:0:0:0:65:LR5_HiHat NSynth.wav
329,192,85810,128,0,87189:0:0:0:65:LR_Kick Normal Med.wav
36,192,85810,128,0,86327:0:0:0:0:
182,192,86327,128,0,86844:0:0:0:0:
109,192,86844,128,0,87017:0:0:0:65:LR_Kick Normal Med.wav
182,192,87017,128,0,87189:0:0:0:65:LR_HiHat Click2.wav
256,192,87189,128,0,88568:0:0:0:65:LR_Kick Normal Med.wav
402,192,87189,128,0,87706:0:0:0:65:LR_HiHat Click2.wav
475,192,87706,128,0,88223:0:0:0:65:LR_Kick Normal Med.wav
109,192,88223,128,0,88482:0:0:0:65:LR_Kick Normal Med.wav
402,192,88568,128,0,89948:0:0:0:65:LR_Kick Normal Med.wav
109,192,88568,128,0,88913:0:0:0:0:
182,192,88913,128,0,88999:0:0:0:65:LR_Kick Normal Med.wav
182,192,89086,128,0,89603:0:0:0:0:
256,192,89603,128,0,89775:0:0:0:65:LR_Kick Normal Med.wav
329,192,89775,128,0,89948:0:0:0:65:LR5_HiHat NSynth.wav
182,192,89948,128,0,91327:0:0:0:65:LR_Kick Normal Med.wav
475,192,89948,128,0,90465:0:0:0:65:LR_HiHat Click2.wav
402,192,90465,128,0,90982:0:0:0:65:LR_Kick Normal Med.wav
109,192,90982,128,0,91155:0:0:0:65:LR_Kick Normal Med.wav
256,192,91155,128,0,91327:0:0:0:65:LR5_HiHat NSynth.wav
329,192,91327,128,0,92706:0:0:0:65:LR_Kick Normal Med.wav
402,192,91327,128,0,91844:0:0:0:0:
36,192,91844,128,0,92706:0:0:0:0:
402,192,92361,128,0,92706:0:0:0:65:LR_Kick Normal Med.wav
256,192,92706,128,0,94086:0:0:0:65:LR_Kick Normal Med.wav
109,192,92706,128,0,93223:0:0:0:65:LR_HiHat Click2.wav
182,192,93223,128,0,93741:0:0:0:65:LR_Kick Normal Med.wav
329,192,93741,128,0,94086:0:0:0:65:LR_Kick Normal Med.wav
402,192,94086,128,0,95465:0:0:0:65:LR_Kick Normal Med.wav
182,192,94086,128,0,94603:0:0:0:0:
36,192,94603,128,0,95465:0:0:0:0:
182,192,95465,128,0,96844:0:0:0:65:LR_Kick Normal Med.wav
329,192,95465,128,0,95982:0:0:0:65:cymbal whistle.wav
36,192,95982,128,0,96844:0:0:0:65:LR_Kick Normal Med.wav
256,192,96499,128,0,96672:0:0:0:65:LR_Kick Normal Med.wav
402,192,96672,128,0,96844:0:0:0:65:LR5_HiHat NSynth.wav
329,192,96844,128,0,98223:0:0:0:65:LR_Kick Normal Med.wav
475,192,96844,128,0,97361:0:0:0:0:
109,192,97361,128,0,97879:0:0:0:0:
182,192,97879,128,0,98223:0:0:0:65:LR_Kick Normal Med.wav
256,192,98223,128,0,98913:0:0:0:65:LR_Kick Normal Med.wav
36,192,98223,128,0,98741:0:0:0:65:LR_HiHat Click2.wav
109,192,98741,128,0,99258:0:0:0:65:LR_Kick Normal Med.wav
329,192,98913,128,0,99258:0:0:0:65:LR_Drum Hit Open 2.wav
402,192,99258,128,0,99603:0:0:0:65:LR_Kick Normal Med.wav
256,192,99258,128,0,99603:0:0:0:0:
475,192,99603,128,0,100982:0:0:0:65:LR_Kick Normal Med.wav
329,192,99603,128,0,99948:0:0:0:0:
256,192,99948,128,0,100120:0:0:0:65:LR_Kick Normal Med.wav
182,192,100120,128,0,100292:0:0:0:0:
182,192,100982,128,0,102361:0:0:0:65:cymbal whistle.wav
402,192,100982,128,0,101155:0:0:0:65:LR_Kick Normal Med.wav
256,192,101155,128,0,101327:0:0:0:0:
329,192,101327,128,0,101499:0:0:0:65:LR_HiHat Click2.wav
402,192,101499,128,0,101844:0:0:0:65:LR_Kick Normal Med.wav
36,192,101844,128,0,102017:0:0:0:0:
109,192,102017,128,0,102189:0:0:0:65:LR_Kick Normal Med.wav
256,192,102189,128,0,102361:0:0:0:65:LR5_HiHat NSynth.wav
402,192,102361,128,0,103051:0:0:0:65:LR_Kick Normal Med.wav
109,192,102361,128,0,102706:0:0:0:0:
256,192,102706,128,0,103051:0:0:0:65:LR_Kick Normal Med.wav
329,192,103051,128,0,103655:0:0:0:65:LR_Drum Hit Open 2.wav
182,192,103051,128,0,103396:0:0:0:0:
109,192,103396,128,0,103741:0:0:0:65:LR_Kick Normal Med.wav
329,192,103741,128,0,104430:0:0:0:65:LR_Kick Normal Med.wav
182,192,103741,128,0,104086:0:0:0:65:LR_HiHat Click2.wav
36,192,104086,128,0,104172:0:0:0:65:LR_HiHat Click2.wav
36,192,104258,128,0,104775:0:0:0:65:LR_Kick Normal Med.wav
402,192,104430,128,0,105120:0:0:0:65:LR_Drum Hit Open 2.wav
36,192,106499,128,0,107534:0:0:0:65:LR_Kick Normal Med.wav
182,192,106499,128,0,106844:0:0:0:65:cymbal whistle.wav
475,192,106499,128,0,107189:0:0:0:45:bell2.wav
109,192,106844,128,0,107017:0:0:0:65:LR_Kick Normal Med.wav
182,192,107017,128,0,107189:0:0:0:45:bell2.wav
256,192,107189,128,0,107534:0:0:0:65:LR_Drum Hit Open 2.wav
109,192,107189,128,0,107534:0:0:0:45:bell2.wav
329,192,107534,128,0,107792:0:0:0:45:bell2.wav
182,192,107534,128,0,107792:0:0:0:0:
329,192,107879,128,0,108223:0:0:0:45:bell2.wav
182,192,107879,128,0,108568:0:0:0:0:
475,192,108223,128,0,108568:0:0:0:65:LR_Kick Normal Med.wav
402,192,108568,128,0,108913:0:0:0:65:LR_Drum Hit Open 2.wav
36,192,108568,128,0,108913:0:0:0:65:LR_Kick Normal Med.wav
256,192,108913,128,0,109086:0:0:0:65:LR_Kick Normal Med.wav
109,192,108913,128,0,109258:0:0:0:45:bell2.wav
329,192,109086,128,0,109258:0:0:0:65:LR5_HiHat NSynth.wav
402,192,109258,128,0,109603:0:0:0:65:LR_Kick Normal Med.wav
36,192,109258,128,0,109948:0:0:0:45:bell2.wav
182,192,109258,128,0,109948:0:0:0:0:
256,192,109603,128,0,109948:0:0:0:65:LR_Kick Normal Med.wav
109,192,109948,128,0,110292:0:0:0:65:LR_Drum Hit Open 2.wav
402,192,109948,128,0,110292:0:0:0:45:bell2.wav
182,192,110292,128,0,110637:0:0:0:45:bell2.wav
329,192,110292,128,0,110637:0:0:0:0:
256,192,110637,128,0,110982:0:0:0:45:bell2.wav
475,192,110637,128,0,111672:0:0:0:0:
329,192,110982,128,0,111241:0:0:0:65:LR_Kick Normal Med.wav
329,192,111327,128,0,112017:0:0:0:65:LR_Drum Hit Open 2.wav
109,192,111672,128,0,111844:0:0:0:65:LR_Kick Normal Med.wav
182,192,111844,128,0,112017:0:0:0:65:LR5_HiHat NSynth.wav
256,192,112017,128,0,112189:0:0:0:65:LR_Kick Normal Med.wav
475,192,112017,128,0,112361:0:0:0:45:bell2.wav
36,192,112189,128,0,112361:0:0:0:45:bell2.wav
109,192,112361,128,0,112534:0:0:0:65:LR_Kick Normal Med.wav
402,192,112361,128,0,112706:0:0:0:45:bell2.wav
182,192,112534,128,0,112706:0:0:0:45:bell2.wav
256,192,112706,128,0,113051:0:0:0:65:LR_Drum Hit Open 2.wav
329,192,112706,128,0,113051:0:0:0:45:bell2.wav
402,192,113051,128,0,113310:0:0:0:45:bell2.wav
182,192,113051,128,0,113396:0:0:0:0:
402,192,113396,128,0,113741:0:0:0:45:bell2.wav
36,192,113396,128,0,114086:0:0:0:0:
475,192,113741,128,0,114086:0:0:0:65:LR_Kick Normal Med.wav
329,192,114086,128,0,114430:0:0:0:65:LR_Drum Hit Open 2.wav
109,192,114086,128,0,114775:0:0:0:65:LR_Kick Normal Med.wav
402,192,114086,128,0,114430:0:0:0:45:bell2.wav
182,192,114430,128,0,114603:0:0:0:65:LR_Kick Normal Med.wav
475,192,114430,128,0,114775:0:0:0:45:bell2.wav
256,192,114603,128,0,114775:0:0:0:65:LR5_HiHat NSynth.wav
329,192,114775,128,0,114948:0:0:0:65:LR_Kick Normal Med.wav
36,192,114775,128,0,116155:0:0:0:45:bell2.wav
402,192,114775,128,0,115120:0:0:0:0:
256,192,114948,128,0,115120:0:0:0:45:bell2.wav
182,192,115120,128,0,115465:0:0:0:65:LR_Kick Normal Med.wav
475,192,115120,128,0,115810:0:0:0:45:bell2.wav
109,192,115465,128,0,115810:0:0:0:65:LR_Drum Hit Open 2.wav
182,192,115810,128,0,116155:0:0:0:45:bell2.wav
329,192,115810,128,0,116155:0:0:0:0:
256,192,116155,128,0,116499:0:0:0:45:bell2.wav
475,192,116155,128,0,117448:0:0:0:0:
402,192,116499,128,0,116844:0:0:0:65:LR_Kick Normal Med.wav
36,192,116499,128,0,117534:0:0:0:45:bell2.wav
329,192,116844,128,0,117534:0:0:0:65:LR_Drum Hit Open 2.wav
182,192,117534,128,0,117879:0:0:0:65:LR_Kick Normal Med.wav
475,192,117534,128,0,118310:0:0:0:65:cymbal whistle.wav
109,192,117879,128,0,118051:0:0:0:65:LR_Kick Normal Med.wav
182,192,118051,128,0,118223:0:0:0:45:bell2.wav
256,192,118223,128,0,118568:0:0:0:65:LR_Drum Hit Open 2.wav
36,192,118223,128,0,118568:0:0:0:45:bell2.wav
329,192,118568,128,0,118827:0:0:0:45:bell2.wav
109,192,118568,128,0,118827:0:0:0:0:
329,192,118913,128,0,119258:0:0:0:45:bell2.wav
109,192,118913,128,0,119603:0:0:0:0:
475,192,119258,128,0,119603:0:0:0:65:LR_Kick Normal Med.wav
402,192,119603,128,0,119948:0:0:0:65:LR_Drum Hit Open 2.wav
36,192,119603,128,0,119948:0:0:0:65:LR_Kick Normal Med.wav
256,192,119948,128,0,120120:0:0:0:65:LR_Kick Normal Med.wav
109,192,119948,128,0,120292:0:0:0:45:bell2.wav
329,192,120120,128,0,120292:0:0:0:65:LR5_HiHat NSynth.wav
36,192,120292,128,0,120982:0:0:0:65:LR_Kick Normal Med.wav
402,192,120292,128,0,120637:0:0:0:45:bell2.wav
182,192,120292,128,0,120982:0:0:0:0:
256,192,120637,128,0,120982:0:0:0:65:LR_Kick Normal Med.wav
109,192,120982,128,0,121327:0:0:0:65:LR_Drum Hit Open 2.wav
329,192,120982,128,0,121327:0:0:0:45:bell2.wav
182,192,121327,128,0,121672:0:0:0:45:bell2.wav
402,192,121327,128,0,121672:0:0:0:0:
256,192,121672,128,0,122017:0:0:0:45:bell2.wav
475,192,121672,128,0,122706:0:0:0:0:
329,192,122017,128,0,122275:0:0:0:65:LR_Kick Normal Med.wav
329,192,122361,128,0,123051:0:0:0:65:LR_Drum Hit Open 2.wav
109,192,122706,128,0,122879:0:0:0:65:LR_Kick Normal Med.wav
256,192,122879,128,0,123051:0:0:0:65:LR5_HiHat NSynth.wav
182,192,123051,128,0,123223:0:0:0:65:LR_Kick Normal Med.wav
475,192,123051,128,0,123396:0:0:0:45:bell2.wav
36,192,123223,128,0,123396:0:0:0:45:bell2.wav
109,192,123396,128,0,123568:0:0:0:65:LR_Kick Normal Med.wav
402,192,123396,128,0,123741:0:0:0:45:bell2.wav
182,192,123568,128,0,123741:0:0:0:45:bell2.wav
256,192,123741,128,0,124086:0:0:0:65:LR_Drum Hit Open 2.wav
329,192,123741,128,0,124086:0:0:0:45:bell2.wav
402,192,124086,128,0,124344:0:0:0:45:bell2.wav
182,192,124086,128,0,124430:0:0:0:0:
402,192,124430,128,0,124775:0:0:0:45:bell2.wav
256,192,124430,128,0,124948:0:0:0:0:
475,192,124775,128,0,125120:0:0:0:65:LR_Kick Normal Med.wav
402,192,124948,128,0,125465:0:0:0:0:
109,192,125120,128,0,125810:0:0:0:65:LR_Drum Hit Open 2.wav
329,192,125120,128,0,125465:0:0:0:65:LR_Kick Normal Med.wav
182,192,125465,128,0,125637:0:0:0:65:LR_Kick Normal Med.wav
475,192,125465,128,0,125810:0:0:0:45:bell2.wav
256,192,125637,128,0,125810:0:0:0:65:LR5_HiHat NSynth.wav
36,192,125810,128,0,127189:0:0:0:65:LR_Kick Normal Med.wav
329,192,125810,128,0,125982:0:0:0:45:bell2.wav
402,192,125810,128,0,126327:0:0:0:0:
256,192,125982,128,0,126155:0:0:0:45:bell2.wav
182,192,126155,128,0,126499:0:0:0:65:LR_Kick Normal Med.wav
329,192,126327,128,0,126844:0:0:0:0:
109,192,126499,128,0,126844:0:0:0:65:LR_Drum Hit Open 2.wav
182,192,126844,128,0,127189:0:0:0:45:bell2.wav
402,192,126844,128,0,127189:0:0:0:0:
256,192,127189,128,0,127534:0:0:0:45:bell2.wav
475,192,127189,128,0,127534:0:0:0:0:
109,192,127534,128,0,128568:0:0:0:65:LR_Kick Normal Med.wav
182,192,127534,128,0,127879:0:0:0:45:bell2.wav
402,192,127534,128,0,127620:0:0:0:0:
402,192,127706,128,0,128568:0:0:0:0:
36,192,127879,128,0,128568:0:0:0:65:LR_Drum Hit Open 2.wav
182,192,128568,128,0,128913:0:0:0:65:LR_Kick Normal Med.wav
402,192,128741,128,0,128913:0:0:0:65:LR_Chm_Soft_NLV.wav
109,192,128913,128,0,129086:0:0:0:65:LR_Kick Normal Med.wav
475,192,128913,128,0,129086:0:0:0:65:LR_Chm_Soft_NLV.wav
182,192,129086,128,0,129258:0:0:0:65:LR_Chm_Soft_NLV.wav
402,192,129086,128,0,129258:0:0:0:0:
256,192,129258,128,0,129603:0:0:0:65:LR_Drum Hit Open 2.wav
329,192,129258,128,0,129430:0:0:0:65:LR_Chm_Soft_NLV.wav
329,192,129603,128,0,129861:0:0:0:0:
329,192,129948,128,0,130292:0:0:0:45:bell2.wav
36,192,130120,128,0,130292:0:0:0:65:LR_Chm_Soft_NLV.wav
475,192,130292,128,0,130637:0:0:0:65:LR_Kick Normal Med.wav
109,192,130292,128,0,130465:0:0:0:65:LR_Chm_Soft_NLV.wav
182,192,130465,128,0,130810:0:0:0:65:LR_Chm_Soft_NLV.wav
402,192,130637,128,0,130982:0:0:0:65:LR_Drum Hit Open 2.wav
256,192,130810,128,0,130982:0:0:0:65:LR_Chm_Soft_NLV.wav
182,192,130982,128,0,131155:0:0:0:65:LR_Kick Normal Med.wav
256,192,131155,128,0,131327:0:0:0:65:LR5_HiHat NSynth.wav
109,192,131155,128,0,131327:0:0:0:65:LR_Chm_Soft_NLV.wav
329,192,131327,128,0,131672:0:0:0:65:LR_Kick Normal Med.wav
36,192,131327,128,0,132017:0:0:0:45:bell2.wav
402,192,131499,128,0,131672:0:0:0:65:LR_Chm_Soft_NLV.wav
256,192,131672,128,0,132017:0:0:0:65:LR_Kick Normal Med.wav
475,192,131672,128,0,131844:0:0:0:65:LR_Chm_Soft_NLV.wav
402,192,131844,128,0,132017:0:0:0:65:LR_Chm_Soft_NLV.wav
109,192,132017,128,0,132361:0:0:0:65:LR_Drum Hit Open 2.wav
329,192,132017,128,0,132189:0:0:0:65:LR_Chm_Soft_NLV.wav
182,192,132361,128,0,132706:0:0:0:65:LR_Chm_Soft_NLV.wav
329,192,132361,128,0,132534:0:0:0:0:
402,192,132534,128,0,132706:0:0:0:65:LR_Kick Normal Med.wav
256,192,132706,128,0,133051:0:0:0:65:LR_Chm_Soft_NLV.wav
475,192,132706,128,0,133051:0:0:0:45:bell2.wav
329,192,133051,128,0,133310:0:0:0:65:LR_Kick Normal Med.wav
36,192,133051,128,0,133223:0:0:0:65:LR_Chm_Soft_NLV.wav
109,192,133223,128,0,133568:0:0:0:65:LR_Chm_Soft_NLV.wav
329,192,133396,128,0,134086:0:0:0:65:LR_Drum Hit Open 2.wav
256,192,133568,128,0,134086:0:0:0:65:LR_Chm_Soft_NLV.wav
182,192,134086,128,0,134258:0:0:0:65:LR_Kick Normal Med.wav
36,192,134258,128,0,134430:0:0:0:65:LR_Chm_Soft_NLV.wav
402,192,134258,128,0,134430:0:0:0:0:
109,192,134430,128,0,134603:0:0:0:65:LR_Kick Normal Med.wav
475,192,134430,128,0,134603:0:0:0:65:LR_Chm_Soft_NLV.wav
182,192,134603,128,0,134775:0:0:0:65:LR_Chm_Soft_NLV.wav
402,192,134603,128,0,134775:0:0:0:0:
256,192,134775,128,0,135120:0:0:0:65:LR_Drum Hit Open 2.wav
329,192,134775,128,0,134948:0:0:0:65:LR_Chm_Soft_NLV.wav
402,192,135120,128,0,135379:0:0:0:0:
402,192,135465,128,0,135810:0:0:0:45:bell2.wav
36,192,135637,128,0,135810:0:0:0:65:LR_Chm_Soft_NLV.wav
475,192,135810,128,0,136155:0:0:0:65:LR_Kick Normal Med.wav
109,192,135810,128,0,135982:0:0:0:65:LR_Chm_Soft_NLV.wav
256,192,135982,128,0,136327:0:0:0:65:LR_Chm_Soft_NLV.wav
329,192,136155,128,0,136499:0:0:0:65:LR_Drum Hit Open 2.wav
109,192,136155,128,0,136844:0:0:0:0:
475,192,136327,128,0,136499:0:0:0:65:LR_Chm_Soft_NLV.wav
182,192,136499,128,0,136672:0:0:0:65:LR_Kick Normal Med.wav
402,192,136499,128,0,136672:0:0:0:65:LR_Chm_Soft_NLV.wav
256,192,136672,128,0,136844:0:0:0:65:LR5_HiHat NSynth.wav
475,192,136672,128,0,136844:0:0:0:65:LR_Chm_Soft_NLV.wav
329,192,136844,128,0,137017:0:0:0:65:LR_Kick Normal Med.wav
36,192,136844,128,0,138223:0:0:0:45:bell2.wav
256,192,137017,128,0,137189:0:0:0:65:LR_Chm_Soft_NLV.wav
402,192,137017,128,0,137189:0:0:0:0:
182,192,137189,128,0,137534:0:0:0:65:LR_Kick Normal Med.wav
475,192,137189,128,0,137361:0:0:0:65:LR_Chm_Soft_NLV.wav
402,192,137361,128,0,137534:0:0:0:65:LR_Chm_Soft_NLV.wav
109,192,137534,128,0,137879:0:0:0:65:LR_Drum Hit Open 2.wav
329,192,137534,128,0,137706:0:0:0:65:LR_Chm_Soft_NLV.wav
182,192,137879,128,0,138223:0:0:0:65:LR_Chm_Soft_NLV.wav
329,192,137879,128,0,138051:0:0:0:0:
402,192,138051,128,0,138223:0:0:0:65:LR_Kick Normal Med.wav
256,192,138223,128,0,138568:0:0:0:65:LR_Chm_Soft_NLV.wav
475,192,138223,128,0,138568:0:0:0:45:bell2.wav
402,192,138568,128,0,138913:0:0:0:65:LR_Kick Normal Med.wav
36,192,138568,128,0,139603:0:0:0:65:LR_Chm_Soft_NLV.wav
182,192,138568,128,0,138741:0:0:0:0:
109,192,138741,128,0,139086:0:0:0:65:LR_Chm_Soft_NLV.wav
329,192,138913,128,0,139603:0:0:0:65:LR_Drum Hit Open 2.wav
256,192,139086,128,0,139258:0:0:0:65:LR_Chm_Soft_NLV.wav
402,192,139258,128,0,139603:0:0:0:65:LR_Kick Normal Med.wav
182,192,139603,128,0,139948:0:0:0:65:cymbal whistle.wav
402,192,139775,128,0,139948:0:0:0:65:LR_Chm_Soft_NLV.wav
475,192,139948,128,0,140120:0:0:0:65:LR_Kick Normal Med.wav
109,192,139948,128,0,140637:0:0:0:65:LR_Chm_Soft_NLV.wav
402,192,140120,128,0,140292:0:0:0:65:LR_Chm_Soft_NLV.wav
182,192,140120,128,0,140637:0:0:0:0:
256,192,140292,128,0,140637:0:0:0:65:LR_Drum Hit Open 2.wav
329,192,140292,128,0,140465:0:0:0:65:LR_Chm_Soft_NLV.wav
329,192,140637,128,0,140896:0:0:0:0:
402,192,140637,128,0,140896:0:0:0:0:
329,192,140982,128,0,141327:0:0:0:45:bell2.wav
402,192,140982,128,0,141327:0:0:0:0:
36,192,141155,128,0,141327:0:0:0:65:LR_Chm_Soft_NLV.wav
475,192,141327,128,0,141672:0:0:0:65:LR_Kick Normal Med.wav
109,192,141327,128,0,141499:0:0:0:65:LR_Chm_Soft_NLV.wav
182,192,141499,128,0,141844:0:0:0:65:LR_Chm_Soft_NLV.wav
402,192,141672,128,0,142361:0:0:0:65:LR_Drum Hit Open 2.wav
109,192,141844,128,0,142017:0:0:0:65:LR_Chm_Soft_NLV.wav
182,192,142017,128,0,142361:0:0:0:65:LR_Kick Normal Med.wav
36,192,142017,128,0,142189:0:0:0:65:LR_Chm_Soft_NLV.wav
256,192,142189,128,0,142361:0:0:0:65:LR5_HiHat NSynth.wav
475,192,142189,128,0,142361:0:0:0:65:LR_Chm_Soft_NLV.wav
36,192,142361,128,0,143051:0:0:0:65:LR_Kick Normal Med.wav
329,192,142361,128,0,143051:0:0:0:45:bell2.wav
182,192,142534,128,0,142706:0:0:0:65:LR_Chm_Soft_NLV.wav
256,192,142706,128,0,143051:0:0:0:65:LR_Kick Normal Med.wav
475,192,142706,128,0,142879:0:0:0:65:LR_Chm_Soft_NLV.wav
402,192,142879,128,0,143051:0:0:0:65:LR_Chm_Soft_NLV.wav
109,192,143051,128,0,143396:0:0:0:65:LR_Drum Hit Open 2.wav
182,192,143051,128,0,143223:0:0:0:65:LR_Chm_Soft_NLV.wav
182,192,143396,128,0,144430:0:0:0:65:LR_Chm_Soft_NLV.wav
329,192,143396,128,0,143568:0:0:0:0:
402,192,143568,128,0,143741:0:0:0:65:LR_Kick Normal Med.wav
256,192,143741,128,0,144430:0:0:0:65:LR_Chm_Soft_NLV.wav
475,192,143741,128,0,144086:0:0:0:45:bell2.wav
329,192,144086,128,0,144344:0:0:0:65:LR_Kick Normal Med.wav
36,192,144086,128,0,144258:0:0:0:65:LR_Chm_Soft_NLV.wav
402,192,144086,128,0,144344:0:0:0:0:
109,192,144258,128,0,144603:0:0:0:65:LR_Chm_Soft_NLV.wav
329,192,144430,128,0,145120:0:0:0:65:LR_Drum Hit Open 2.wav
402,192,144430,128,0,145120:0:0:0:0:
256,192,144603,128,0,145120:0:0:0:65:LR_Chm_Soft_NLV.wav
182,192,145120,128,0,145292:0:0:0:65:LR_Kick Normal Med.wav
36,192,145292,128,0,145465:0:0:0:65:LR_Chm_Soft_NLV.wav
402,192,145292,128,0,145465:0:0:0:0:
475,192,145465,128,0,145637:0:0:0:65:LR_Kick Normal Med.wav
109,192,145465,128,0,145637:0:0:0:65:LR_Chm_Soft_NLV.wav
402,192,145637,128,0,145810:0:0:0:65:LR_Chm_Soft_NLV.wav
182,192,145637,128,0,146499:0:0:0:0:
329,192,145810,128,0,145982:0:0:0:65:LR_Drum Hit Open 2.wav
256,192,145810,128,0,146499:0:0:0:65:LR_Chm_Soft_NLV.wav
402,192,146155,128,0,146413:0:0:0:0:
329,192,146155,128,0,146413:0:0:0:0:
402,192,146499,128,0,147189:0:0:0:45:bell2.wav
329,192,146499,128,0,146844:0:0:0:0:
109,192,146672,128,0,146844:0:0:0:65:LR_Chm_Soft_NLV.wav
475,192,146844,128,0,147189:0:0:0:65:LR_Kick Normal Med.wav
182,192,146844,128,0,147017:0:0:0:65:LR_Chm_Soft_NLV.wav
256,192,147017,128,0,147361:0:0:0:65:LR_Chm_Soft_NLV.wav
109,192,147189,128,0,147879:0:0:0:65:LR_Drum Hit Open 2.wav
329,192,147189,128,0,147534:0:0:0:0:
475,192,147361,128,0,147534:0:0:0:65:LR_Chm_Soft_NLV.wav
182,192,147534,128,0,147706:0:0:0:65:LR_Kick Normal Med.wav
402,192,147534,128,0,147706:0:0:0:65:LR_Chm_Soft_NLV.wav
256,192,147706,128,0,147879:0:0:0:65:LR5_HiHat NSynth.wav
475,192,147706,128,0,147879:0:0:0:65:LR_Chm_Soft_NLV.wav
36,192,147879,128,0,148568:0:0:0:65:LR_Kick Normal Med.wav
329,192,147879,128,0,148223:0:0:0:45:bell2.wav
256,192,148051,128,0,148568:0:0:0:65:LR_Chm_Soft_NLV.wav
402,192,148051,128,0,148223:0:0:0:0:
182,192,148223,128,0,148568:0:0:0:65:LR_Kick Normal Med.wav
475,192,148223,128,0,148396:0:0:0:65:LR_Chm_Soft_NLV.wav
402,192,148396,128,0,148568:0:0:0:65:LR_Chm_Soft_NLV.wav
109,192,148568,128,0,149258:0:0:0:65:LR_Drum Hit Open 2.wav
329,192,148568,128,0,148741:0:0:0:65:LR_Chm_Soft_NLV.wav
182,192,148913,128,0,149258:0:0:0:65:LR_Chm_Soft_NLV.wav
329,192,148913,128,0,149086:0:0:0:0:
402,192,149086,128,0,149258:0:0:0:65:LR_Kick Normal Med.wav
256,192,149258,128,0,149603:0:0:0:65:LR_Chm_Soft_NLV.wav
475,192,149258,128,0,149603:0:0:0:45:bell2.wav
36,192,149603,128,0,150637:0:0:0:65:LR_Kick Normal Med.wav
402,192,149603,128,0,149948:0:0:0:65:LR_Chm_Soft_NLV.wav
182,192,149603,128,0,149775:0:0:0:0:
109,192,149775,128,0,150120:0:0:0:65:LR_Chm_Soft_NLV.wav
329,192,149948,128,0,150637:0:0:0:65:LR_Drum Hit Open 2.wav
182,192,150120,128,0,150292:0:0:0:65:LR_Chm_Soft_NLV.wav
256,192,150292,128,0,150637:0:0:0:65:LR_Kick Normal Med.wav
182,192,150637,128,0,150982:0:0:0:65:cymbal whistle.wav
402,192,150810,1,0,0:0:0:65:LR_Chm_Soft_NLV.wav
109,192,150982,128,0,151155:0:0:0:45:bell2.wav
475,192,150982,1,0,0:0:0:65:LR_Chm_Soft_NLV.wav
182,192,151155,128,0,151327:0:0:0:65:LR_Chm_Soft_NLV.wav
402,192,151155,1,0,0:0:0:0:
256,192,151327,128,0,151672:0:0:0:45:bell2.wav
329,192,151327,1,0,0:0:0:65:LR_Chm_Soft_NLV.wav
329,192,151672,128,0,151930:0:0:0:45:bell2.wav
329,192,152017,128,0,152361:0:0:0:45:bell2.wav
109,192,152189,1,0,0:0:0:65:LR_Chm_Soft_NLV.wav
475,192,152361,128,0,152706:0:0:0:45:bell2.wav
182,192,152361,1,0,0:0:0:65:LR_Chm_Soft_NLV.wav
256,192,152534,128,0,152879:0:0:0:65:LR_Chm_Soft_NLV.wav
402,192,152706,128,0,153051:0:0:0:45:bell2.wav
329,192,152879,1,0,0:0:0:65:LR_Chm_Soft_NLV.wav
182,192,153051,128,0,153223:0:0:0:45:bell2.wav
475,192,153051,1,0,0:0:0:65:LR_Chm_Soft_NLV.wav
256,192,153223,128,0,153396:0:0:0:45:bell2.wav
402,192,153223,1,0,0:0:0:65:LR_Chm_Soft_NLV.wav
329,192,153396,128,0,153741:0:0:0:45:bell2.wav
36,192,153396,128,0,154086:0:0:0:0:
402,192,153568,1,0,0:0:0:65:LR_Chm_Soft_NLV.wav
256,192,153741,128,0,154086:0:0:0:45:bell2.wav
475,192,153741,1,0,0:0:0:65:LR_Chm_Soft_NLV.wav
402,192,153913,1,0,0:0:0:65:LR_Chm_Soft_NLV.wav
109,192,154086,128,0,154430:0:0:0:45:bell2.wav
329,192,154086,1,0,0:0:0:65:LR_Chm_Soft_NLV.wav
182,192,154430,128,0,154775:0:0:0:65:LR_Chm_Soft_NLV.wav
329,192,154430,1,0,0:0:0:45:bell2.wav
402,192,154603,1,0,0:0:0:65:LR_Chm_Soft_NLV.wav
256,192,154775,128,0,155120:0:0:0:45:bell2.wav
475,192,154775,1,0,0:0:0:65:LR_Chm_Soft_NLV.wav
329,192,155120,128,0,155379:0:0:0:45:bell2.wav
182,192,155120,1,0,0:0:0:65:LR_Chm_Soft_NLV.wav
109,192,155292,1,0,0:0:0:65:LR_Chm_Soft_NLV.wav
329,192,155465,128,0,156155:0:0:0:45:bell2.wav
182,192,155637,1,0,0:0:0:65:LR_Chm_Soft_NLV.wav
256,192,155810,1,0,0:0:0:65:LR_Chm_Soft_NLV.wav
182,192,156155,128,0,156327:0:0:0:45:bell2.wav
36,192,156327,128,0,156499:0:0:0:65:LR_Chm_Soft_NLV.wav
402,192,156327,1,0,0:0:0:0:
109,192,156499,128,0,156672:0:0:0:45:bell2.wav
475,192,156499,1,0,0:0:0:65:LR_Chm_Soft_NLV.wav
182,192,156672,128,0,156844:0:0:0:65:LR_Chm_Soft_NLV.wav
402,192,156672,1,0,0:0:0:0:
256,192,156844,128,0,157189:0:0:0:45:bell2.wav
329,192,156844,1,0,0:0:0:65:LR_Chm_Soft_NLV.wav
402,192,157189,128,0,157448:0:0:0:45:bell2.wav
402,192,157534,128,0,157879:0:0:0:45:bell2.wav
109,192,157706,1,0,0:0:0:65:LR_Chm_Soft_NLV.wav
475,192,157879,128,0,158223:0:0:0:45:bell2.wav
182,192,157879,1,0,0:0:0:65:LR_Chm_Soft_NLV.wav
256,192,158051,128,0,158396:0:0:0:65:LR_Chm_Soft_NLV.wav
329,192,158223,128,0,158568:0:0:0:45:bell2.wav
109,192,158223,128,0,158913:0:0:0:0:
475,192,158396,1,0,0:0:0:65:LR_Chm_Soft_NLV.wav
182,192,158568,128,0,158741:0:0:0:45:bell2.wav
402,192,158568,1,0,0:0:0:65:LR_Chm_Soft_NLV.wav
256,192,158741,128,0,158913:0:0:0:45:bell2.wav
475,192,158741,1,0,0:0:0:65:LR_Chm_Soft_NLV.wav
329,192,158913,128,0,159086:0:0:0:45:bell2.wav
36,192,158913,128,0,160292:0:0:0:0:
256,192,159086,128,0,159258:0:0:0:65:LR_Chm_Soft_NLV.wav
402,192,159086,1,0,0:0:0:0:
182,192,159258,128,0,159603:0:0:0:45:bell2.wav
475,192,159258,1,0,0:0:0:65:LR_Chm_Soft_NLV.wav
402,192,159430,1,0,0:0:0:65:LR_Chm_Soft_NLV.wav
109,192,159603,128,0,159948:0:0:0:45:bell2.wav
329,192,159603,1,0,0:0:0:65:LR_Chm_Soft_NLV.wav
182,192,159948,128,0,160292:0:0:0:45:bell2.wav
329,192,159948,1,0,0:0:0:65:LR_Chm_Soft_NLV.wav
402,192,160120,1,0,0:0:0:65:LR_Chm_Soft_NLV.wav
256,192,160292,128,0,160637:0:0:0:45:bell2.wav
475,192,160292,1,0,0:0:0:65:LR_Chm_Soft_NLV.wav
36,192,160637,128,0,161672:0:0:0:65:LR_Chm_Soft_NLV.wav
402,192,160637,128,0,160982:0:0:0:45:bell2.wav
182,192,160637,1,0,0:0:0:0:
109,192,160810,1,0,0:0:0:65:LR_Chm_Soft_NLV.wav
329,192,160982,128,0,161672:0:0:0:45:bell2.wav
182,192,161155,1,0,0:0:0:65:LR_Chm_Soft_NLV.wav
256,192,161327,1,0,0:0:0:65:LR_Chm_Soft_NLV.wav
