osu file format v14

[General]
AudioFilename: audio.mp3
AudioLeadIn: 0
PreviewTime: 58527
Countdown: 0
SampleSet: Normal
StackLeniency: 0.7
Mode: 1
LetterboxInBreaks: 0
WidescreenStoryboard: 1

[Editor]
Bookmarks: 1226,10826,30026,39626,58826,68426,75626,85226,95126,104426,118826,132026,141626,148826,158426,168026,177626,186626,199226,218426,228026,237626
DistanceSpacing: 0.1
BeatDivisor: 4
GridSize: 32
TimelineZoom: 2.150004

[Metadata]
Title:Weenywalker
TitleUnicode:ウィーニーウォーカー
Artist:youman
ArtistUnicode:youまん
Creator:gaston_2199
Version:Muzukashii
Source:
Tags:ボーカロイド vocaloid グミ GUMI メグッポイド megpoid ブイフラワ flower vflower japanese rock jrock j-rock 6_4 paz08
BeatmapID:4191080
BeatmapSetID:1994252

[Difficulty]
HPDrainRate:6
CircleSize:2
OverallDifficulty:5
ApproachRate:10
SliderMultiplier:1.4
SliderTickRate:1

[Events]
//Background and Video events
0,0,"BG.jpg",0,0
//Break Periods
//Storyboard Layer 0 (Background)
//Storyboard Layer 1 (Fail)
//Storyboard Layer 2 (Pass)
//Storyboard Layer 3 (Foreground)
//Storyboard Layer 4 (Overlay)
//Storyboard Sound Samples

[TimingPoints]
28,300,4,1,0,40,1,8
628,-125,4,1,0,40,0,8
1227,300,4,1,0,40,1,0
1227,-125,4,1,0,40,0,8
6027,-111.111111111111,4,1,0,70,0,8
9627,-90.9090909090909,4,1,0,80,0,8
10527,-111.111111111111,4,1,0,70,0,8
10827,-100,4,1,0,90,0,8
30177,-125,4,1,0,60,0,8
39627,-100,4,1,0,80,0,8
48174,-101.26582278481,4,1,0,80,0,8
48249,-101.910828025478,4,1,0,80,0,8
48324,-102.564102564103,4,1,0,80,0,8
48474,-103.896103896104,4,1,0,80,0,8
48624,-105.263157894737,4,1,0,80,0,8
48774,-106.666666666667,4,1,0,80,0,8
48924,-108.108108108108,4,1,0,80,0,8
49074,-109.58904109589,4,1,0,80,0,8
49224,-111.111111111111,4,1,0,80,0,8
49377,-125,4,1,0,70,0,8
54324,-124.51289,4,1,0,70,0,8
54477,-123.48409,4,1,0,70,0,8
54624,-122.50366,4,1,0,70,0,8
54924,-120.52685,4,1,0,70,0,8
55074,-119.550446,4,1,0,70,0,8
55227,-118.56264,4,1,0,70,0,8
55374,-117.62129,4,1,0,70,0,8
55674,-115.72326,4,1,0,70,0,8
55824,-114.78576,4,1,0,70,0,8
55974,-113.85586,4,1,0,70,0,8
56124,-112.9335,4,1,0,70,0,8
56274,-112.01859,4,1,0,70,0,8
56424,-100,4,1,0,80,0,8
56727,-96.53256,4,1,0,80,0,8
56877,-94.860756,4,1,0,80,0,8
57027,-93.2179,4,1,0,80,0,8
57177,-91.60351,4,1,0,80,0,8
57327,-90.01707,4,1,0,80,0,8
57477,-88.45811,4,1,0,80,0,8
57624,-86.9565217391304,4,1,0,90,0,8
58827,-100,4,1,0,100,0,1
67827,-100,4,1,0,100,0,0
68427,-100,4,1,0,100,0,1
74727,-83.3333333333333,4,1,0,100,0,1
75627,-83.3333333333333,4,1,0,100,0,0
75702,-111.145820837341,4,1,0,80,0,0
85152,-125,4,1,0,70,0,0
94074,-119.047619047619,4,1,0,80,0,0
94149,-116.279069767442,4,1,0,80,0,0
94224,-113.636363636364,4,1,0,80,0,0
94374,-108.695652173913,4,1,0,80,0,0
94524,-104.166666666667,4,1,0,80,0,0
94674,-100,4,1,0,80,0,0
94827,-111.111111111111,4,1,0,80,0,0
95127,-100,4,1,0,80,0,0
104427,-125,4,1,0,60,0,0
114024,-133.333333333333,4,1,0,70,0,0
117627,-83.3333333333333,4,1,0,100,0,1
118227,-76.9230769230769,4,1,0,80,0,0
118827,300,7,1,0,100,1,1
118827,-90.9090909090909,7,1,0,100,0,1
118899,-91.254752851711,7,1,0,100,0,1
118974,-91.6030534351145,7,1,0,100,0,1
119049,-86.34315,7,1,0,100,0,1
119124,-92.3076923076923,7,1,0,100,0,1
119274,-93.0232558139535,7,1,0,100,0,1
119424,-93.75,7,1,0,100,0,1
119874,-96,7,1,0,100,0,1
119949,-96.3855421686747,7,1,0,100,0,1
120024,-96.7741935483871,7,1,0,100,0,1
120174,-97.5609756097561,7,1,0,100,0,1
120324,-98.3606557377049,7,1,0,100,0,1
120474,-99.1735537190083,7,1,0,100,0,1
120627,-100,7,1,0,90,0,0
120927,-90.9090909090909,7,1,0,100,0,1
120999,-91.254752851711,7,1,0,100,0,1
121074,-91.6030534351145,7,1,0,100,0,1
121224,-92.3076923076923,7,1,0,100,0,1
121374,-93.0232558139535,7,1,0,100,0,1
121524,-93.75,7,1,0,100,0,1
121974,-96,7,1,0,100,0,1
122049,-96.3855421686747,7,1,0,100,0,1
122124,-96.7741935483871,7,1,0,100,0,1
122274,-97.5609756097561,7,1,0,100,0,1
122424,-98.3606557377049,7,1,0,100,0,1
122574,-99.1735537190083,7,1,0,100,0,1
122727,-100,7,1,0,90,0,0
123027,-90.9090909090909,7,1,0,100,0,1
123324,-92.5626489755923,7,1,0,100,0,1
123474,-93.3875486226204,7,1,0,100,0,1
123624,-94.2086316924358,7,1,0,100,0,1
123699,-94.6169904437514,7,1,0,100,0,1
123774,-95.023421959991,7,1,0,100,0,1
124074,-96.6207756232104,7,1,0,100,0,1
124224,-97.393928199051,7,1,0,100,0,1
124299,-97.7711799071693,7,1,0,100,0,1
124374,-98.1405836440465,7,1,0,100,0,1
124524,-98.8486974922857,7,1,0,100,0,1
124674,-99.4955869394194,7,1,0,100,0,1
124827,-100,7,1,0,90,0,0
125127,-90.9090909090909,7,1,0,100,0,1
125424,-92.5626489755923,7,1,0,100,0,1
125574,-93.3875486226204,7,1,0,100,0,1
125724,-94.2086316924358,7,1,0,100,0,1
125799,-94.6169904437514,7,1,0,100,0,1
125874,-95.023421959991,7,1,0,100,0,1
126174,-96.6207756232104,7,1,0,100,0,1
126324,-97.393928199051,7,1,0,100,0,1
126399,-97.7711799071693,7,1,0,100,0,1
126474,-98.1405836440465,7,1,0,100,0,1
126624,-98.8486974922857,7,1,0,100,0,1
126774,-99.4955869394194,7,1,0,100,0,1
126927,-100,7,1,0,90,0,0
127227,300,4,1,0,80,1,0
127227,-83.3333333333333,4,1,0,80,0,0
129627,-90.9090909090909,4,1,0,80,0,0
129777,-90.9090909090909,4,1,0,100,0,1
129924,-86.103905,4,1,0,100,0,1
129999,-87.55276,4,1,0,100,0,1
130074,-89.02598,4,1,0,100,0,1
130224,-95.1391352082574,4,1,0,100,0,1
130374,-95.17101,4,1,0,100,0,1
130449,-96.77242,4,1,0,100,0,1
130524,-97.8244662074613,4,1,0,100,0,1
130674,-101.74019,4,1,0,100,0,1
130827,-100,4,1,0,90,0,0
131727,-111.111111111111,4,1,0,90,0,0
132027,-100,7,1,0,100,0,1
141027,-100,4,1,0,100,0,0
141627,-100,4,1,0,100,0,1
147927,-83.3333333333333,4,1,0,100,0,1
148827,-90.9090909090909,4,1,0,100,0,0
149124,-89.10915,4,1,0,80,0,0
149274,-93.3875486226204,4,1,0,80,0,0
149574,-98.63217,4,1,0,80,0,0
149724,-95.8288088248754,4,1,0,80,0,0
150024,-97.393928199051,4,1,0,80,0,0
150174,-98.1405836440465,4,1,0,80,0,0
150474,-120.84013,4,1,0,80,0,0
150624,-100,4,1,0,80,0,0
151224,-90.9090909090909,4,1,0,80,0,0
151524,-88.302826,4,1,0,80,0,0
151674,-93.3875486226204,4,1,0,80,0,0
151974,-96.31823,4,1,0,80,0,0
152124,-95.8288088248754,4,1,0,80,0,0
152424,-97.393928199051,4,1,0,80,0,0
152574,-98.1405836440465,4,1,0,80,0,0
152874,-114.59776,4,1,0,80,0,0
153024,-100,4,1,0,80,0,0
156024,-100,4,1,0,80,0,0
156174,-99.4403821451144,4,1,0,80,0,0
156249,-102.672386,4,1,0,80,0,0
156324,-98.7236030152273,4,1,0,80,0,0
156474,-97.9401525434484,4,1,0,80,0,0
156549,-97.531931240346,4,1,0,80,0,0
156624,-97.1153788972488,4,1,0,80,0,0
156774,-96.2627591391055,4,1,0,80,0,0
156924,-95.3908889265456,4,1,0,80,0,0
156999,-94.48828,4,1,0,80,0,0
157074,-94.5057949300314,4,1,0,80,0,0
157149,-92.93145,4,1,0,80,0,0
157224,-93.6119534777146,4,1,0,80,0,0
157299,-93.1628625178034,4,1,0,80,0,0
157374,-92.7128187086832,4,1,0,80,0,0
157449,-89.894356,4,1,0,80,0,0
157524,-91.8111276833107,4,1,0,80,0,0
157674,-90.9090909090909,4,1,0,80,0,0
157749,-86.95652,4,1,0,80,0,0
158127,-125,7,1,0,70,0,0
158427,-90.9090909090909,4,1,0,100,0,1
158724,-91.9540229885057,4,1,0,100,0,1
158874,-92.485549132948,4,1,0,100,0,1
158949,-92.7536231884058,4,1,0,100,0,1
159024,-93.0232558139535,4,1,0,100,0,1
159174,-93.5672514619883,4,1,0,100,0,1
159324,-94.1176470588235,4,1,0,100,0,1
159624,-95.2380952380952,4,1,0,100,0,1
159774,-95.8083832335329,4,1,0,100,0,1
159849,-96.0960960960961,4,1,0,100,0,1
159924,-96.3855421686747,4,1,0,100,0,1
160074,-96.969696969697,4,1,0,100,0,1
160224,-97.5609756097561,4,1,0,100,0,1
160524,-98.7654320987654,4,1,0,100,0,1
160824,-90.9090909090909,4,1,0,100,0,1
160899,-91.1680911680912,4,1,0,100,0,1
160974,-91.4285714285714,4,1,0,100,0,1
161124,-91.9540229885057,4,1,0,100,0,1
161274,-92.485549132948,4,1,0,100,0,1
161424,-93.0232558139535,4,1,0,100,0,1
161724,-94.1176470588235,4,1,0,100,0,1
161799,-94.3952802359882,4,1,0,100,0,1
161874,-94.6745562130177,4,1,0,100,0,1
162024,-95.2380952380952,4,1,0,100,0,1
162174,-95.8083832335329,4,1,0,100,0,1
162324,-96.3855421686747,4,1,0,100,0,1
162474,-96.969696969697,4,1,0,100,0,1
162624,-97.5609756097561,4,1,0,100,0,1
162699,-97.8593272171254,4,1,0,100,0,1
162774,-98.159509202454,4,1,0,100,0,1
162924,-98.7654320987654,4,1,0,100,0,1
163074,-99.3788819875776,4,1,0,100,0,1
163224,-90.9090909090909,7,1,0,100,0,1
163674,-100,4,1,0,100,0,1
163824,-99.236641221374,4,1,0,100,0,1
163974,-98.4848484848485,4,1,0,100,0,1
164124,-97.7443609022557,4,1,0,100,0,1
164274,-97.0149253731343,4,1,0,100,0,1
164424,-96.2962962962963,4,1,0,100,0,1
164499,-95.9409594095941,4,1,0,100,0,1
164574,-95.5882352941176,4,1,0,100,0,1
164874,-94.2028985507246,4,1,0,100,0,1
165024,-93.5251798561151,4,1,0,100,0,1
165174,-92.8571428571428,4,1,0,100,0,1
165324,-92.1985815602837,4,1,0,100,0,1
165399,-91.8727915194346,4,1,0,100,0,1
165474,-91.5492957746479,4,1,0,100,0,1
165624,-90.9090909090909,4,1,0,100,0,1
165924,-100,4,1,0,100,0,1
166074,-99.290780141844,4,1,0,100,0,1
166224,-98.5915492957747,4,1,0,100,0,1
166299,-98.2456140350877,4,1,0,100,0,1
166374,-97.9020979020979,4,1,0,100,0,1
166524,-97.2222222222222,4,1,0,100,0,1
166674,-96.551724137931,4,1,0,100,0,1
166824,-95.8904109589041,4,1,0,100,0,1
166974,-95.2380952380952,4,1,0,100,0,1
167124,-94.5945945945946,4,1,0,100,0,1
167274,-93.9597315436242,4,1,0,100,0,1
167424,-93.3333333333333,4,1,0,100,0,1
167499,-93.0232558139535,4,1,0,100,0,1
167574,-92.7152317880795,4,1,0,100,0,1
167724,-92.1052631578947,4,1,0,100,0,1
167874,-91.5032679738562,4,1,0,100,0,1
168027,-83.3333333333333,4,1,0,80,0,0
177624,-100,4,1,0,60,0,0
177924,-102.25424,4,1,0,60,0,0
178224,-102.941176470588,4,1,0,60,0,0
178524,-104.477611940299,4,1,0,60,0,0
178824,-106.060606060606,4,1,0,60,0,0
179124,-111.791,4,1,0,60,0,0
179424,-109.375,4,1,0,60,0,0
179724,-116.88792,4,1,0,60,0,0
180024,-112.903225806452,4,1,0,60,0,0
180324,-122.21722,4,1,0,60,0,0
180624,-116.666666666667,4,1,0,60,0,0
180924,-118.64406779661,4,1,0,60,0,0
181224,-120.689655172414,4,1,0,60,0,0
181524,-133.61581,4,1,0,60,0,0
181824,-125,4,1,0,60,0,0
182124,-139.70778,4,1,0,60,0,0
182424,-83.3333333333333,4,1,0,80,0,0
186027,-142.857142857143,7,1,0,70,0,0
186627,-83.3333333333333,7,1,0,80,0,0
188424,-100,4,1,0,80,0,0
189024,-90.9090952066118,4,1,0,80,0,0
190224,-83.3333333333333,4,1,0,80,0,0
191124,-100,4,1,0,90,0,0
191424,-97.2222222222222,4,1,0,90,0,0
191724,-94.5945945945946,4,1,0,90,0,0
191874,-93.3333333333333,4,1,0,90,0,0
192024,-92.1052631578947,4,1,0,90,0,0
192174,-90.9090909090909,4,1,0,90,0,0
192324,-89.7435897435897,4,1,0,90,0,0
192474,-88.6075949367089,4,1,0,90,0,0
192624,-87.5,4,1,0,90,0,0
192924,-85.3658536585366,4,1,0,90,0,0
193074,-84.3373493975904,4,1,0,90,0,0
193224,-83.3333333333333,4,1,0,90,0,0
194427,-133.333333333333,7,1,0,80,0,0
195624,-100,4,1,0,90,0,0
195774,-92.982056,4,1,0,90,0,0
195924,-97.7236031980379,4,1,0,90,0,0
196074,-96.3490535829193,4,1,0,90,0,0
196224,-94.9202386268044,4,1,0,90,0,0
196374,-93.462469084749,4,1,0,90,0,0
196449,-83.473206,4,1,0,90,0,0
196524,-91.9916607882264,4,1,0,90,0,0
196674,-90.5186887724378,4,1,0,90,0,0
196824,-89.0513405768094,4,1,0,90,0,0
196899,-88.3216286681535,4,1,0,90,0,0
196974,-87.5953487759637,4,1,0,90,0,0
197049,-75.84044,4,1,0,90,0,0
197124,-86.1549992558583,4,1,0,90,0,0
197274,-84.7335182801833,4,1,0,90,0,0
197424,-83.3333333333333,4,1,0,90,0,0
197577,-142.857142857143,7,1,0,10,0,0
199227,-100,7,1,0,100,0,1
208227,-100,4,1,0,100,0,0
208827,-100,4,1,0,100,0,1
216027,-83.3333333333333,4,1,0,100,0,1
217227,-83.3333333333333,4,1,0,80,0,0
217527,-111.111111111111,7,1,0,70,0,0
218427,-100,7,1,0,90,0,1
218577,-100,7,1,0,90,0,1
227424,-100,4,1,0,90,0,1
227499,-99.5893470896453,4,1,0,90,0,1
227574,-99.0615671349319,4,1,0,90,0,1
227649,-90.327324,4,1,0,90,0,1
227724,-97.8699808265418,4,1,0,90,0,1
227799,-97.234049532893,4,1,0,90,0,1
227874,-96.5807253753016,4,1,0,90,0,1
228024,-95.2380952380952,4,1,0,90,0,1
237627,-86.9565217391304,7,1,0,90,0,0
237777,-125,4,1,0,40,0,8
245727,-100,4,1,0,80,0,8

[HitObjects]
256,192,1078,5,0,0:0:0:0:
256,192,1228,1,8,0:0:0:0:
256,192,2127,1,8,0:0:0:0:
256,192,2427,1,8,0:0:0:0:
256,192,3327,1,8,0:0:0:0:
256,192,3627,1,0,0:0:0:0:
256,192,4527,1,0,0:0:0:0:
256,192,4827,1,8,0:0:0:0:
256,192,5577,1,8,0:0:0:0:
256,192,5652,1,8,0:0:0:0:
256,192,5727,1,8,0:0:0:0:
256,192,6027,1,0,0:0:0:0:
256,192,6327,1,8,0:0:0:0:
256,192,6627,1,8,0:0:0:0:
256,192,6927,1,0,0:0:0:0:
256,192,7227,1,8,0:0:0:0:
256,192,7527,1,8,0:0:0:0:
256,192,7827,1,8,0:0:0:0:
256,192,8127,1,8,0:0:0:0:
256,192,8427,1,0,0:0:0:0:
256,192,8727,1,8,0:0:0:0:
256,192,9027,1,8,0:0:0:0:
256,192,9327,1,8,0:0:0:0:
256,192,9627,1,4,0:0:0:0:
256,192,9927,1,4,0:0:0:0:
256,192,10227,1,4,0:0:0:0:
256,192,10827,1,4,0:0:0:0:
256,192,11127,1,8,0:0:0:0:
256,192,11277,1,0,0:0:0:0:
256,192,11427,1,8,0:0:0:0:
256,192,11727,1,8,0:0:0:0:
256,192,12027,1,0,0:0:0:0:
256,192,12102,1,0,0:0:0:0:
256,192,12177,1,0,0:0:0:0:
256,192,12327,1,8,0:0:0:0:
256,192,12477,1,8,0:0:0:0:
256,192,12627,1,0,0:0:0:0:
256,192,12927,1,8,0:0:0:0:
256,192,13077,1,0,0:0:0:0:
256,192,13227,1,8,0:0:0:0:
256,192,13527,1,8,0:0:0:0:
256,192,13827,1,0,0:0:0:0:
256,192,14127,1,8,0:0:0:0:
256,192,14277,1,8,0:0:0:0:
256,192,14427,1,0,0:0:0:0:
256,192,14502,1,0,0:0:0:0:
256,192,14577,1,0,0:0:0:0:
256,192,14727,1,8,0:0:0:0:
256,192,14877,1,0,0:0:0:0:
256,192,15027,1,0,0:0:0:0:
256,192,15177,1,8,0:0:0:0:
256,192,15327,1,8,0:0:0:0:
256,192,15627,1,0,0:0:0:0:
256,192,15927,1,8,0:0:0:0:
256,192,16077,1,0,0:0:0:0:
256,192,16227,1,8,0:0:0:0:
256,192,16527,1,8,0:0:0:0:
256,192,16827,1,0,0:0:0:0:
256,192,16902,1,0,0:0:0:0:
256,192,16977,1,0,0:0:0:0:
256,192,17127,1,8,0:0:0:0:
256,192,17277,1,0,0:0:0:0:
256,192,17427,1,8,0:0:0:0:
256,192,17727,1,8,0:0:0:0:
256,192,18027,1,0,0:0:0:0:
256,192,18327,1,8,0:0:0:0:
252,150,18477,1,0,0:0:0:0:
256,192,18627,1,0,0:0:0:0:
256,192,18927,1,8,0:0:0:0:
256,192,19227,1,8,0:0:0:0:
256,192,19377,1,0,0:0:0:0:
256,192,19527,1,8,0:0:0:0:
256,192,19677,1,8,0:0:0:0:
256,192,19827,1,0,0:0:0:0:
256,192,19902,1,0,0:0:0:0:
256,192,19977,1,0,0:0:0:0:
256,192,20127,1,8,0:0:0:0:
256,192,20427,1,4,0:0:0:0:
256,192,20727,1,8,0:0:0:0:
256,192,20877,1,0,0:0:0:0:
256,192,21027,1,8,0:0:0:0:
256,192,21327,1,8,0:0:0:0:
256,192,21627,1,0,0:0:0:0:
256,192,21702,1,0,0:0:0:0:
256,192,21777,1,0,0:0:0:0:
256,192,21927,1,8,0:0:0:0:
256,192,22077,1,8,0:0:0:0:
256,192,22227,1,0,0:0:0:0:
256,192,22527,1,8,0:0:0:0:
256,192,22677,1,0,0:0:0:0:
256,192,22827,1,8,0:0:0:0:
256,192,23127,1,8,0:0:0:0:
256,192,23427,1,0,0:0:0:0:
256,192,23727,1,8,0:0:0:0:
256,192,23877,1,8,0:0:0:0:
256,192,24027,1,0,0:0:0:0:
256,192,24102,1,0,0:0:0:0:
256,192,24177,1,0,0:0:0:0:
256,192,24327,1,8,0:0:0:0:
256,192,24477,1,0,0:0:0:0:
256,192,24627,1,0,0:0:0:0:
256,192,24777,1,8,0:0:0:0:
256,192,24927,1,8,0:0:0:0:
256,192,25227,1,0,0:0:0:0:
256,192,25527,1,8,0:0:0:0:
256,192,25677,1,0,0:0:0:0:
256,192,25827,1,8,0:0:0:0:
256,192,26127,1,8,0:0:0:0:
256,192,26427,1,0,0:0:0:0:
256,192,26502,1,0,0:0:0:0:
256,192,26577,1,0,0:0:0:0:
256,192,26727,1,8,0:0:0:0:
256,192,26877,1,0,0:0:0:0:
256,192,27027,1,8,0:0:0:0:
256,192,27327,1,8,0:0:0:0:
256,192,27627,1,0,0:0:0:0:
256,192,27927,1,8,0:0:0:0:
252,150,28077,1,8,0:0:0:0:
256,192,28227,1,0,0:0:0:0:
256,192,28527,1,8,0:0:0:0:
256,192,28827,1,0,0:0:0:0:
245,128,28977,1,0,0:0:0:0:
256,192,29127,1,8,0:0:0:0:
256,192,29277,1,8,0:0:0:0:
256,192,29427,1,0,0:0:0:0:
256,192,29502,1,0,0:0:0:0:
256,192,29577,1,0,0:0:0:0:
256,192,29727,5,8,0:0:0:0:
249,120,29877,1,8,0:0:0:0:
256,192,30027,5,4,0:0:0:0:
256,192,30327,1,8,0:0:0:0:
247,157,30627,1,0,0:0:0:0:
247,157,30777,1,0,0:0:0:0:
256,192,30927,1,8,0:0:0:0:
256,192,31227,1,0,0:0:0:0:
256,192,31527,1,8,0:0:0:0:
245,186,31827,1,8,0:0:0:0:
259,176,31977,1,0,0:0:0:0:
256,192,32127,1,8,0:0:0:0:
192,102,32277,1,8,0:0:0:0:
256,192,32427,1,0,0:0:0:0:
256,192,32727,1,8,0:0:0:0:
256,192,33027,1,0,0:0:0:0:
249,157,33177,1,0,0:0:0:0:
256,192,33327,1,8,0:0:0:0:
256,192,33627,1,0,0:0:0:0:
256,192,33927,1,8,0:0:0:0:
256,192,34227,1,0,0:0:0:0:
183,64,34377,1,8,0:0:0:0:
256,192,34527,1,0,0:0:0:0:
242,173,34827,1,0,0:0:0:0:
256,192,35127,1,8,0:0:0:0:
248,178,35427,1,8,0:0:0:0:
248,178,35577,1,0,0:0:0:0:
256,192,35727,1,8,0:0:0:0:
256,192,36027,1,0,0:0:0:0:
256,192,36327,1,8,0:0:0:0:
273,205,36627,1,0,0:0:0:0:
242,173,36777,1,0,0:0:0:0:
256,192,36927,1,8,0:0:0:0:
256,192,37227,1,0,0:0:0:0:
256,192,37527,1,8,0:0:0:0:
190,83,37677,1,0,0:0:0:0:
256,192,37827,1,8,0:0:0:0:
252,178,37977,1,0,0:0:0:0:
256,192,38127,1,8,0:0:0:0:
256,192,38427,1,0,0:0:0:0:
256,192,39027,1,8,0:0:0:0:
256,192,39327,1,8,0:0:0:0:
256,192,39627,1,4,0:0:0:0:
256,192,39927,1,8,0:0:0:0:
256,192,40227,1,8,0:0:0:0:
256,192,40377,1,0,0:0:0:0:
256,192,40527,1,8,0:0:0:0:
256,192,40827,1,0,0:0:0:0:
256,192,41127,1,8,0:0:0:0:
256,192,41277,1,0,0:0:0:0:
256,192,41427,1,0,0:0:0:0:
256,192,41577,1,0,0:0:0:0:
256,192,41727,1,8,0:0:0:0:
256,192,42027,1,0,0:0:0:0:
256,192,42327,1,8,0:0:0:0:
256,192,42627,1,8,0:0:0:0:
256,192,42777,1,0,0:0:0:0:
256,192,42927,1,8,0:0:0:0:
256,192,43227,1,0,0:0:0:0:
256,192,43527,1,8,0:0:0:0:
256,192,43677,1,8,0:0:0:0:
256,192,43827,1,0,0:0:0:0:
256,192,44127,1,0,0:0:0:0:
256,192,44427,1,8,0:0:0:0:
256,192,44727,1,8,0:0:0:0:
256,192,44877,1,8,0:0:0:0:
256,192,45027,1,0,0:0:0:0:
256,192,45177,1,0,0:0:0:0:
256,192,45327,1,8,0:0:0:0:
256,192,45627,1,0,0:0:0:0:
256,192,45927,1,8,0:0:0:0:
256,192,46077,1,0,0:0:0:0:
256,192,46227,1,8,0:0:0:0:
256,192,46377,1,0,0:0:0:0:
256,192,46527,1,8,0:0:0:0:
256,192,46827,1,0,0:0:0:0:
256,192,47127,1,8,0:0:0:0:
256,192,47427,1,0,0:0:0:0:
256,192,47577,1,0,0:0:0:0:
256,192,47727,1,8,0:0:0:0:
256,192,48027,1,0,0:0:0:0:
256,192,48177,1,8,0:0:0:0:
256,192,48327,1,8,0:0:0:0:
256,192,48477,1,8,0:0:0:0:
256,192,48627,1,0,0:0:0:0:
256,192,48777,1,0,0:0:0:0:
256,192,48927,1,8,0:0:0:0:
256,192,49077,1,8,0:0:0:0:
256,192,49227,1,4,0:0:0:0:
256,192,49527,1,8,0:0:0:0:
256,192,49827,1,0,0:0:0:0:
256,192,50127,1,8,0:0:0:0:
256,192,50277,1,0,0:0:0:0:
256,192,50577,1,8,0:0:0:0:
256,192,50877,1,0,0:0:0:0:
256,192,51027,1,8,0:0:0:0:
256,192,51477,1,8,0:0:0:0:
256,192,51627,1,0,0:0:0:0:
256,192,51777,1,0,0:0:0:0:
256,192,51927,1,8,0:0:0:0:
256,192,52227,1,0,0:0:0:0:
256,192,52527,1,8,0:0:0:0:
256,192,52677,1,8,0:0:0:0:
256,192,52827,1,0,0:0:0:0:
256,192,53127,1,8,0:0:0:0:
256,192,53427,1,0,0:0:0:0:
256,192,54027,1,0,0:0:0:0:
256,192,54327,1,8,0:0:0:0:
256,192,54627,1,0,0:0:0:0:
256,192,54927,1,8,0:0:0:0:
256,192,55077,1,0,0:0:0:0:
256,192,55377,1,8,0:0:0:0:
256,192,55677,1,0,0:0:0:0:
256,192,55827,1,0,0:0:0:0:
256,192,56427,1,12,0:0:0:0:
256,192,56727,1,8,0:0:0:0:
256,192,56877,1,0,0:0:0:0:
256,192,57027,1,8,0:0:0:0:
256,192,57177,1,0,0:0:0:0:
256,192,57327,1,8,0:0:0:0:
256,192,57477,1,8,0:0:0:0:
256,192,57627,1,4,0:0:0:0:
256,192,57927,1,4,0:0:0:0:
256,192,58227,1,4,0:0:0:0:
256,192,58827,1,12,0:0:0:0:
256,192,59277,1,8,0:0:0:0:
256,192,59427,1,0,0:0:0:0:
256,192,59577,1,0,0:0:0:0:
256,192,59727,1,8,0:0:0:0:
256,192,59877,1,8,0:0:0:0:
256,192,60027,1,0,0:0:0:0:
256,192,60327,1,8,0:0:0:0:
256,192,60477,1,8,0:0:0:0:
256,192,60627,1,0,0:0:0:0:
256,192,60702,1,0,0:0:0:0:
256,192,60777,1,0,0:0:0:0:
256,192,60927,1,8,0:0:0:0:
256,192,61227,1,0,0:0:0:0:
256,192,61677,1,0,0:0:0:0:
256,192,61827,1,8,0:0:0:0:
256,192,61977,1,0,0:0:0:0:
256,192,62127,1,8,0:0:0:0:
256,192,62277,1,8,0:0:0:0:
256,192,62427,1,0,0:0:0:0:
256,192,62727,1,8,0:0:0:0:
256,192,62802,1,8,0:0:0:0:
256,192,62877,1,8,0:0:0:0:
256,192,63027,1,0,0:0:0:0:
256,192,63177,1,8,0:0:0:0:
256,192,63327,1,8,0:0:0:0:
256,192,63627,1,0,0:0:0:0:
256,192,63927,1,8,0:0:0:0:
256,192,64077,1,0,0:0:0:0:
256,192,64227,1,0,0:0:0:0:
256,192,64377,1,0,0:0:0:0:
256,192,64527,1,8,0:0:0:0:
256,192,64827,1,8,0:0:0:0:
256,192,64977,1,0,0:0:0:0:
256,192,65127,1,8,0:0:0:0:
256,192,65277,1,8,0:0:0:0:
256,192,65427,1,0,0:0:0:0:
256,192,65577,1,0,0:0:0:0:
256,192,65727,1,8,0:0:0:0:
256,192,66027,1,0,0:0:0:0:
256,192,66327,1,8,0:0:0:0:
256,192,66477,1,0,0:0:0:0:
256,192,66627,1,8,0:0:0:0:
256,192,66777,1,0,0:0:0:0:
256,192,66927,1,8,0:0:0:0:
207,78,67002,1,8,0:0:0:0:
256,192,67077,1,8,0:0:0:0:
256,192,67227,1,0,0:0:0:0:
256,192,67527,1,8,0:0:0:0:
256,192,67677,1,8,0:0:0:0:
256,192,67827,1,4,0:0:0:0:
256,192,68127,1,4,0:0:0:0:
256,192,68427,1,12,0:0:0:0:
256,192,68877,1,8,0:0:0:0:
256,192,69027,1,0,0:0:0:0:
256,192,69102,1,0,0:0:0:0:
256,192,69177,1,0,0:0:0:0:
256,192,69327,1,8,0:0:0:0:
256,192,69477,1,0,0:0:0:0:
256,192,69627,1,8,0:0:0:0:
256,192,69927,1,8,0:0:0:0:
256,192,70077,1,8,0:0:0:0:
256,192,70227,1,0,0:0:0:0:
256,192,70377,1,0,0:0:0:0:
256,192,70527,1,8,0:0:0:0:
256,192,70827,1,0,0:0:0:0:
256,192,71127,1,8,0:0:0:0:
256,192,71277,1,0,0:0:0:0:
256,192,71427,1,8,0:0:0:0:
256,192,71502,1,8,0:0:0:0:
256,192,71577,1,8,0:0:0:0:
256,192,71727,1,0,0:0:0:0:
256,192,71877,1,8,0:0:0:0:
256,192,72027,1,0,0:0:0:0:
256,192,72327,1,8,0:0:0:0:
256,192,72477,1,8,0:0:0:0:
256,192,72627,1,0,0:0:0:0:
256,192,72777,1,0,0:0:0:0:
256,192,72927,1,8,0:0:0:0:
256,192,73227,1,4,0:0:0:0:
256,192,73527,1,8,0:0:0:0:
256,192,73827,1,8,0:0:0:0:
256,192,73977,1,0,0:0:0:0:
256,192,74127,1,8,0:0:0:0:
256,192,74277,1,0,0:0:0:0:
256,192,74427,1,8,0:0:0:0:
256,192,74727,1,4,0:0:0:0:
256,192,74877,1,4,0:0:0:0:
256,192,75027,1,4,0:0:0:0:
256,192,75327,1,12,0:0:0:0:
256,192,75627,1,4,0:0:0:0:
256,192,75927,1,8,0:0:0:0:
256,192,76227,1,0,0:0:0:0:
256,192,76377,1,0,0:0:0:0:
256,192,76527,1,8,0:0:0:0:
256,192,76827,1,0,0:0:0:0:
256,192,77127,1,8,0:0:0:0:
256,192,77277,1,0,0:0:0:0:
256,192,77427,1,0,0:0:0:0:
256,192,77577,1,0,0:0:0:0:
256,192,77727,1,8,0:0:0:0:
256,192,78027,1,0,0:0:0:0:
256,192,78327,1,8,0:0:0:0:
256,192,78477,1,8,0:0:0:0:
256,192,78627,1,0,0:0:0:0:
256,192,78777,1,0,0:0:0:0:
256,192,78927,1,8,0:0:0:0:
256,192,79227,1,8,0:0:0:0:
256,192,79377,1,0,0:0:0:0:
256,192,79527,1,8,0:0:0:0:
256,192,79677,1,8,0:0:0:0:
256,192,79827,1,0,0:0:0:0:
256,192,79977,1,0,0:0:0:0:
256,192,80127,1,8,0:0:0:0:
256,192,80427,1,0,0:0:0:0:
256,192,80727,1,8,0:0:0:0:
256,192,81027,1,0,0:0:0:0:
256,192,81177,1,0,0:0:0:0:
256,192,81327,1,8,0:0:0:0:
256,192,81627,1,0,0:0:0:0:
256,192,81777,1,0,0:0:0:0:
256,192,81927,1,8,0:0:0:0:
256,192,82077,1,8,0:0:0:0:
256,192,82227,1,0,0:0:0:0:
256,192,82527,1,8,0:0:0:0:
256,192,82827,1,0,0:0:0:0:
256,192,83127,1,8,0:0:0:0:
256,192,83277,1,8,0:0:0:0:
256,192,83427,1,0,0:0:0:0:
256,192,83577,1,0,0:0:0:0:
256,192,83727,1,8,0:0:0:0:
256,192,83877,1,0,0:0:0:0:
256,192,84027,1,8,0:0:0:0:
256,192,84327,1,8,0:0:0:0:
256,192,84477,1,8,0:0:0:0:
256,192,84627,1,0,0:0:0:0:
256,192,84702,1,0,0:0:0:0:
256,192,84777,1,0,0:0:0:0:
256,192,84927,1,8,0:0:0:0:
256,192,85227,1,4,0:0:0:0:
256,192,85527,1,8,0:0:0:0:
256,192,85827,1,8,0:0:0:0:
256,192,86127,1,0,0:0:0:0:
256,192,86427,1,0,0:0:0:0:
256,192,86727,1,8,0:0:0:0:
256,192,87027,1,8,0:0:0:0:
256,192,87327,1,0,0:0:0:0:
256,192,87627,1,0,0:0:0:0:
256,192,87927,1,8,0:0:0:0:
256,192,88227,1,8,0:0:0:0:
256,192,88527,1,0,0:0:0:0:
256,192,88827,1,0,0:0:0:0:
256,192,89127,1,8,0:0:0:0:
256,192,89427,1,8,0:0:0:0:
256,192,89727,1,0,0:0:0:0:
256,192,90027,1,0,0:0:0:0:
256,192,90477,1,8,0:0:0:0:
256,192,90777,1,0,0:0:0:0:
256,192,90927,1,8,0:0:0:0:
256,192,91227,1,0,0:0:0:0:
256,192,91677,1,8,0:0:0:0:
256,192,91977,1,0,0:0:0:0:
256,192,92127,1,8,0:0:0:0:
256,192,92427,1,8,0:0:0:0:
256,192,92727,1,0,0:0:0:0:
256,192,92877,1,8,0:0:0:0:
256,192,93027,1,0,0:0:0:0:
256,192,93177,1,0,0:0:0:0:
256,192,93327,1,8,0:0:0:0:
256,192,93627,1,0,0:0:0:0:
256,192,93927,1,8,0:0:0:0:
256,192,94077,1,0,0:0:0:0:
256,192,94152,1,0,0:0:0:0:
256,192,94227,1,0,0:0:0:0:
256,192,94377,1,0,0:0:0:0:
256,192,94527,1,8,0:0:0:0:
256,192,94677,1,8,0:0:0:0:
256,192,95127,1,12,0:0:0:0:
256,192,95427,1,0,0:0:0:0:
256,192,95577,1,0,0:0:0:0:
256,192,95727,1,8,0:0:0:0:
256,192,96027,1,0,0:0:0:0:
256,192,96327,1,8,0:0:0:0:
256,192,96477,1,8,0:0:0:0:
256,192,96627,1,0,0:0:0:0:
256,192,96777,1,0,0:0:0:0:
256,192,96927,1,8,0:0:0:0:
256,192,97077,1,0,0:0:0:0:
256,192,97227,1,0,0:0:0:0:
256,192,97527,1,8,0:0:0:0:
256,192,97827,1,8,0:0:0:0:
256,192,97977,1,0,0:0:0:0:
256,192,98127,1,8,0:0:0:0:
256,192,98427,1,0,0:0:0:0:
256,192,98727,1,8,0:0:0:0:
256,192,98877,1,8,0:0:0:0:
256,192,99027,1,0,0:0:0:0:
256,192,99327,1,12,0:0:0:0:
256,192,99627,1,0,0:0:0:0:
256,192,99927,1,8,0:0:0:0:
256,192,100077,1,8,0:0:0:0:
256,192,100227,1,0,0:0:0:0:
263,146,100377,1,0,0:0:0:0:
256,192,100527,1,8,0:0:0:0:
256,192,100827,1,0,0:0:0:0:
256,192,101127,1,8,0:0:0:0:
256,192,101427,1,8,0:0:0:0:
256,192,101577,1,0,0:0:0:0:
256,192,101727,1,8,0:0:0:0:
256,192,102027,1,0,0:0:0:0:
256,192,102327,1,8,0:0:0:0:
256,192,102627,1,0,0:0:0:0:
256,192,102777,1,0,0:0:0:0:
256,192,102927,1,8,0:0:0:0:
256,192,103227,1,0,0:0:0:0:
256,192,104427,1,4,0:0:0:0:
249,152,104877,1,0,0:0:0:0:
256,192,105027,1,8,0:0:0:0:
249,152,105477,1,8,0:0:0:0:
256,192,105627,1,0,0:0:0:0:
249,152,105927,1,0,0:0:0:0:
256,192,106227,1,8,0:0:0:0:
256,192,106527,1,8,0:0:0:0:
230,134,106827,1,0,0:0:0:0:
256,192,107427,1,8,0:0:0:0:
256,192,107727,1,8,0:0:0:0:
256,192,108027,1,0,0:0:0:0:
241,138,108327,1,0,0:0:0:0:
256,192,108627,1,8,0:0:0:0:
238,151,108927,5,8,0:0:0:0:
256,192,109227,1,4,0:0:0:0:
256,192,109827,1,8,0:0:0:0:
256,192,110127,1,8,0:0:0:0:
256,192,110427,1,0,0:0:0:0:
256,192,110727,1,0,0:0:0:0:
256,192,111027,1,8,0:0:0:0:
256,192,111327,1,8,0:0:0:0:
256,192,111627,1,0,0:0:0:0:
256,192,111927,1,8,0:0:0:0:
256,192,112227,1,8,0:0:0:0:
256,192,112527,1,8,0:0:0:0:
256,192,112827,1,0,0:0:0:0:
256,192,113127,1,8,0:0:0:0:
256,192,113427,1,0,0:0:0:0:
256,192,113502,1,0,0:0:0:0:
256,192,113577,1,0,0:0:0:0:
256,192,113727,1,8,0:0:0:0:
256,192,114027,1,0,0:0:0:0:
256,192,114627,1,8,0:0:0:0:
256,192,115227,1,0,0:0:0:0:
256,192,115527,1,8,0:0:0:0:
256,192,116127,1,8,0:0:0:0:
256,192,116427,1,0,0:0:0:0:
256,192,117627,1,4,0:0:0:0:
256,192,117777,1,4,0:0:0:0:
256,192,117927,1,4,0:0:0:0:
256,192,118077,1,4,0:0:0:0:
256,192,118827,1,0,0:0:0:0:
256,192,118902,1,0,0:0:0:0:
256,192,118977,1,0,0:0:0:0:
256,192,119127,1,8,0:0:0:0:
256,192,119277,1,0,0:0:0:0:
256,192,119427,1,8,0:0:0:0:
256,192,119877,1,8,0:0:0:0:
240,111,119952,1,8,0:0:0:0:
240,126,120027,1,8,0:0:0:0:
256,192,120177,1,0,0:0:0:0:
256,192,120327,1,8,0:0:0:0:
256,192,120477,1,0,0:0:0:0:
256,192,120627,1,8,0:0:0:0:
256,192,120927,1,8,0:0:0:0:
256,192,121002,1,8,0:0:0:0:
256,192,121077,1,8,0:0:0:0:
256,192,121227,1,0,0:0:0:0:
256,192,121377,1,8,0:0:0:0:
256,192,121527,1,0,0:0:0:0:
256,192,121977,1,0,0:0:0:0:
256,192,122052,1,0,0:0:0:0:
256,192,122127,1,0,0:0:0:0:
256,192,122277,1,0,0:0:0:0:
256,192,122427,1,8,0:0:0:0:
256,192,122577,1,0,0:0:0:0:
256,192,122727,1,8,0:0:0:0:
256,192,123027,1,12,0:0:0:0:
256,192,123327,1,8,0:0:0:0:
256,192,123477,1,0,0:0:0:0:
256,192,123627,1,8,0:0:0:0:
256,192,123702,1,8,0:0:0:0:
256,192,123777,1,8,0:0:0:0:
256,192,124077,1,8,0:0:0:0:
256,192,124227,1,0,0:0:0:0:
256,192,124302,1,0,0:0:0:0:
256,192,124377,1,0,0:0:0:0:
256,192,124527,1,8,0:0:0:0:
256,192,124677,1,0,0:0:0:0:
256,192,124827,1,8,0:0:0:0:
256,192,125127,1,12,0:0:0:0:
256,192,125427,1,0,0:0:0:0:
256,192,125577,1,8,0:0:0:0:
256,192,125727,1,0,0:0:0:0:
256,192,125802,1,0,0:0:0:0:
256,192,125877,1,0,0:0:0:0:
256,192,126177,1,8,0:0:0:0:
256,192,126327,1,8,0:0:0:0:
256,192,126402,1,8,0:0:0:0:
256,192,126477,1,8,0:0:0:0:
256,192,126627,1,0,0:0:0:0:
256,192,126777,1,0,0:0:0:0:
256,192,126927,1,8,0:0:0:0:
256,192,127227,1,4,0:0:0:0:
256,192,127527,1,4,0:0:0:0:
256,192,127827,1,4,0:0:0:0:
256,192,128277,1,12,0:0:0:0:
256,192,128727,1,4,0:0:0:0:
256,192,129027,1,12,0:0:0:0:
256,192,129777,1,4,0:0:0:0:
256,192,130227,1,4,0:0:0:0:
256,192,130527,1,12,0:0:0:0:
256,192,130827,1,0,0:0:0:0:
256,192,130977,1,0,0:0:0:0:
256,192,131127,1,0,0:0:0:0:
256,192,131277,1,0,0:0:0:0:
256,192,131427,1,12,0:0:0:0:
256,192,132027,1,12,0:0:0:0:
256,192,132477,1,8,0:0:0:0:
256,192,132627,1,0,0:0:0:0:
256,192,132777,1,0,0:0:0:0:
256,192,132927,1,8,0:0:0:0:
256,192,133077,1,8,0:0:0:0:
256,192,133227,1,0,0:0:0:0:
256,192,133527,1,8,0:0:0:0:
256,192,133677,1,8,0:0:0:0:
256,192,133827,1,0,0:0:0:0:
256,192,133902,1,0,0:0:0:0:
256,192,133977,1,0,0:0:0:0:
256,192,134127,1,8,0:0:0:0:
256,192,134427,1,0,0:0:0:0:
256,192,134877,1,0,0:0:0:0:
256,192,135027,1,8,0:0:0:0:
256,192,135177,1,0,0:0:0:0:
256,192,135327,1,8,0:0:0:0:
256,192,135477,1,8,0:0:0:0:
256,192,135627,1,0,0:0:0:0:
256,192,135927,1,8,0:0:0:0:
256,192,136002,1,8,0:0:0:0:
256,192,136077,1,8,0:0:0:0:
256,192,136227,1,0,0:0:0:0:
256,192,136377,1,8,0:0:0:0:
256,192,136527,1,8,0:0:0:0:
256,192,136827,1,0,0:0:0:0:
256,192,137127,1,8,0:0:0:0:
256,192,137277,1,0,0:0:0:0:
256,192,137427,1,0,0:0:0:0:
256,192,137577,1,0,0:0:0:0:
256,192,137727,1,8,0:0:0:0:
256,192,138027,1,8,0:0:0:0:
256,192,138177,1,0,0:0:0:0:
256,192,138327,1,8,0:0:0:0:
256,192,138477,1,8,0:0:0:0:
256,192,138627,1,0,0:0:0:0:
256,192,138777,1,0,0:0:0:0:
256,192,138927,1,8,0:0:0:0:
256,192,139227,1,0,0:0:0:0:
256,192,139527,1,8,0:0:0:0:
256,192,139677,1,0,0:0:0:0:
256,192,139827,1,8,0:0:0:0:
256,192,139977,1,0,0:0:0:0:
256,192,140127,1,8,0:0:0:0:
207,78,140202,1,8,0:0:0:0:
256,192,140277,1,8,0:0:0:0:
256,192,140427,1,0,0:0:0:0:
256,192,140727,1,8,0:0:0:0:
256,192,140877,1,8,0:0:0:0:
256,192,141027,1,4,0:0:0:0:
256,192,141327,1,4,0:0:0:0:
256,192,141627,1,12,0:0:0:0:
256,192,142077,1,8,0:0:0:0:
256,192,142227,1,0,0:0:0:0:
256,192,142302,1,0,0:0:0:0:
256,192,142377,1,0,0:0:0:0:
256,192,142527,1,8,0:0:0:0:
256,192,142677,1,0,0:0:0:0:
256,192,142827,1,8,0:0:0:0:
256,192,143127,1,8,0:0:0:0:
256,192,143277,1,8,0:0:0:0:
256,192,143427,1,0,0:0:0:0:
256,192,143577,1,0,0:0:0:0:
256,192,143727,1,8,0:0:0:0:
256,192,144027,1,0,0:0:0:0:
256,192,144327,1,8,0:0:0:0:
256,192,144477,1,0,0:0:0:0:
256,192,144627,1,8,0:0:0:0:
256,192,144702,1,8,0:0:0:0:
256,192,144777,1,8,0:0:0:0:
256,192,144927,1,0,0:0:0:0:
256,192,145077,1,8,0:0:0:0:
256,192,145227,1,0,0:0:0:0:
256,192,145527,1,8,0:0:0:0:
256,192,145677,1,8,0:0:0:0:
256,192,145827,1,0,0:0:0:0:
256,192,145977,1,0,0:0:0:0:
256,192,146127,1,8,0:0:0:0:
256,192,146427,1,4,0:0:0:0:
256,192,146727,1,8,0:0:0:0:
256,192,147027,1,8,0:0:0:0:
256,192,147177,1,0,0:0:0:0:
256,192,147327,1,8,0:0:0:0:
256,192,147477,1,0,0:0:0:0:
256,192,147627,1,8,0:0:0:0:
256,192,147927,1,4,0:0:0:0:
256,192,148077,1,4,0:0:0:0:
256,192,148227,1,4,0:0:0:0:
256,192,148827,1,4,0:0:0:0:
256,192,149277,1,4,0:0:0:0:
256,192,149727,1,4,0:0:0:0:
256,192,150177,1,4,0:0:0:0:
256,192,150627,2,0,L|304:193,6,35
256,192,151227,1,12,0:0:0:0:
256,192,151677,1,12,0:0:0:0:
256,192,152127,1,12,0:0:0:0:
256,192,152577,1,12,0:0:0:0:
256,192,153027,1,8,0:0:0:0:
256,192,153177,1,8,0:0:0:0:
256,192,153327,1,0,0:0:0:0:
256,192,153402,1,0,0:0:0:0:
256,192,153477,1,0,0:0:0:0:
256,192,153627,1,12,0:0:0:0:
256,192,153927,1,0,0:0:0:0:
256,192,154227,1,8,0:0:0:0:
256,192,154377,1,0,0:0:0:0:
256,192,154527,1,8,0:0:0:0:
256,192,154677,1,8,0:0:0:0:
256,192,154827,1,0,0:0:0:0:
256,192,155127,1,8,0:0:0:0:
256,192,155427,1,0,0:0:0:0:
256,192,156027,1,8,0:0:0:0:
256,192,156177,1,0,0:0:0:0:
256,192,156327,1,8,0:0:0:0:
207,96,156477,1,8,0:0:0:0:
199,45,156552,1,8,0:0:0:0:
256,192,156627,1,8,0:0:0:0:
256,192,156777,1,0,0:0:0:0:
256,192,156927,1,8,0:0:0:0:
256,192,157077,1,8,0:0:0:0:
256,192,157227,1,0,0:0:0:0:
249,94,157302,1,0,0:0:0:0:
256,192,157377,1,0,0:0:0:0:
256,192,157527,1,8,0:0:0:0:
256,192,157677,1,8,0:0:0:0:
256,192,158427,1,12,0:0:0:0:
256,192,158727,1,0,0:0:0:0:
256,192,158877,1,8,0:0:0:0:
256,192,158952,1,8,0:0:0:0:
256,192,159027,1,8,0:0:0:0:
256,192,159177,1,0,0:0:0:0:
256,192,159327,1,8,0:0:0:0:
256,192,159627,1,8,0:0:0:0:
256,192,159777,1,0,0:0:0:0:
229,161,159852,1,0,0:0:0:0:
231,135,159927,1,0,0:0:0:0:
256,192,160077,1,0,0:0:0:0:
256,192,160227,1,8,0:0:0:0:
256,192,160527,1,8,0:0:0:0:
256,192,160827,1,0,0:0:0:0:
264,168,160902,1,0,0:0:0:0:
250,168,160977,1,0,0:0:0:0:
238,172,161127,1,8,0:0:0:0:
256,192,161277,1,8,0:0:0:0:
256,192,161427,1,0,0:0:0:0:
256,192,161727,1,8,0:0:0:0:
264,168,161802,1,8,0:0:0:0:
244,75,161877,1,8,0:0:0:0:
256,192,162027,1,0,0:0:0:0:
256,192,162177,1,8,0:0:0:0:
256,192,162327,1,0,0:0:0:0:
249,198,162477,1,0,0:0:0:0:
256,192,162627,1,8,0:0:0:0:
256,192,162702,1,8,0:0:0:0:
256,192,162777,1,8,0:0:0:0:
256,192,162927,1,0,0:0:0:0:
256,192,163077,1,0,0:0:0:0:
256,192,163227,1,12,0:0:0:0:
256,192,163677,1,0,0:0:0:0:
256,192,163827,1,8,0:0:0:0:
256,192,163977,1,0,0:0:0:0:
256,192,164127,1,8,0:0:0:0:
256,192,164277,1,0,0:0:0:0:
256,192,164427,1,8,0:0:0:0:
256,192,164502,1,8,0:0:0:0:
256,192,164577,1,8,0:0:0:0:
256,192,164877,1,8,0:0:0:0:
256,192,165027,1,0,0:0:0:0:
256,192,165177,1,8,0:0:0:0:
256,192,165327,1,0,0:0:0:0:
220,142,165402,1,0,0:0:0:0:
256,192,165477,1,0,0:0:0:0:
256,192,165627,1,8,0:0:0:0:
256,192,165927,1,0,0:0:0:0:
256,192,166077,1,8,0:0:0:0:
256,192,166227,1,0,0:0:0:0:
237,120,166302,1,0,0:0:0:0:
256,192,166377,1,0,0:0:0:0:
256,192,166527,1,8,0:0:0:0:
256,192,166677,1,8,0:0:0:0:
256,192,166827,1,0,0:0:0:0:
256,192,166977,1,8,0:0:0:0:
256,192,167127,1,0,0:0:0:0:
243,197,167277,1,0,0:0:0:0:
256,192,167427,1,8,0:0:0:0:
256,192,167502,1,8,0:0:0:0:
256,192,167577,1,8,0:0:0:0:
256,192,167727,1,0,0:0:0:0:
256,192,167877,1,8,0:0:0:0:
256,192,168027,1,4,0:0:0:0:
256,192,168627,1,12,0:0:0:0:
247,207,168927,1,12,0:0:0:0:
256,192,169227,1,4,0:0:0:0:
256,192,169527,1,12,0:0:0:0:
256,192,169827,1,4,0:0:0:0:
248,176,170127,1,4,2:0:0:0:
256,192,170427,1,12,0:0:0:0:
256,192,171027,1,4,0:0:0:0:
266,199,171327,1,4,0:0:0:0:
256,192,171627,1,12,0:0:0:0:
264,200,171927,1,12,0:0:0:0:
256,192,172227,1,4,0:0:0:0:
256,192,172527,1,12,0:0:0:0:
256,192,172827,1,4,0:0:0:0:
256,192,173427,1,12,0:0:0:0:
256,192,173727,1,12,0:0:0:0:
256,192,174027,1,4,0:0:0:0:
256,192,174327,1,12,0:0:0:0:
256,192,174627,1,4,0:0:0:0:
256,192,174927,1,4,0:0:0:0:
256,192,175227,1,12,0:0:0:0:
256,192,175827,1,4,0:0:0:0:
256,192,176127,1,4,0:0:0:0:
256,192,176427,1,12,0:0:0:0:
256,192,176727,1,12,0:0:0:0:
256,192,177027,1,4,0:0:0:0:
256,192,177327,1,12,0:0:0:0:
256,192,177627,1,0,0:0:0:0:
256,192,178227,1,0,0:0:0:0:
249,175,178527,1,8,0:0:0:0:
256,192,178827,1,0,0:0:0:0:
256,192,179427,1,8,0:0:0:0:
256,192,180027,1,0,0:0:0:0:
256,192,180627,1,0,0:0:0:0:
261,183,180927,1,8,0:0:0:0:
256,192,181227,1,0,0:0:0:0:
256,192,181827,1,8,0:0:0:0:
256,192,182427,1,4,0:0:0:0:
256,192,182727,1,4,0:0:0:0:
256,192,183027,1,12,0:0:0:0:
256,192,183327,1,12,0:0:0:0:
256,192,183477,8,0,185427,0:0:0:0:
256,192,186027,5,8,0:0:0:0:
256,192,186327,1,8,0:0:0:0:
256,192,186627,1,4,0:0:0:0:
256,192,186927,1,4,0:0:0:0:
256,192,187227,1,12,0:0:0:0:
256,192,187677,1,4,0:0:0:0:
256,192,187977,1,12,0:0:0:0:
256,192,188427,1,0,0:0:0:0:
256,192,189027,1,8,0:0:0:0:
256,192,189177,1,0,0:0:0:0:
256,192,189327,1,8,0:0:0:0:
256,192,189477,1,0,0:0:0:0:
256,192,189627,1,8,0:0:0:0:
256,192,189702,1,8,0:0:0:0:
256,192,189777,1,8,0:0:0:0:
256,192,189927,1,0,0:0:0:0:
256,192,190077,1,8,0:0:0:0:
256,192,190227,1,4,0:0:0:0:
256,192,190827,1,12,0:0:0:0:
256,192,191127,1,8,0:0:0:0:
256,192,191427,1,0,0:0:0:0:
256,192,191727,1,0,0:0:0:0:
256,192,191877,1,8,0:0:0:0:
256,192,192177,1,8,0:0:0:0:
256,192,192327,1,0,0:0:0:0:
256,192,192477,1,0,0:0:0:0:
256,192,192627,1,8,0:0:0:0:
256,192,192927,1,0,0:0:0:0:
256,192,193077,1,8,0:0:0:0:
256,192,193227,1,0,0:0:0:0:
256,192,194427,1,4,0:0:0:0:
256,192,194727,1,4,0:0:0:0:
256,192,195027,1,12,0:0:0:0:
256,192,195327,1,12,0:0:0:0:
256,192,195627,1,4,0:0:0:0:
256,192,195927,1,8,0:0:0:0:
256,192,196077,1,0,0:0:0:0:
256,192,196227,1,8,0:0:0:0:
256,192,196377,1,0,0:0:0:0:
256,192,196527,1,8,0:0:0:0:
256,192,196677,1,0,0:0:0:0:
256,192,196827,1,8,0:0:0:0:
256,192,196902,1,8,0:0:0:0:
256,192,196977,1,8,0:0:0:0:
256,192,197127,1,8,0:0:0:0:
256,192,197277,1,8,0:0:0:0:
256,192,197427,1,0,0:0:0:0:
256,192,198027,8,0,198627,0:0:0:0:
256,192,199227,5,12,0:0:0:0:
256,192,199677,1,8,0:0:0:0:
256,192,199827,1,0,0:0:0:0:
256,192,199977,1,0,0:0:0:0:
256,192,200127,1,8,0:0:0:0:
256,192,200277,1,8,0:0:0:0:
256,192,200427,1,0,0:0:0:0:
256,192,200727,1,8,0:0:0:0:
256,192,200877,1,8,0:0:0:0:
256,192,201027,1,0,0:0:0:0:
256,192,201102,1,0,0:0:0:0:
256,192,201177,1,0,0:0:0:0:
256,192,201327,1,8,0:0:0:0:
256,192,201627,1,0,0:0:0:0:
256,192,202077,1,0,0:0:0:0:
256,192,202227,1,8,0:0:0:0:
256,192,202377,1,0,0:0:0:0:
256,192,202527,1,8,0:0:0:0:
256,192,202677,1,8,0:0:0:0:
256,192,202827,1,0,0:0:0:0:
256,192,203127,1,8,0:0:0:0:
256,192,203202,1,8,0:0:0:0:
256,192,203277,1,8,0:0:0:0:
256,192,203427,1,0,0:0:0:0:
256,192,203577,1,8,0:0:0:0:
256,192,203727,1,8,0:0:0:0:
256,192,204027,1,0,0:0:0:0:
256,192,204327,1,8,0:0:0:0:
256,192,204477,1,0,0:0:0:0:
256,192,204627,1,0,0:0:0:0:
256,192,204777,1,0,0:0:0:0:
256,192,204927,1,8,0:0:0:0:
256,192,205227,1,8,0:0:0:0:
256,192,205377,1,0,0:0:0:0:
256,192,205527,1,8,0:0:0:0:
256,192,205677,1,8,0:0:0:0:
256,192,205827,1,0,0:0:0:0:
256,192,205977,1,0,0:0:0:0:
256,192,206127,1,8,0:0:0:0:
256,192,206427,1,0,0:0:0:0:
256,192,206727,1,8,0:0:0:0:
256,192,206877,1,0,0:0:0:0:
256,192,207027,1,8,0:0:0:0:
256,192,207177,1,0,0:0:0:0:
256,192,207327,1,8,0:0:0:0:
207,78,207402,1,8,0:0:0:0:
256,192,207477,1,8,0:0:0:0:
256,192,207627,1,0,0:0:0:0:
256,192,207927,1,8,0:0:0:0:
256,192,208077,1,8,0:0:0:0:
256,192,208227,1,4,0:0:0:0:
256,192,208527,1,4,0:0:0:0:
256,192,208827,1,12,0:0:0:0:
256,192,209277,1,8,0:0:0:0:
256,192,209427,1,0,0:0:0:0:
256,192,209502,1,0,0:0:0:0:
256,192,209577,1,0,0:0:0:0:
256,192,209727,1,8,0:0:0:0:
256,192,209877,1,0,0:0:0:0:
256,192,210027,1,8,0:0:0:0:
256,192,210327,1,8,0:0:0:0:
256,192,210477,1,8,0:0:0:0:
256,192,210627,1,0,0:0:0:0:
256,192,210777,1,0,0:0:0:0:
256,192,210927,1,8,0:0:0:0:
256,192,211227,1,0,0:0:0:0:
256,192,211527,1,8,0:0:0:0:
256,192,211677,1,0,0:0:0:0:
256,192,211827,1,8,0:0:0:0:
256,192,211902,1,8,0:0:0:0:
256,192,211977,1,8,0:0:0:0:
256,192,212127,1,0,0:0:0:0:
256,192,212277,1,8,0:0:0:0:
256,192,212427,1,0,0:0:0:0:
256,192,212727,1,8,0:0:0:0:
256,192,212877,1,8,0:0:0:0:
256,192,213027,1,0,0:0:0:0:
256,192,213177,1,0,0:0:0:0:
256,192,213327,1,8,0:0:0:0:
256,192,213627,1,4,0:0:0:0:
256,192,213927,1,8,0:0:0:0:
256,192,214227,1,0,0:0:0:0:
241,184,214302,1,0,0:0:0:0:
256,192,214377,1,0,0:0:0:0:
256,192,214527,1,8,0:0:0:0:
256,192,214677,1,0,0:0:0:0:
256,192,214827,1,8,0:0:0:0:
256,192,215127,1,8,0:0:0:0:
256,192,215277,1,0,0:0:0:0:
256,192,215427,1,0,0:0:0:0:
256,192,215577,1,0,0:0:0:0:
256,192,215727,1,8,0:0:0:0:
256,192,216027,5,4,0:0:0:0:
256,192,216327,5,4,0:0:0:0:
256,192,216627,1,12,0:0:0:0:
256,192,216927,1,12,0:0:0:0:
256,192,217227,1,4,0:0:0:0:
256,192,218127,1,8,0:0:0:0:
256,192,218277,1,8,0:0:0:0:
256,192,218427,1,4,0:0:0:0:
256,192,218727,1,8,0:0:0:0:
256,192,218877,1,0,0:0:0:0:
256,192,219027,1,8,0:0:0:0:
256,192,219327,1,8,0:0:0:0:
256,192,219627,1,0,0:0:0:0:
256,192,219702,1,0,0:0:0:0:
256,192,219777,1,0,0:0:0:0:
256,192,219927,1,8,0:0:0:0:
256,192,220077,1,8,0:0:0:0:
256,192,220227,1,0,0:0:0:0:
256,192,220527,1,8,0:0:0:0:
256,192,220677,1,0,0:0:0:0:
256,192,220827,1,8,0:0:0:0:
256,192,221127,1,8,0:0:0:0:
256,192,221427,1,0,0:0:0:0:
256,192,221727,1,8,0:0:0:0:
256,192,221877,1,8,0:0:0:0:
256,192,222027,1,0,0:0:0:0:
256,192,222102,1,0,0:0:0:0:
256,192,222177,1,0,0:0:0:0:
256,192,222327,1,8,0:0:0:0:
256,192,222477,1,0,0:0:0:0:
256,192,222627,1,0,0:0:0:0:
256,192,222777,1,8,0:0:0:0:
256,192,222927,1,8,0:0:0:0:
256,192,223227,1,0,0:0:0:0:
256,192,223527,1,8,0:0:0:0:
256,192,223677,1,0,0:0:0:0:
256,192,223827,1,8,0:0:0:0:
256,192,224127,1,8,0:0:0:0:
256,192,224427,1,0,0:0:0:0:
256,192,224502,1,0,0:0:0:0:
256,192,224577,1,0,0:0:0:0:
256,192,224727,1,8,0:0:0:0:
256,192,224877,1,0,0:0:0:0:
256,192,225027,1,8,0:0:0:0:
256,192,225327,1,8,0:0:0:0:
256,192,225627,1,0,0:0:0:0:
256,192,225927,1,8,0:0:0:0:
252,150,226077,1,0,0:0:0:0:
256,192,226227,1,0,0:0:0:0:
256,192,226527,1,8,0:0:0:0:
256,192,226827,1,8,0:0:0:0:
256,192,226977,1,0,0:0:0:0:
256,192,227127,1,8,0:0:0:0:
256,192,227277,1,8,0:0:0:0:
256,192,227427,1,0,0:0:0:0:
256,192,227502,1,0,0:0:0:0:
256,192,227577,1,0,0:0:0:0:
256,192,227727,1,8,0:0:0:0:
250,182,227802,1,8,0:0:0:0:
249,120,227877,1,8,0:0:0:0:
256,192,228027,5,4,0:0:0:0:
256,192,228327,1,8,0:0:0:0:
256,192,228627,1,8,0:0:0:0:
256,192,228777,1,0,0:0:0:0:
256,192,228927,1,8,0:0:0:0:
256,192,229077,1,8,0:0:0:0:
256,192,229227,1,0,0:0:0:0:
256,192,229302,1,0,0:0:0:0:
256,192,229377,1,0,0:0:0:0:
256,192,229527,1,8,0:0:0:0:
256,192,229827,1,0,0:0:0:0:
256,192,230277,1,8,0:0:0:0:
256,192,230427,1,0,0:0:0:0:
256,192,230577,1,0,0:0:0:0:
256,192,230727,1,8,0:0:0:0:
256,192,230877,1,0,0:0:0:0:
256,192,231027,1,8,0:0:0:0:
245,155,231177,1,0,0:0:0:0:
256,192,231327,1,8,0:0:0:0:
251,159,231402,1,8,0:0:0:0:
256,192,231477,1,8,0:0:0:0:
256,192,231627,1,0,0:0:0:0:
256,192,231927,1,8,0:0:0:0:
244,147,232077,1,8,0:0:0:0:
256,192,232227,1,0,0:0:0:0:
247,160,232377,1,0,0:0:0:0:
256,192,232527,1,8,0:0:0:0:
247,159,232677,1,8,0:0:0:0:
256,192,232827,1,0,0:0:0:0:
256,192,233277,1,8,0:0:0:0:
256,192,233427,1,8,0:0:0:0:
256,192,233577,1,0,0:0:0:0:
256,192,233727,1,8,0:0:0:0:
256,192,233877,1,0,0:0:0:0:
256,192,234027,1,8,0:0:0:0:
256,192,234102,1,8,0:0:0:0:
256,192,234177,1,8,0:0:0:0:
256,192,234327,1,0,0:0:0:0:
256,192,234627,1,8,0:0:0:0:
256,192,234777,1,0,0:0:0:0:
256,192,234927,1,8,0:0:0:0:
256,192,235227,1,0,0:0:0:0:
256,192,235527,1,8,0:0:0:0:
243,162,235677,1,0,0:0:0:0:
256,192,235827,1,8,0:0:0:0:
256,192,235977,1,0,0:0:0:0:
256,192,236127,1,8,0:0:0:0:
256,192,236427,1,8,0:0:0:0:
256,192,236502,1,8,0:0:0:0:
256,192,236577,1,8,0:0:0:0:
256,192,236727,1,0,0:0:0:0:
256,192,236877,1,8,0:0:0:0:
256,192,237027,1,0,0:0:0:0:
256,192,237102,1,0,0:0:0:0:
256,192,237177,1,0,0:0:0:0:
256,192,237327,1,8,0:0:0:0:
256,192,237627,1,4,0:0:0:0:
256,192,238527,1,0,0:0:0:0:
256,192,238827,1,8,0:0:0:0:
256,192,239727,1,8,0:0:0:0:
256,192,240027,1,8,0:0:0:0:
256,192,240927,1,0,0:0:0:0:
256,192,241227,1,8,0:0:0:0:
256,192,242127,1,0,0:0:0:0:
256,192,242427,1,8,0:0:0:0:
256,192,243327,1,0,0:0:0:0:
256,192,243627,1,8,0:0:0:0:
256,192,244527,1,8,0:0:0:0:
256,192,244827,1,8,0:0:0:0:
256,192,245727,1,12,0:0:0:0:
