osu file format v14

[General]
AudioFilename: audio.mp3
AudioLeadIn: 0
PreviewTime: 58527
Countdown: 0
SampleSet: Normal
StackLeniency: 0.7
Mode: 1
LetterboxInBreaks: 0
WidescreenStoryboard: 1

[Editor]
Bookmarks: 1226,10826,30026,39626,58826,68426,75626,85226,95126,104426,118826,132026,141626,148826,158426,168026,177626,186626,199226,218426,228026,237626
DistanceSpacing: 0.1
BeatDivisor: 4
GridSize: 32
TimelineZoom: 1.850004

[Metadata]
Title:Weenywalker
TitleUnicode:ウィーニーウォーカー
Artist:youman
ArtistUnicode:youまん
Creator:gaston_2199
Version:Futsuu
Source:
Tags:ボーカロイド vocaloid グミ GUMI メグッポイド megpoid ブイフラワ flower vflower japanese rock jrock j-rock 6_4 paz08
BeatmapID:4192045
BeatmapSetID:1994252

[Difficulty]
HPDrainRate:7
CircleSize:2
OverallDifficulty:4
ApproachRate:10
SliderMultiplier:1.4
SliderTickRate:1

[Events]
//Background and Video events
0,0,"BG.jpg",0,0
//Break Periods
//Storyboard Layer 0 (Background)
//Storyboard Layer 1 (Fail)
//Storyboard Layer 2 (Pass)
//Storyboard Layer 3 (Foreground)
//Storyboard Layer 4 (Overlay)
//Storyboard Sound Samples

[TimingPoints]
28,300,4,1,0,40,1,8
1227,300,4,1,0,40,1,0
6027,-100,4,1,0,70,0,8
9627,-100,4,1,0,80,0,8
10527,-100,4,1,0,70,0,8
10827,-100,4,1,0,90,0,8
30177,-100,4,1,0,60,0,8
39627,-100,4,1,0,80,0,8
49377,-100,4,1,0,70,0,8
56424,-100,4,1,0,80,0,8
57624,-100,4,1,0,90,0,8
58827,-100,4,1,0,100,0,1
67827,-100,4,1,0,100,0,0
68427,-100,4,1,0,100,0,1
75627,-100,4,1,0,100,0,0
75702,-100,4,1,0,80,0,0
85152,-100,4,1,0,70,0,0
94074,-100,4,1,0,80,0,0
104427,-100,4,1,0,60,0,0
114024,-100,4,1,0,70,0,0
117627,-100,4,1,0,100,0,1
118227,-100,4,1,0,80,0,0
118827,300,7,1,0,100,1,1
120627,-100,7,1,0,90,0,0
120927,-100,7,1,0,100,0,1
122727,-100,7,1,0,90,0,0
123027,-100,7,1,0,100,0,1
124827,-100,7,1,0,90,0,0
125127,-100,7,1,0,100,0,1
126927,-100,7,1,0,90,0,0
127227,300,4,1,0,80,1,0
129777,-100,4,1,0,100,0,1
130827,-100,4,1,0,90,0,0
132027,-100,7,1,0,100,0,1
141027,-100,4,1,0,100,0,0
141627,-100,4,1,0,100,0,1
148827,-100,4,1,0,100,0,0
149124,-100,4,1,0,80,0,0
158127,-100,7,1,0,70,0,0
158427,-100,4,1,0,100,0,1
168027,-100,4,1,0,80,0,0
177624,-100,4,1,0,60,0,0
182424,-100,4,1,0,80,0,0
186027,-100,7,1,0,70,0,0
186627,-100,7,1,0,80,0,0
191124,-100,4,1,0,90,0,0
194427,-100,7,1,0,80,0,0
195624,-100,4,1,0,90,0,0
197577,-100,7,1,0,10,0,0
199227,-100,7,1,0,100,0,1
208227,-100,4,1,0,100,0,0
208827,-100,4,1,0,100,0,1
217227,-100,4,1,0,80,0,0
217527,-100,7,1,0,70,0,0
218427,-100,7,1,0,90,0,1
237627,-100,7,1,0,90,0,0
237777,-100,4,1,0,40,0,8
245727,-100,4,1,0,80,0,8

[HitObjects]
256,192,1078,5,0,0:0:0:0:
256,192,1228,1,8,0:0:0:0:
256,192,2127,1,8,0:0:0:0:
256,192,2427,1,8,0:0:0:0:
256,192,3327,1,8,0:0:0:0:
256,192,3627,1,0,0:0:0:0:
256,192,4527,1,0,0:0:0:0:
256,192,4827,1,8,0:0:0:0:
256,192,5727,1,8,0:0:0:0:
256,192,6027,1,0,0:0:0:0:
256,192,6627,1,8,0:0:0:0:
256,192,6927,1,0,0:0:0:0:
256,192,7227,1,8,0:0:0:0:
256,192,7827,1,8,0:0:0:0:
256,192,8127,1,8,0:0:0:0:
256,192,8427,1,0,0:0:0:0:
256,192,9027,1,0,0:0:0:0:
256,192,9327,1,8,0:0:0:0:
256,192,9627,1,4,0:0:0:0:
256,192,9927,1,4,0:0:0:0:
256,192,10227,1,4,0:0:0:0:
256,192,10827,1,4,0:0:0:0:
256,192,11127,1,8,0:0:0:0:
255,173,11277,1,0,0:0:0:0:
256,192,11427,1,0,0:0:0:0:
256,192,11727,1,8,0:0:0:0:
256,192,12027,1,0,0:0:0:0:
256,192,12177,1,0,0:0:0:0:
256,192,12327,1,8,0:0:0:0:
256,192,12627,1,0,0:0:0:0:
256,192,13227,1,0,0:0:0:0:
256,192,13527,1,8,0:0:0:0:
256,192,13827,1,0,0:0:0:0:
256,192,14127,1,8,0:0:0:0:
263,187,14277,1,8,0:0:0:0:
256,192,14427,1,0,0:0:0:0:
256,192,14577,1,0,0:0:0:0:
256,192,14727,1,8,0:0:0:0:
256,192,15027,1,0,0:0:0:0:
256,192,15327,1,8,0:0:0:0:
256,192,15627,1,0,0:0:0:0:
256,192,15927,1,8,0:0:0:0:
253,175,16077,1,0,0:0:0:0:
256,192,16227,1,0,0:0:0:0:
256,192,16527,1,8,0:0:0:0:
256,192,16827,1,0,0:0:0:0:
256,192,16977,1,0,0:0:0:0:
256,192,17127,1,8,0:0:0:0:
256,192,17427,1,0,0:0:0:0:
256,192,18027,1,0,0:0:0:0:
256,192,18327,1,8,0:0:0:0:
256,192,18627,1,0,0:0:0:0:
256,192,18927,1,8,0:0:0:0:
256,192,19227,1,8,0:0:0:0:
256,192,19377,1,0,0:0:0:0:
256,192,19527,1,0,0:0:0:0:
256,192,19677,1,8,0:0:0:0:
255,162,20127,1,8,0:0:0:0:
256,192,20427,1,4,0:0:0:0:
256,192,20727,1,8,0:0:0:0:
256,192,20877,1,0,0:0:0:0:
256,192,21027,1,0,0:0:0:0:
256,192,21327,1,8,0:0:0:0:
256,192,21627,1,0,0:0:0:0:
256,192,21777,1,0,0:0:0:0:
256,192,21927,1,8,0:0:0:0:
256,192,22227,1,0,0:0:0:0:
256,192,22827,1,0,0:0:0:0:
256,192,23127,1,8,0:0:0:0:
256,192,23427,1,0,0:0:0:0:
256,192,23727,1,8,0:0:0:0:
256,192,23877,1,8,0:0:0:0:
256,192,24027,1,0,0:0:0:0:
256,192,24177,1,0,0:0:0:0:
256,192,24327,1,8,0:0:0:0:
256,192,24627,1,0,0:0:0:0:
256,192,24927,1,8,0:0:0:0:
256,192,25227,1,0,0:0:0:0:
256,192,25527,1,8,0:0:0:0:
256,192,25677,1,0,0:0:0:0:
256,192,25827,1,0,0:0:0:0:
256,192,26127,1,8,0:0:0:0:
256,192,26427,1,0,0:0:0:0:
256,192,26577,1,0,0:0:0:0:
256,192,26727,1,8,0:0:0:0:
256,192,27027,1,0,0:0:0:0:
256,192,27627,1,0,0:0:0:0:
256,192,27927,1,8,0:0:0:0:
256,192,28227,1,0,0:0:0:0:
256,192,28527,1,8,0:0:0:0:
256,192,28827,1,0,0:0:0:0:
244,183,28977,1,8,0:0:0:0:
256,192,29127,1,0,0:0:0:0:
256,192,29277,1,0,0:0:0:0:
256,192,29427,1,8,0:0:0:0:
256,192,29727,5,8,0:0:0:0:
256,192,30027,5,4,0:0:0:0:
256,192,30927,1,8,0:0:0:0:
256,192,31227,1,0,0:0:0:0:
256,192,32127,1,8,0:0:0:0:
256,192,32427,1,0,0:0:0:0:
256,192,33027,1,8,0:0:0:0:
256,192,33327,1,0,0:0:0:0:
256,192,33627,1,8,0:0:0:0:
256,192,34227,1,0,0:0:0:0:
256,192,34527,1,8,0:0:0:0:
256,192,34827,1,0,0:0:0:0:
256,192,35727,1,8,0:0:0:0:
256,192,36027,1,0,0:0:0:0:
256,192,36927,1,8,0:0:0:0:
256,192,37227,1,0,0:0:0:0:
256,192,37827,1,8,0:0:0:0:
256,192,38127,1,8,0:0:0:0:
256,192,38427,1,0,0:0:0:0:
256,192,39627,1,4,0:0:0:0:
256,192,39927,1,8,0:0:0:0:
256,192,40227,1,8,0:0:0:0:
256,192,40377,1,0,0:0:0:0:
256,192,40527,1,8,0:0:0:0:
256,192,41127,1,8,0:0:0:0:
256,192,41427,1,0,0:0:0:0:
256,192,41577,1,0,0:0:0:0:
256,192,41727,1,8,0:0:0:0:
256,192,42027,1,0,0:0:0:0:
256,192,42327,1,8,0:0:0:0:
256,192,42627,1,8,0:0:0:0:
256,192,42927,1,8,0:0:0:0:
256,192,43227,1,0,0:0:0:0:
256,192,43527,1,8,0:0:0:0:
256,192,43677,1,8,0:0:0:0:
256,192,43827,1,0,0:0:0:0:
256,192,44127,1,0,0:0:0:0:
256,192,44727,1,8,0:0:0:0:
256,192,45027,1,0,0:0:0:0:
256,192,45177,1,0,0:0:0:0:
256,192,45327,1,8,0:0:0:0:
256,192,45627,1,0,0:0:0:0:
256,192,45927,1,8,0:0:0:0:
256,192,46227,1,8,0:0:0:0:
256,213,46377,1,0,0:0:0:0:
256,192,46527,1,8,0:0:0:0:
256,192,46827,1,0,0:0:0:0:
256,192,47127,1,8,0:0:0:0:
256,192,47427,1,0,0:0:0:0:
256,192,47727,1,8,0:0:0:0:
256,192,48027,1,0,0:0:0:0:
256,192,48627,1,8,0:0:0:0:
256,192,48777,1,0,0:0:0:0:
256,192,48927,1,8,0:0:0:0:
256,192,49227,1,4,0:0:0:0:
256,192,49827,1,0,0:0:0:0:
256,192,50427,1,8,0:0:0:0:
256,192,51027,1,0,0:0:0:0:
256,192,51627,1,0,0:0:0:0:
256,192,51927,1,8,0:0:0:0:
256,192,52227,1,0,0:0:0:0:
256,192,52827,1,8,0:0:0:0:
256,192,53127,1,0,0:0:0:0:
256,192,53427,1,8,0:0:0:0:
256,192,54027,1,0,0:0:0:0:
256,192,54627,1,0,0:0:0:0:
256,192,55227,1,8,0:0:0:0:
256,192,55827,1,0,0:0:0:0:
256,192,56427,1,12,0:0:0:0:
256,192,56727,1,0,0:0:0:0:
256,192,56877,1,0,0:0:0:0:
256,192,57027,1,8,0:0:0:0:
256,192,57177,1,8,0:0:0:0:
256,192,57327,1,8,0:0:0:0:
256,192,57627,1,4,0:0:0:0:
256,192,57927,1,4,0:0:0:0:
256,192,58227,1,4,0:0:0:0:
256,192,58827,1,12,0:0:0:0:
256,192,59277,1,8,0:0:0:0:
256,192,59427,1,0,0:0:0:0:
256,192,59727,1,8,0:0:0:0:
256,192,60027,1,0,0:0:0:0:
256,192,60327,1,8,0:0:0:0:
256,192,60477,1,8,0:0:0:0:
256,192,60627,1,0,0:0:0:0:
256,192,60927,1,8,0:0:0:0:
256,192,61227,1,0,0:0:0:0:
256,192,61827,1,8,0:0:0:0:
256,192,61977,1,0,0:0:0:0:
256,192,62127,1,8,0:0:0:0:
256,192,62427,1,0,0:0:0:0:
256,192,62727,1,8,0:0:0:0:
256,192,62877,1,8,0:0:0:0:
256,192,63027,1,0,0:0:0:0:
256,192,63177,1,0,0:0:0:0:
256,192,63327,1,8,0:0:0:0:
256,192,63627,1,0,0:0:0:0:
256,192,63927,1,8,0:0:0:0:
256,192,64227,1,0,0:0:0:0:
256,192,64377,1,0,0:0:0:0:
256,192,64527,1,8,0:0:0:0:
256,192,64827,1,8,0:0:0:0:
256,192,64977,1,0,0:0:0:0:
256,192,65127,1,8,0:0:0:0:
256,192,65427,1,0,0:0:0:0:
256,192,66027,1,0,0:0:0:0:
256,192,66327,1,8,0:0:0:0:
256,192,66627,1,0,0:0:0:0:
197,109,66777,1,0,0:0:0:0:
256,192,66927,1,8,0:0:0:0:
256,192,67077,1,0,0:0:0:0:
256,192,67227,1,0,0:0:0:0:
256,192,67527,1,8,0:0:0:0:
256,192,67827,1,4,0:0:0:0:
256,192,68127,1,4,0:0:0:0:
256,192,68427,1,12,0:0:0:0:
251,172,68877,1,8,0:0:0:0:
256,192,69027,1,0,0:0:0:0:
256,192,69177,1,0,0:0:0:0:
256,192,69327,1,8,0:0:0:0:
256,192,69627,1,0,0:0:0:0:
256,192,69927,1,8,0:0:0:0:
256,192,70077,1,8,0:0:0:0:
256,192,70227,1,0,0:0:0:0:
256,192,70527,1,8,0:0:0:0:
256,192,70827,1,0,0:0:0:0:
256,192,71427,1,8,0:0:0:0:
256,192,71577,1,0,0:0:0:0:
256,192,71727,1,8,0:0:0:0:
256,192,71877,1,8,0:0:0:0:
256,192,72027,1,0,0:0:0:0:
256,192,72327,1,8,0:0:0:0:
256,192,72627,1,0,0:0:0:0:
256,192,72777,1,0,0:0:0:0:
256,192,72927,1,8,0:0:0:0:
256,192,73227,1,4,0:0:0:0:
256,192,73527,1,8,0:0:0:0:
256,192,73827,1,8,0:0:0:0:
256,192,74127,1,8,0:0:0:0:
256,192,74427,1,0,0:0:0:0:
250,178,74727,1,0,0:0:0:0:
250,178,74877,1,0,0:0:0:0:
250,178,75027,1,0,0:0:0:0:
256,192,75327,1,8,0:0:0:0:
256,192,75627,1,4,0:0:0:0:
256,192,76227,1,0,0:0:0:0:
256,192,76527,1,8,0:0:0:0:
256,192,76827,1,0,0:0:0:0:
256,192,77127,1,8,0:0:0:0:
256,192,77277,1,0,0:0:0:0:
256,192,77427,1,0,0:0:0:0:
256,192,77727,1,8,0:0:0:0:
256,192,78027,1,0,0:0:0:0:
229,154,78627,1,0,0:0:0:0:
256,192,78927,1,8,0:0:0:0:
256,192,79227,1,8,0:0:0:0:
256,192,79377,1,0,0:0:0:0:
256,192,79527,1,8,0:0:0:0:
256,192,79827,1,0,0:0:0:0:
256,192,80127,1,8,0:0:0:0:
256,192,80427,1,0,0:0:0:0:
256,192,81027,1,0,0:0:0:0:
256,192,81327,1,8,0:0:0:0:
256,192,81627,1,0,0:0:0:0:
256,192,81777,1,0,0:0:0:0:
256,192,81927,1,8,0:0:0:0:
256,192,82227,1,0,0:0:0:0:
256,192,82527,1,8,0:0:0:0:
256,192,82827,1,0,0:0:0:0:
256,192,83427,1,0,0:0:0:0:
256,192,83727,1,8,0:0:0:0:
256,192,83877,1,0,0:0:0:0:
256,192,84027,1,8,0:0:0:0:
256,192,84327,1,8,0:0:0:0:
256,192,84627,1,0,0:0:0:0:
256,192,84777,1,0,0:0:0:0:
256,192,84927,1,8,0:0:0:0:
256,192,85227,1,4,0:0:0:0:
256,192,86127,1,8,0:0:0:0:
256,192,86427,1,0,0:0:0:0:
256,192,87327,1,0,0:0:0:0:
256,192,87627,1,0,0:0:0:0:
256,192,88527,1,0,0:0:0:0:
256,192,88827,1,8,0:0:0:0:
257,180,89727,1,0,0:0:0:0:
256,192,90027,1,0,0:0:0:0:
256,192,90477,1,8,0:0:0:0:
256,192,90927,1,8,0:0:0:0:
256,192,91227,1,0,0:0:0:0:
256,192,91677,1,8,0:0:0:0:
256,192,92127,1,8,0:0:0:0:
256,192,92427,1,0,0:0:0:0:
256,192,92877,1,8,0:0:0:0:
256,192,93327,1,8,0:0:0:0:
256,192,93627,1,0,0:0:0:0:
256,192,93927,1,8,0:0:0:0:
256,192,94227,1,0,0:0:0:0:
256,192,94377,1,0,0:0:0:0:
256,192,94527,1,8,0:0:0:0:
256,192,94677,1,8,0:0:0:0:
256,192,95127,1,12,0:0:0:0:
256,192,95427,1,0,0:0:0:0:
256,192,95577,1,0,0:0:0:0:
256,192,95727,1,8,0:0:0:0:
256,192,96327,1,8,0:0:0:0:
256,192,96477,1,8,0:0:0:0:
256,192,96627,1,0,0:0:0:0:
256,192,96927,1,8,0:0:0:0:
256,192,97227,1,0,0:0:0:0:
256,192,97527,1,8,0:0:0:0:
256,192,97827,1,8,0:0:0:0:
256,192,98127,1,8,0:0:0:0:
256,192,98427,1,0,0:0:0:0:
256,192,98727,1,8,0:0:0:0:
256,192,98877,1,8,0:0:0:0:
256,192,99027,1,0,0:0:0:0:
256,192,99327,1,12,0:0:0:0:
256,192,99927,1,8,0:0:0:0:
256,192,100227,1,0,0:0:0:0:
263,146,100377,1,0,0:0:0:0:
256,192,100527,1,8,0:0:0:0:
256,192,101127,1,8,0:0:0:0:
256,192,101427,1,8,0:0:0:0:
256,192,101577,1,0,0:0:0:0:
256,192,101727,1,8,0:0:0:0:
256,192,102027,1,0,0:0:0:0:
256,192,102327,1,8,0:0:0:0:
256,192,102627,1,0,0:0:0:0:
256,192,102927,1,8,0:0:0:0:
256,192,103227,1,0,0:0:0:0:
256,192,104427,1,4,0:0:0:0:
256,192,105027,1,8,0:0:0:0:
256,192,105627,1,0,0:0:0:0:
256,192,106227,1,8,0:0:0:0:
244,184,106527,1,8,0:0:0:0:
230,134,106827,1,0,0:0:0:0:
256,192,107427,1,8,0:0:0:0:
256,192,108027,1,0,0:0:0:0:
238,151,108327,5,0,0:0:0:0:
256,192,108627,1,8,0:0:0:0:
256,192,109227,1,4,0:0:0:0:
256,192,109827,1,8,0:0:0:0:
256,192,110427,1,0,0:0:0:0:
244,184,110727,1,8,0:0:0:0:
256,192,111027,1,8,0:0:0:0:
256,192,111327,1,8,0:0:0:0:
256,192,111627,1,0,0:0:0:0:
256,192,112227,1,8,0:0:0:0:
256,192,112527,1,8,0:0:0:0:
256,192,112827,1,0,0:0:0:0:
256,192,113127,1,0,0:0:0:0:
256,192,113427,1,8,0:0:0:0:
256,192,114027,1,0,0:0:0:0:
256,192,114627,1,8,0:0:0:0:
256,192,115227,1,0,0:0:0:0:
256,192,116127,1,8,0:0:0:0:
256,192,116427,1,0,0:0:0:0:
256,192,117627,1,4,0:0:0:0:
256,192,117927,1,4,0:0:0:0:
256,192,118827,1,8,0:0:0:0:
256,192,119127,1,8,0:0:0:0:
256,192,119277,1,0,0:0:0:0:
256,192,119427,1,8,0:0:0:0:
256,192,119727,1,0,0:0:0:0:
256,192,119877,1,8,0:0:0:0:
256,192,120327,1,8,0:0:0:0:
256,192,120627,1,0,0:0:0:0:
256,192,120927,1,8,0:0:0:0:
256,192,121227,1,8,0:0:0:0:
256,192,121377,1,0,0:0:0:0:
256,192,121527,1,8,0:0:0:0:
256,192,121827,1,8,0:0:0:0:
256,192,121977,1,0,0:0:0:0:
256,192,122427,1,8,0:0:0:0:
256,192,123027,1,4,0:0:0:0:
256,192,123327,1,8,0:0:0:0:
256,192,123477,1,0,0:0:0:0:
256,192,123627,1,8,0:0:0:0:
256,192,123927,1,0,0:0:0:0:
256,192,124077,1,8,0:0:0:0:
256,192,124227,1,0,0:0:0:0:
256,192,124527,1,8,0:0:0:0:
256,192,124827,1,8,0:0:0:0:
256,192,125127,1,4,0:0:0:0:
256,192,125427,1,8,0:0:0:0:
256,192,125577,1,8,0:0:0:0:
256,192,125727,1,0,0:0:0:0:
256,192,126027,1,8,0:0:0:0:
256,192,126177,1,0,0:0:0:0:
256,192,126327,1,8,0:0:0:0:
256,192,126627,1,0,0:0:0:0:
256,192,126927,1,8,0:0:0:0:
256,192,127227,1,4,0:0:0:0:
256,192,127827,1,4,0:0:0:0:
256,192,128277,1,12,0:0:0:0:
256,192,129027,1,12,0:0:0:0:
256,192,129777,1,4,0:0:0:0:
256,192,130227,1,4,0:0:0:0:
256,192,130827,1,0,0:0:0:0:
256,192,131127,1,0,0:0:0:0:
256,192,131427,1,12,0:0:0:0:
256,192,132027,1,12,0:0:0:0:
256,192,132477,1,8,0:0:0:0:
256,192,132627,1,0,0:0:0:0:
256,192,132927,1,8,0:0:0:0:
256,192,133227,1,0,0:0:0:0:
256,192,133527,1,8,0:0:0:0:
256,192,133677,1,8,0:0:0:0:
256,192,133827,1,0,0:0:0:0:
256,192,134127,1,8,0:0:0:0:
256,192,134427,1,0,0:0:0:0:
256,192,135027,1,8,0:0:0:0:
256,192,135177,1,0,0:0:0:0:
256,192,135327,1,8,0:0:0:0:
256,192,135627,1,0,0:0:0:0:
256,192,135927,1,8,0:0:0:0:
256,192,136077,1,8,0:0:0:0:
256,192,136227,1,0,0:0:0:0:
256,192,136377,1,0,0:0:0:0:
256,192,136527,1,8,0:0:0:0:
256,192,136827,1,0,0:0:0:0:
256,192,137127,1,8,0:0:0:0:
256,192,137427,1,0,0:0:0:0:
256,192,137577,1,0,0:0:0:0:
256,192,137727,1,8,0:0:0:0:
256,192,138027,1,8,0:0:0:0:
256,192,138177,1,0,0:0:0:0:
256,192,138327,1,8,0:0:0:0:
256,192,138627,1,0,0:0:0:0:
256,192,139227,1,0,0:0:0:0:
256,192,139527,1,8,0:0:0:0:
256,192,139827,1,0,0:0:0:0:
256,192,139977,1,0,0:0:0:0:
256,192,140127,1,8,0:0:0:0:
256,192,140277,1,0,0:0:0:0:
256,192,140427,1,0,0:0:0:0:
256,192,140727,1,8,0:0:0:0:
256,192,141027,1,4,0:0:0:0:
256,192,141327,1,4,0:0:0:0:
256,192,141627,1,12,0:0:0:0:
256,192,142077,1,8,0:0:0:0:
256,192,142227,1,0,0:0:0:0:
256,192,142377,1,0,0:0:0:0:
256,192,142527,1,8,0:0:0:0:
256,192,142827,1,0,0:0:0:0:
256,192,143127,1,8,0:0:0:0:
256,192,143277,1,8,0:0:0:0:
256,192,143427,1,0,0:0:0:0:
256,192,143727,1,8,0:0:0:0:
256,192,144027,1,0,0:0:0:0:
256,192,144627,1,8,0:0:0:0:
256,192,144777,1,0,0:0:0:0:
256,192,144927,1,8,0:0:0:0:
256,192,145077,1,8,0:0:0:0:
256,192,145227,1,0,0:0:0:0:
256,192,145527,1,8,0:0:0:0:
256,192,145827,1,0,0:0:0:0:
256,192,145977,1,0,0:0:0:0:
256,192,146127,1,8,0:0:0:0:
256,192,146427,1,4,0:0:0:0:
256,192,146727,1,8,0:0:0:0:
256,192,147027,1,8,0:0:0:0:
256,192,147327,1,8,0:0:0:0:
256,192,147627,1,0,0:0:0:0:
262,187,147927,1,0,0:0:0:0:
262,187,148077,1,0,0:0:0:0:
262,187,148227,1,0,0:0:0:0:
262,187,148527,1,8,0:0:0:0:
256,192,148827,5,4,0:0:0:0:
256,192,149277,1,4,0:0:0:0:
256,192,149727,1,4,0:0:0:0:
256,192,150177,1,4,0:0:0:0:
256,192,151227,5,12,0:0:0:0:
256,192,151677,1,12,0:0:0:0:
256,192,152127,1,12,0:0:0:0:
256,192,152577,1,12,0:0:0:0:
256,192,153627,1,12,0:0:0:0:
256,192,153927,1,0,0:0:0:0:
256,192,154227,1,8,0:0:0:0:
256,192,154377,1,0,0:0:0:0:
256,192,154527,1,8,0:0:0:0:
256,192,154827,1,0,0:0:0:0:
256,192,155127,1,8,0:0:0:0:
256,192,155427,1,0,0:0:0:0:
256,192,156027,1,8,0:0:0:0:
256,192,156177,1,0,0:0:0:0:
256,192,156327,1,8,0:0:0:0:
256,192,156627,1,0,0:0:0:0:
256,192,156927,1,8,0:0:0:0:
256,192,157227,1,0,0:0:0:0:
256,192,157377,1,0,0:0:0:0:
256,192,157527,1,8,0:0:0:0:
256,192,157677,1,8,0:0:0:0:
256,192,158427,1,12,0:0:0:0:
256,192,158727,1,0,0:0:0:0:
256,192,158877,1,8,0:0:0:0:
256,192,159327,1,8,0:0:0:0:
256,192,159627,1,0,0:0:0:0:
256,192,159777,1,8,0:0:0:0:
256,192,160227,1,0,0:0:0:0:
256,192,160527,1,8,0:0:0:0:
256,192,160827,1,0,0:0:0:0:
272,177,160977,1,0,0:0:0:0:
238,172,161127,1,8,0:0:0:0:
256,192,161427,1,0,0:0:0:0:
256,192,161727,1,8,0:0:0:0:
255,166,161877,1,0,0:0:0:0:
256,192,162027,1,8,0:0:0:0:
237,167,162177,5,0,0:0:0:0:
256,192,162327,1,8,0:0:0:0:
256,192,162627,1,0,0:0:0:0:
268,178,162777,1,8,0:0:0:0:
256,192,162927,1,0,0:0:0:0:
256,192,163227,1,12,0:0:0:0:
256,192,163827,1,0,0:0:0:0:
256,192,164127,1,8,0:0:0:0:
256,192,164427,1,0,0:0:0:0:
256,192,164577,1,8,0:0:0:0:
256,192,164877,1,8,0:0:0:0:
256,192,165027,1,0,0:0:0:0:
256,192,165327,1,0,0:0:0:0:
241,187,165477,1,8,0:0:0:0:
256,192,165627,1,0,0:0:0:0:
264,186,165927,1,8,0:0:0:0:
256,192,166227,1,0,0:0:0:0:
240,166,166377,1,0,0:0:0:0:
256,192,166527,1,8,0:0:0:0:
256,192,166677,1,8,0:0:0:0:
256,192,166827,1,0,0:0:0:0:
256,192,167127,1,0,0:0:0:0:
256,192,167427,1,8,0:0:0:0:
256,192,167577,1,0,0:0:0:0:
256,192,167727,1,8,0:0:0:0:
256,192,168027,1,4,0:0:0:0:
256,192,168627,1,12,0:0:0:0:
256,192,169227,1,4,0:0:0:0:
256,192,169827,1,12,0:0:0:0:
256,192,170427,1,12,0:0:0:0:
256,192,171027,1,4,0:0:0:0:
256,192,171627,1,12,0:0:0:0:
256,192,172227,1,4,0:0:0:0:
256,192,172527,1,12,0:0:0:0:
256,192,172827,1,4,0:0:0:0:
256,192,173427,1,12,0:0:0:0:
256,192,174027,1,4,0:0:0:0:
256,192,174627,1,12,0:0:0:0:
256,192,175227,1,12,0:0:0:0:
256,192,175827,1,4,0:0:0:0:
256,192,176427,1,12,0:0:0:0:
256,192,177027,1,4,0:0:0:0:
256,192,177327,1,12,0:0:0:0:
256,192,177627,1,0,0:0:0:0:
258,177,178227,1,8,0:0:0:0:
256,192,178827,1,0,0:0:0:0:
261,179,179427,1,8,0:0:0:0:
256,192,180027,1,0,0:0:0:0:
259,174,180627,1,8,0:0:0:0:
256,192,181227,1,0,0:0:0:0:
259,174,181827,1,8,0:0:0:0:
256,192,182427,1,4,0:0:0:0:
256,192,182727,1,4,0:0:0:0:
256,192,183027,1,12,0:0:0:0:
256,192,183327,1,12,0:0:0:0:
256,192,183477,8,0,185427,0:0:0:0:
256,192,186027,5,8,0:0:0:0:
256,192,186627,1,4,0:0:0:0:
256,192,187227,1,12,0:0:0:0:
256,192,187977,1,12,0:0:0:0:
256,192,188427,1,0,0:0:0:0:
256,192,189027,1,8,0:0:0:0:
256,192,189327,1,8,0:0:0:0:
256,192,189477,1,0,0:0:0:0:
256,192,189627,1,8,0:0:0:0:
256,192,189927,1,8,0:0:0:0:
256,192,190227,1,4,0:0:0:0:
256,192,190827,1,12,0:0:0:0:
256,192,191427,1,0,0:0:0:0:
256,192,191877,1,8,0:0:0:0:
256,192,192177,1,8,0:0:0:0:
256,192,192477,1,0,0:0:0:0:
256,192,192627,1,8,0:0:0:0:
256,192,192927,1,0,0:0:0:0:
256,192,193077,1,8,0:0:0:0:
256,192,193227,1,0,0:0:0:0:
256,192,194427,1,4,0:0:0:0:
256,192,194727,1,4,0:0:0:0:
256,192,195027,1,4,0:0:0:0:
256,192,195627,1,12,0:0:0:0:
256,192,195927,1,8,0:0:0:0:
256,192,196227,1,8,0:0:0:0:
256,192,196377,1,0,0:0:0:0:
256,192,196527,1,8,0:0:0:0:
256,192,196827,1,8,0:0:0:0:
256,192,196977,1,8,0:0:0:0:
256,192,197127,1,8,0:0:0:0:
256,192,197277,1,8,0:0:0:0:
256,192,197427,1,0,0:0:0:0:
256,192,199227,5,12,0:0:0:0:
256,192,199677,1,8,0:0:0:0:
256,192,199827,1,0,0:0:0:0:
256,192,200127,1,8,0:0:0:0:
256,192,200427,1,0,0:0:0:0:
256,192,200727,1,8,0:0:0:0:
256,192,200877,1,8,0:0:0:0:
256,192,201027,1,0,0:0:0:0:
256,192,201327,1,8,0:0:0:0:
256,192,201627,1,0,0:0:0:0:
256,192,202227,1,8,0:0:0:0:
256,192,202377,1,0,0:0:0:0:
256,192,202527,1,8,0:0:0:0:
256,192,202827,1,0,0:0:0:0:
256,192,203127,1,8,0:0:0:0:
256,192,203277,1,8,0:0:0:0:
256,192,203427,1,0,0:0:0:0:
256,192,203577,1,0,0:0:0:0:
256,192,203727,1,8,0:0:0:0:
256,192,204027,1,0,0:0:0:0:
256,192,204327,1,8,0:0:0:0:
256,192,204627,1,0,0:0:0:0:
256,192,204777,1,0,0:0:0:0:
256,192,204927,1,8,0:0:0:0:
256,192,205227,1,8,0:0:0:0:
256,192,205377,1,0,0:0:0:0:
256,192,205527,1,8,0:0:0:0:
256,192,205827,1,0,0:0:0:0:
256,192,206427,1,0,0:0:0:0:
256,192,206727,1,8,0:0:0:0:
256,192,207027,1,0,0:0:0:0:
256,192,207177,1,0,0:0:0:0:
256,192,207327,1,8,0:0:0:0:
256,192,207477,1,8,0:0:0:0:
256,192,207627,1,0,0:0:0:0:
256,192,207927,1,8,0:0:0:0:
256,192,208227,1,4,0:0:0:0:
256,192,208527,1,4,0:0:0:0:
256,192,208827,1,12,0:0:0:0:
255,173,209277,1,8,0:0:0:0:
256,192,209427,1,0,0:0:0:0:
256,192,209577,1,0,0:0:0:0:
256,192,209727,1,8,0:0:0:0:
256,192,210027,1,0,0:0:0:0:
256,192,210327,1,8,0:0:0:0:
256,192,210477,1,8,0:0:0:0:
256,192,210627,1,0,0:0:0:0:
256,192,210927,1,8,0:0:0:0:
256,192,211227,1,0,0:0:0:0:
256,192,211827,1,8,0:0:0:0:
256,192,211977,1,0,0:0:0:0:
256,192,212127,1,8,0:0:0:0:
256,192,212277,1,8,0:0:0:0:
256,192,212427,1,0,0:0:0:0:
256,192,212727,1,8,0:0:0:0:
256,192,213027,1,0,0:0:0:0:
256,192,213177,1,0,0:0:0:0:
256,192,213327,1,8,0:0:0:0:
256,192,213627,5,4,0:0:0:0:
256,192,213927,1,8,0:0:0:0:
256,192,214227,1,8,0:0:0:0:
256,192,214377,1,0,0:0:0:0:
256,192,214527,1,8,0:0:0:0:
256,192,214827,1,0,0:0:0:0:
256,192,215127,1,8,0:0:0:0:
256,192,215427,1,0,0:0:0:0:
256,192,215577,1,0,0:0:0:0:
256,192,215727,1,8,0:0:0:0:
256,192,216027,5,4,0:0:0:0:
256,192,216327,5,4,0:0:0:0:
256,192,216627,1,12,0:0:0:0:
256,192,216927,1,12,0:0:0:0:
256,192,217227,1,4,0:0:0:0:
256,192,218427,1,4,0:0:0:0:
256,192,218727,1,8,0:0:0:0:
255,173,218877,1,0,0:0:0:0:
256,192,219027,1,0,0:0:0:0:
256,192,219327,1,8,0:0:0:0:
256,192,219627,1,0,0:0:0:0:
256,192,219777,1,0,0:0:0:0:
256,192,219927,1,8,0:0:0:0:
256,192,220227,1,0,0:0:0:0:
256,192,220827,1,0,0:0:0:0:
256,192,221127,1,8,0:0:0:0:
256,192,221427,1,0,0:0:0:0:
256,192,221727,1,8,0:0:0:0:
263,187,221877,1,8,0:0:0:0:
256,192,222027,1,0,0:0:0:0:
256,192,222177,1,0,0:0:0:0:
256,192,222327,1,8,0:0:0:0:
256,192,222627,1,0,0:0:0:0:
256,192,222927,1,8,0:0:0:0:
256,192,223227,1,0,0:0:0:0:
256,192,223527,1,8,0:0:0:0:
253,175,223677,1,0,0:0:0:0:
256,192,223827,1,0,0:0:0:0:
256,192,224127,1,8,0:0:0:0:
256,192,224427,1,0,0:0:0:0:
256,192,224577,1,0,0:0:0:0:
256,192,224727,1,8,0:0:0:0:
256,192,225027,1,0,0:0:0:0:
256,192,225627,1,0,0:0:0:0:
256,192,225927,1,8,0:0:0:0:
256,192,226227,1,0,0:0:0:0:
256,192,226527,1,8,0:0:0:0:
256,192,226827,1,8,0:0:0:0:
256,192,226977,1,0,0:0:0:0:
256,192,227127,1,0,0:0:0:0:
256,192,227277,1,8,0:0:0:0:
208,161,227727,1,8,0:0:0:0:
265,170,228027,1,4,0:0:0:0:
256,192,228327,5,8,0:0:0:0:
256,192,228627,1,8,0:0:0:0:
256,192,228777,1,0,0:0:0:0:
256,192,228927,1,8,0:0:0:0:
256,192,229227,1,0,0:0:0:0:
256,192,229377,1,0,0:0:0:0:
256,192,229527,1,8,0:0:0:0:
256,192,229827,1,0,0:0:0:0:
256,192,230427,1,0,0:0:0:0:
256,192,230727,1,8,0:0:0:0:
256,192,231027,1,8,0:0:0:0:
245,155,231177,1,0,0:0:0:0:
256,192,231327,1,8,0:0:0:0:
256,192,231477,1,8,0:0:0:0:
256,192,231627,1,0,0:0:0:0:
256,192,231927,1,8,0:0:0:0:
256,192,232227,1,0,0:0:0:0:
247,160,232377,1,0,0:0:0:0:
256,192,232527,1,8,0:0:0:0:
256,192,232827,1,0,0:0:0:0:
256,192,233427,1,8,0:0:0:0:
256,192,233577,1,0,0:0:0:0:
256,192,233727,1,8,0:0:0:0:
256,192,233877,1,0,0:0:0:0:
256,192,234027,1,8,0:0:0:0:
256,192,234327,1,0,0:0:0:0:
256,192,234627,1,8,0:0:0:0:
256,192,234927,1,8,0:0:0:0:
256,192,235227,1,0,0:0:0:0:
256,192,235527,1,8,0:0:0:0:
256,192,235827,1,0,0:0:0:0:
256,192,235977,1,0,0:0:0:0:
256,192,236127,1,8,0:0:0:0:
256,192,236427,1,0,0:0:0:0:
256,192,236727,1,8,0:0:0:0:
245,184,236877,1,8,0:0:0:0:
256,192,237027,1,0,0:0:0:0:
256,192,237177,1,0,0:0:0:0:
256,192,237327,1,8,0:0:0:0:
256,192,237627,1,4,0:0:0:0:
256,192,238527,1,0,0:0:0:0:
256,192,238827,1,8,0:0:0:0:
256,192,239727,1,8,0:0:0:0:
256,192,240027,1,8,0:0:0:0:
256,192,240927,1,0,0:0:0:0:
256,192,241227,1,8,0:0:0:0:
256,192,242127,1,0,0:0:0:0:
256,192,242427,1,8,0:0:0:0:
256,192,243327,1,0,0:0:0:0:
256,192,243627,1,8,0:0:0:0:
256,192,244527,1,8,0:0:0:0:
256,192,244827,1,8,0:0:0:0:
256,192,245727,1,12,0:0:0:0:
