osu file format v14

[General]
AudioFilename: audio.mp3
AudioLeadIn: 0
PreviewTime: 58527
Countdown: 0
SampleSet: Normal
StackLeniency: 0.7
Mode: 1
LetterboxInBreaks: 0
WidescreenStoryboard: 1

[Editor]
Bookmarks: 1226,10826,30026,39626,58826,68426,75626,85226,95126,104426,118826,132026,141626,148826,158426,168026,177626,186626,199226,218426,228026,237626
DistanceSpacing: 0.1
BeatDivisor: 4
GridSize: 8
TimelineZoom: 1.899999

[Metadata]
Title:Weenywalker
TitleUnicode:ウィーニーウォーカー
Artist:youman
ArtistUnicode:youまん
Creator:gaston_2199
Version:6_4's Inner Oni
Source:
Tags:ボーカロイド vocaloid グミ GUMI メグッポイド megpoid ブイフラワ flower vflower japanese rock jrock j-rock 6_4 paz08
BeatmapID:4186462
BeatmapSetID:1994252

[Difficulty]
HPDrainRate:5.5
CircleSize:4
OverallDifficulty:6.5
ApproachRate:10
SliderMultiplier:1.4
SliderTickRate:1

[Events]
//Background and Video events
0,0,"BG.jpg",0,0
//Break Periods
//Storyboard Layer 0 (Background)
//Storyboard Layer 1 (Fail)
//Storyboard Layer 2 (Pass)
//Storyboard Layer 3 (Foreground)
//Storyboard Layer 4 (Overlay)
//Storyboard Sound Samples

[TimingPoints]
28,300,4,1,0,40,1,8
1078,-133.333333333333,4,1,0,40,0,8
1227,300,4,1,0,40,1,0
1227,-133.333333333333,4,1,0,40,0,0
9627,-80,4,1,0,80,0,0
9927,-78.125,4,1,0,80,0,0
10227,-76.3358778625954,4,1,0,80,0,0
10527,-108.695652173913,4,1,0,70,0,0
10677,-104.166666666667,4,1,0,70,0,0
10827,-90.9090909090909,4,1,0,80,0,0
11127,-100,4,1,0,80,0,0
30027,-133.333333333333,4,1,0,60,0,0
38877,-125,4,1,0,60,0,0
39027,-119.047619047619,4,1,0,60,0,0
39177,-113.636363636364,4,1,0,60,0,0
39252,-111.111111111111,4,1,0,60,0,0
39327,-108.695652173913,4,1,0,60,0,0
39477,-104.166666666667,4,1,0,60,0,0
39527,-102.743244631665,4,1,0,60,0,0
39577,-101.35819987837,4,1,0,60,0,0
39627,-90.9090909090909,4,1,0,80,0,0
39927,-100,4,1,0,80,0,0
43827,-90.9090909090909,4,1,0,80,0,0
44127,-84.7457627118644,4,1,0,80,0,0
44427,-100,4,1,0,80,0,0
48627,-83.3333333333333,4,1,0,80,0,0
48777,-86.9565217391304,4,1,0,80,0,0
48927,-90.9090909090909,4,1,0,80,0,0
49077,-95.2380952380952,4,1,0,80,0,0
49227,-100,4,1,0,70,0,0
49527,-101.010101010101,4,1,0,70,0,0
49677,-101.522842639594,4,1,0,70,0,0
49827,-102.040816326531,4,1,0,70,0,0
50127,-103.092783505155,4,1,0,70,0,0
50277,-103.626943005181,4,1,0,70,0,0
50427,-104.166666666667,4,1,0,70,0,0
50577,-104.712041884817,4,1,0,70,0,0
50727,-105.263157894737,4,1,0,70,0,0
50877,-105.820105820106,4,1,0,70,0,0
51027,-106.382978723404,4,1,0,70,0,0
51177,-106.951871657754,4,1,0,70,0,0
51327,-107.52688172043,4,1,0,70,0,0
51627,-108.695652173913,4,1,0,70,0,0
51777,-109.289617486339,4,1,0,70,0,0
51927,-109.89010989011,4,1,0,70,0,0
52077,-110.497237569061,4,1,0,70,0,0
52227,-111.111111111111,4,1,0,70,0,0
52527,-112.359550561798,4,1,0,70,0,0
52677,-112.994350282486,4,1,0,70,0,0
52827,-113.636363636364,4,1,0,70,0,0
53127,-114.942528735632,4,1,0,70,0,0
53427,-116.279069767442,4,1,0,70,0,0
53577,-116.959064327485,4,1,0,70,0,0
53652,-117.302052785924,4,1,0,70,0,0
53727,-117.647058823529,4,1,0,70,0,0
54027,-119.047619047619,4,1,0,70,0,0
54327,-120.481927710843,4,1,0,70,0,0
54477,-121.212121212121,4,1,0,70,0,0
54627,-121.951219512195,4,1,0,70,0,0
54927,-123.456790123457,4,1,0,70,0,0
55077,-124.223602484472,4,1,0,70,0,0
55227,-125,4,1,0,80,0,0
55377,-125.786163522013,4,1,0,80,0,0
55527,-126.582278481013,4,1,0,80,0,0
55677,-127.388535031847,4,1,0,80,0,0
55827,-128.205128205128,4,1,0,80,0,0
55977,-129.032258064516,4,1,0,80,0,0
56127,-129.87012987013,4,1,0,80,0,0
56277,-130.718954248366,4,1,0,80,0,0
56352,-131.147540983607,4,1,0,80,0,0
56427,-111.111111111111,4,1,0,80,0,0
56727,-121.951219512195,4,1,0,80,0,0
56877,-117.647058823529,4,1,0,80,0,0
57027,-113.636363636364,4,1,0,80,0,0
57177,-109.89010989011,4,1,0,80,0,0
57327,-106.382978723404,4,1,0,80,0,0
57477,-103.092783505155,4,1,0,80,0,0
57627,-90.9090909090909,4,1,0,80,0,0
57777,-97.0873786407767,4,1,0,80,0,0
57927,-81.9672131147541,4,1,0,80,0,0
58077,-91.743119266055,4,1,0,80,0,0
58227,-78.125,4,1,0,80,0,0
58827,-86.9565217391304,4,1,0,100,0,1
66027,-86.9565217391304,4,1,0,100,0,1
66177,-87.3362445414847,4,1,0,100,0,1
66327,-87.719298245614,4,1,0,100,0,1
66477,-88.4955752212389,4,1,0,100,0,1
66552,-88.8888888888889,4,1,0,100,0,1
66627,-89.2857142857143,4,1,0,100,0,1
66777,-90.0900900900901,4,1,0,100,0,1
66852,-90.9090909090909,4,1,0,100,0,1
66927,-91.743119266055,4,1,0,100,0,1
67077,-93.4579439252336,4,1,0,100,0,1
67227,-95.2380952380952,4,1,0,100,0,1
67377,-97.0873786407767,4,1,0,100,0,1
67452,-98.5221674876847,4,1,0,100,0,1
67527,-100,4,1,0,100,0,1
67677,-103.092783505155,4,1,0,100,0,1
67827,-76.9230769230769,4,1,0,100,0,0
68127,-71.4285714285714,4,1,0,100,0,0
68427,-66.6666666666667,4,1,0,100,0,1
68727,-86.9565217391304,4,1,0,100,0,1
73227,-76.3358778625954,4,1,0,100,0,1
73377,-77.5193798449612,4,1,0,100,0,1
73527,-78.7401574803149,4,1,0,100,0,1
73677,-80,4,1,0,100,0,1
73752,-80.6451612903226,4,1,0,100,0,1
73827,-81.3008130081301,4,1,0,100,0,1
73977,-82.6446280991736,4,1,0,100,0,1
74052,-83.3333333333333,4,1,0,100,0,1
74127,-84.0336134453781,4,1,0,100,0,1
74277,-85.4700854700855,4,1,0,100,0,1
74352,-86.2068965517241,4,1,0,100,0,1
74427,-86.9565217391304,4,1,0,100,0,1
74727,-80,4,1,0,100,0,1
74877,-76.9230769230769,4,1,0,100,0,1
75027,-74.0740740740741,4,1,0,100,0,1
75327,-68.9655172413793,4,1,0,100,0,1
75627,-100,4,1,0,80,0,0
85227,-133.333333333333,4,1,0,70,0,0
94227,-80,4,1,0,80,0,0
94377,-78.125,4,1,0,80,0,0
94527,-76.3358778625954,4,1,0,80,0,0
94677,-74.6268656716418,4,1,0,80,0,0
94827,-100,4,1,0,80,0,0
99027,-90.9090909090909,4,1,0,80,0,0
99327,-84.7457627118644,4,1,0,80,0,0
99627,-100,4,1,0,80,0,0
104427,-133.333333333333,4,1,0,60,0,0
114027,-133.333333333333,4,1,0,40,0,0
114627,-136.986301369863,4,1,0,40,0,0
115227,-140.845070422535,4,1,0,40,0,0
115527,-142.857142857143,4,1,0,40,0,0
116127,-147.058823529412,4,1,0,40,0,0
116427,-149.253731343284,4,1,0,40,0,0
117027,-153.846153846154,4,1,0,40,0,0
117477,-157.48031496063,4,1,0,40,0,0
117627,-90.9090909090909,4,1,0,90,0,1
117702,-89.2857142857143,4,1,0,90,0,1
117777,-87.719298245614,4,1,0,90,0,1
117852,-86.2068965517241,4,1,0,90,0,1
117927,-84.7457627118644,4,1,0,90,0,1
118077,-81.9672131147541,4,1,0,90,0,1
118227,-79.3650793650794,4,1,0,90,0,0
118827,300,7,1,0,100,1,1
118827,-86.9565217391304,7,1,0,100,0,1
118902,-89.2857142857143,7,1,0,100,0,1
118977,-91.743119266055,7,1,0,100,0,1
119052,-94.3396226415094,7,1,0,100,0,1
119127,-97.0873786407767,7,1,0,100,0,1
119202,-100,7,1,0,100,0,1
119277,-103.092783505155,7,1,0,100,0,1
119424,-76.9230769230769,7,1,0,100,0,1
119499,-78.9473684210526,7,1,0,100,0,1
119574,-81.0810810810811,7,1,0,100,0,1
119649,-83.3333333333333,7,1,0,100,0,1
119724,-85.7142857142857,7,1,0,100,0,1
119874,-66.6666666666667,7,1,0,100,0,1
119949,-68.4931506849315,7,1,0,100,0,1
120024,-70.4225352112676,7,1,0,100,0,1
120099,-72.463768115942,7,1,0,100,0,1
120174,-74.6268656716418,7,1,0,100,0,1
120249,-76.9230769230769,7,1,0,100,0,1
120324,-79.3650793650794,7,1,0,100,0,1
120399,-81.9672131147541,7,1,0,100,0,1
120474,-84.7457627118644,7,1,0,100,0,1
120549,-87.719298245614,7,1,0,100,0,1
120627,-90.9090909090909,7,1,0,100,0,0
120927,-86.9565217391304,7,1,0,100,0,1
120989,-89.2857142857143,7,1,0,100,0,1
121064,-91.743119266055,7,1,0,100,0,1
121139,-94.3396226415094,7,1,0,100,0,1
121214,-97.0873786407767,7,1,0,100,0,1
121289,-100,7,1,0,100,0,1
121364,-103.092783505155,7,1,0,100,0,1
121516,-76.9230769230769,7,1,0,100,0,1
121591,-78.9473684210526,7,1,0,100,0,1
121666,-81.0810810810811,7,1,0,100,0,1
121741,-83.3333333333333,7,1,0,100,0,1
121816,-85.7142857142857,7,1,0,100,0,1
121966,-66.6666666666667,7,1,0,100,0,1
122041,-68.4931506849315,7,1,0,100,0,1
122116,-70.4225352112676,7,1,0,100,0,1
122191,-72.463768115942,7,1,0,100,0,1
122266,-74.6268656716418,7,1,0,100,0,1
122341,-76.9230769230769,7,1,0,100,0,1
122416,-79.3650793650794,7,1,0,100,0,1
122491,-81.9672131147541,7,1,0,100,0,1
122566,-84.7457627118644,7,1,0,100,0,1
122641,-87.719298245614,7,1,0,100,0,1
122727,-90.9090909090909,7,1,0,100,0,0
123027,-66.6666666666667,7,1,0,100,0,1
123099,-68.2926829268293,7,1,0,100,0,1
123174,-70,7,1,0,100,0,1
123249,-71.7948717948718,7,1,0,100,0,1
123324,-73.6842105263158,7,1,0,100,0,1
123399,-75.6756756756757,7,1,0,100,0,1
123474,-77.7777777777778,7,1,0,100,0,1
123549,-80,7,1,0,100,0,1
123624,-82.3529411764706,7,1,0,100,0,1
123699,-84.8484848484848,7,1,0,100,0,1
123774,-87.5,7,1,0,100,0,1
123849,-90.3225806451613,7,1,0,100,0,1
123924,-93.3333333333333,7,1,0,100,0,1
124074,-66.6666666666667,7,1,0,100,0,1
124149,-68.4931506849315,7,1,0,100,0,1
124224,-70.4225352112676,7,1,0,100,0,1
124299,-72.463768115942,7,1,0,100,0,1
124374,-74.6268656716418,7,1,0,100,0,1
124449,-76.9230769230769,7,1,0,100,0,1
124524,-79.3650793650794,7,1,0,100,0,1
124599,-81.9672131147541,7,1,0,100,0,1
124674,-84.7457627118644,7,1,0,100,0,1
124749,-87.719298245614,7,1,0,100,0,1
124827,-90.9090909090909,7,1,0,100,0,0
125127,-66.6666666666667,7,1,0,100,0,1
125198,-68.2926829268293,7,1,0,100,0,1
125273,-70,7,1,0,100,0,1
125348,-71.7948717948718,7,1,0,100,0,1
125423,-73.6842105263158,7,1,0,100,0,1
125498,-75.6756756756757,7,1,0,100,0,1
125573,-77.7777777777778,7,1,0,100,0,1
125648,-80,7,1,0,100,0,1
125723,-82.3529411764706,7,1,0,100,0,1
125798,-84.8484848484848,7,1,0,100,0,1
125873,-87.5,7,1,0,100,0,1
125948,-90.3225806451613,7,1,0,100,0,1
126023,-93.3333333333333,7,1,0,100,0,1
126173,-66.6666666666667,7,1,0,100,0,1
126248,-68.4931506849315,7,1,0,100,0,1
126323,-70.4225352112676,7,1,0,100,0,1
126398,-72.463768115942,7,1,0,100,0,1
126473,-74.6268656716418,7,1,0,100,0,1
126548,-76.9230769230769,7,1,0,100,0,1
126623,-79.3650793650794,7,1,0,100,0,1
126698,-81.9672131147541,7,1,0,100,0,1
126773,-84.7457627118644,7,1,0,100,0,1
126848,-87.719298245614,7,1,0,100,0,1
126927,-90.9090909090909,7,1,0,100,0,0
127227,300,4,1,0,80,1,0
127227,-90.9090909090909,4,1,0,80,0,0
127527,-87.719298245614,4,1,0,80,0,0
127827,-84.7457627118644,4,1,0,80,0,0
127977,-83.3333333333333,4,1,0,80,0,0
128052,-82.6446280991736,4,1,0,80,0,0
128127,-81.9672131147541,4,1,0,80,0,0
128277,-80.6451612903226,4,1,0,80,0,0
128427,-79.3650793650794,4,1,0,80,0,0
128577,-78.125,4,1,0,80,0,0
128727,-76.9230769230769,4,1,0,80,0,0
128877,-75.7575757575758,4,1,0,80,0,0
128952,-75.187969924812,4,1,0,80,0,0
129027,-74.6268656716418,4,1,0,80,0,0
129627,-100,4,1,0,80,0,0
129777,-90.9090909090909,4,1,0,90,0,1
129927,-100,4,1,0,90,0,1
130002,-98.0392156862745,4,1,0,90,0,1
130077,-96.1538461538461,4,1,0,90,0,1
130152,-94.3396226415094,4,1,0,90,0,1
130227,-92.5925925925926,4,1,0,90,0,1
130302,-90.9090909090909,4,1,0,90,0,1
130377,-89.2857142857143,4,1,0,90,0,1
130452,-87.719298245614,4,1,0,90,0,1
130527,-86.2068965517241,4,1,0,90,0,1
130602,-84.7457627118644,4,1,0,90,0,1
130677,-83.3333333333333,4,1,0,90,0,1
130752,-81.9672131147541,4,1,0,90,0,1
130827,-80.6451612903226,4,1,0,80,0,0
130977,-78.125,4,1,0,80,0,0
131127,-75.7575757575758,4,1,0,80,0,0
131277,-73.5294117647059,4,1,0,80,0,0
131427,-71.4285714285714,4,1,0,80,0,0
131727,-100,4,1,0,80,0,0
132027,-86.9565217391304,7,1,0,100,0,1
139221,-86.9565217391304,4,1,0,100,0,1
139371,-87.3362445414847,4,1,0,100,0,1
139521,-87.719298245614,4,1,0,100,0,1
139671,-88.4955752212389,4,1,0,100,0,1
139746,-88.8888888888889,4,1,0,100,0,1
139821,-89.2857142857143,4,1,0,100,0,1
139971,-90.0900900900901,4,1,0,100,0,1
140052,-90.9090909090909,4,1,0,100,0,1
140121,-91.743119266055,4,1,0,100,0,1
140271,-93.4579439252336,4,1,0,100,0,1
140421,-95.2380952380952,4,1,0,100,0,1
140502,-96.1538461538461,4,1,0,100,0,1
140571,-97.0873786407767,4,1,0,100,0,1
140646,-98.5221674876847,4,1,0,100,0,1
140721,-100,4,1,0,100,0,1
140871,-103.092783505155,4,1,0,100,0,1
141027,-76.9230769230769,4,1,0,100,0,0
141327,-71.4285714285714,4,1,0,100,0,0
141627,-66.6666666666667,4,1,0,100,0,1
141927,-86.9565217391304,4,1,0,100,0,1
146421,-76.3358778625954,4,1,0,100,0,1
146571,-77.5193798449612,4,1,0,100,0,1
146721,-78.7401574803149,4,1,0,100,0,1
146871,-80,4,1,0,100,0,1
146946,-80.6451612903226,4,1,0,100,0,1
147021,-81.3008130081301,4,1,0,100,0,1
147171,-82.6446280991736,4,1,0,100,0,1
147246,-83.3333333333333,4,1,0,100,0,1
147321,-84.0336134453781,4,1,0,100,0,1
147471,-85.4700854700855,4,1,0,100,0,1
147546,-86.2068965517241,4,1,0,100,0,1
147612,-86.9565217391304,4,1,0,100,0,1
147912,-80,4,1,0,100,0,1
148062,-76.9230769230769,4,1,0,100,0,1
148212,-74.0740740740741,4,1,0,100,0,1
148512,-68.9655172413793,4,1,0,100,0,1
148677,-83.3333333333333,4,1,0,100,0,1
148727,-82.6446280991736,4,1,0,100,0,1
148777,-81.9672131147541,4,1,0,100,0,1
148827,-75.187969924812,7,1,0,80,0,0
148977,-90.9090909090909,7,1,0,80,0,0
149277,-75.187969924812,7,1,0,80,0,0
149427,-90.9090909090909,7,1,0,80,0,0
149727,-75.187969924812,7,1,0,80,0,0
149877,-90.9090909090909,7,1,0,80,0,0
150177,-75.187969924812,7,1,0,80,0,0
150477,-90.9090909090909,7,1,0,80,0,0
150627,-36.3636363636364,7,1,0,80,0,0
151227,-76.9230769230769,7,1,0,80,0,0
151377,-90.9090909090909,7,1,0,80,0,0
151677,-76.9230769230769,7,1,0,80,0,0
151827,-90.9090909090909,7,1,0,80,0,0
152127,-76.9230769230769,7,1,0,80,0,0
152277,-90.9090909090909,7,1,0,80,0,0
152577,-76.9230769230769,7,1,0,80,0,0
152727,-90.9090909090909,7,1,0,80,0,0
152802,-90.0900900900901,7,1,0,80,0,0
152877,-89.2857142857143,7,1,0,80,0,0
153027,-87.719298245614,7,1,0,80,0,0
153177,-86.2068965517241,7,1,0,80,0,0
153327,-84.7457627118644,7,1,0,80,0,0
153402,-84.0336134453781,7,1,0,80,0,0
153477,-83.3333333333333,7,1,0,80,0,0
153552,-82.6446280991736,7,1,0,80,0,0
153627,-76.9230769230769,7,1,0,80,0,0
153777,-86.9565217391304,7,1,0,80,0,0
153852,-87.3362445414847,7,1,0,80,0,0
153927,-87.719298245614,7,1,0,80,0,0
154077,-88.4955752212389,7,1,0,80,0,0
154227,-89.2857142857143,7,1,0,80,0,0
154302,-89.6860986547085,7,1,0,80,0,0
154377,-90.0900900900901,7,1,0,80,0,0
154527,-90.9090909090909,7,1,0,80,0,0
154602,-91.324200913242,7,1,0,80,0,0
154677,-91.743119266055,7,1,0,80,0,0
154827,-92.5925925925926,7,1,0,80,0,0
154977,-93.4579439252336,7,1,0,80,0,0
155052,-93.8967136150235,7,1,0,80,0,0
155127,-94.3396226415094,7,1,0,80,0,0
155277,-95.2380952380952,7,1,0,80,0,0
155427,-96.1538461538461,7,1,0,80,0,0
155577,-97.0873786407767,7,1,0,80,0,0
155727,-98.0392156862745,7,1,0,80,0,0
155877,-99.009900990099,7,1,0,80,0,0
156027,-86.9565217391304,7,1,0,80,0,0
156177,-97.0873786407767,7,1,0,80,0,0
156252,-95.6937799043062,7,1,0,80,0,0
156327,-94.3396226415094,7,1,0,80,0,0
156477,-91.743119266055,7,1,0,80,0,0
156627,-89.2857142857143,7,1,0,80,0,0
156702,-88.1057268722467,7,1,0,80,0,0
156777,-86.9565217391304,7,1,0,80,0,0
156927,-84.7457627118644,7,1,0,80,0,0
157002,-83.6820083682008,7,1,0,80,0,0
157077,-82.6446280991736,7,1,0,80,0,0
157227,-80.6451612903226,7,1,0,80,0,0
157377,-78.125,7,1,0,80,0,0
157452,-76.9230769230769,7,1,0,80,0,0
157527,-75.7575757575758,7,1,0,80,0,0
157602,-74.6268656716418,7,1,0,80,0,0
157677,-73.5294117647059,7,1,0,80,0,0
158127,-133.333333333333,7,1,0,80,0,0
158427,-80.6451612903226,7,1,0,100,0,1
158502,-83.3333333333333,7,1,0,100,0,1
158577,-86.2068965517241,7,1,0,100,0,1
158652,-89.2857142857143,7,1,0,100,0,1
158727,-92.5925925925926,7,1,0,100,0,1
158858,-80.6451612903226,7,1,0,100,0,1
158933,-83.3333333333333,7,1,0,100,0,1
159008,-86.2068965517241,7,1,0,100,0,1
159083,-89.2857142857143,7,1,0,100,0,1
159158,-92.5925925925926,7,1,0,100,0,1
159308,-80.6451612903226,7,1,0,100,0,1
159383,-83.3333333333333,7,1,0,100,0,1
159458,-86.2068965517241,7,1,0,100,0,1
159533,-89.2857142857143,7,1,0,100,0,1
159608,-92.5925925925926,7,1,0,100,0,1
159758,-80.6451612903226,7,1,0,100,0,1
159833,-83.3333333333333,7,1,0,100,0,1
159908,-86.2068965517241,7,1,0,100,0,1
159983,-89.2857142857143,7,1,0,100,0,1
160058,-92.5925925925926,7,1,0,100,0,1
160227,-100,7,1,0,100,0,1
160302,-97.0873786407767,7,1,0,100,0,1
160377,-94.3396226415094,7,1,0,100,0,1
160452,-91.743119266055,7,1,0,100,0,1
160527,-89.2857142857143,7,1,0,100,0,1
160602,-86.9565217391304,7,1,0,100,0,1
160677,-84.7457627118644,7,1,0,100,0,1
160752,-82.6446280991736,7,1,0,100,0,1
160808,-80.6451612903226,7,1,0,100,0,1
160883,-83.3333333333333,7,1,0,100,0,1
160958,-86.2068965517241,7,1,0,100,0,1
161033,-89.2857142857143,7,1,0,100,0,1
161108,-92.5925925925926,7,1,0,100,0,1
161258,-80.6451612903226,7,1,0,100,0,1
161333,-83.3333333333333,7,1,0,100,0,1
161408,-86.2068965517241,7,1,0,100,0,1
161483,-89.2857142857143,7,1,0,100,0,1
161558,-92.5925925925926,7,1,0,100,0,1
161708,-80.6451612903226,7,1,0,100,0,1
161783,-83.3333333333333,7,1,0,100,0,1
161858,-86.2068965517241,7,1,0,100,0,1
161933,-89.2857142857143,7,1,0,100,0,1
162008,-92.5925925925926,7,1,0,100,0,1
162158,-80.6451612903226,7,1,0,100,0,1
162233,-83.3333333333333,7,1,0,100,0,1
162308,-86.2068965517241,7,1,0,100,0,1
162383,-89.2857142857143,7,1,0,100,0,1
162458,-92.5925925925926,7,1,0,100,0,1
162608,-100,7,1,0,100,0,1
162683,-97.0873786407767,7,1,0,100,0,1
162758,-94.3396226415094,7,1,0,100,0,1
162833,-91.743119266055,7,1,0,100,0,1
162908,-89.2857142857143,7,1,0,100,0,1
162983,-86.9565217391304,7,1,0,100,0,1
163058,-84.7457627118644,7,1,0,100,0,1
163133,-82.6446280991736,7,1,0,100,0,1
163208,-80.6451612903226,7,1,0,100,0,1
163377,-81.9672131147541,7,1,0,100,0,1
163452,-82.6446280991736,7,1,0,100,0,1
163527,-83.3333333333333,7,1,0,100,0,1
163677,-84.7457627118644,7,1,0,100,0,1
163752,-85.4700854700855,7,1,0,100,0,1
163827,-86.2068965517241,7,1,0,100,0,1
163902,-86.9565217391304,7,1,0,100,0,1
163977,-87.719298245614,7,1,0,100,0,1
164052,-88.4955752212389,7,1,0,100,0,1
164127,-89.2857142857143,7,1,0,100,0,1
164277,-90.9090909090909,7,1,0,100,0,1
164352,-91.743119266055,7,1,0,100,0,1
164427,-92.5925925925926,7,1,0,100,0,1
164502,-93.4579439252336,7,1,0,100,0,1
164577,-94.3396226415094,7,1,0,100,0,1
164652,-95.2380952380952,7,1,0,100,0,1
164727,-96.1538461538461,7,1,0,100,0,1
164877,-97.0873786407767,7,1,0,100,0,1
164952,-97.5609756097561,7,1,0,100,0,1
165027,-98.0392156862745,7,1,0,100,0,1
165102,-98.5221674876847,7,1,0,100,0,1
165177,-99.009900990099,7,1,0,100,0,1
165252,-99.502487562189,7,1,0,100,0,1
165327,-100,7,1,0,100,0,1
165402,-100.502512562814,7,1,0,100,0,1
165477,-101.010101010101,7,1,0,100,0,1
165627,-102.040816326531,7,1,0,100,0,1
165702,-101.010101010101,7,1,0,100,0,1
165777,-100,7,1,0,100,0,1
165852,-99.009900990099,7,1,0,100,0,1
165927,-98.0392156862745,7,1,0,100,0,1
166077,-96.1538461538461,7,1,0,100,0,1
166152,-95.2380952380952,7,1,0,100,0,1
166227,-94.3396226415094,7,1,0,100,0,1
166302,-93.4579439252336,7,1,0,100,0,1
166377,-92.5925925925926,7,1,0,100,0,1
166527,-90.9090909090909,7,1,0,100,0,1
166602,-90.0900900900901,7,1,0,100,0,1
166677,-89.2857142857143,7,1,0,100,0,1
166752,-88.4955752212389,7,1,0,100,0,1
166827,-87.719298245614,7,1,0,100,0,1
166902,-86.9565217391304,7,1,0,100,0,1
166977,-86.2068965517241,7,1,0,100,0,1
167052,-85.4700854700855,7,1,0,100,0,1
167127,-84.7457627118644,7,1,0,100,0,1
167202,-84.0336134453781,7,1,0,100,0,1
167277,-83.3333333333333,7,1,0,100,0,1
167352,-82.6446280991736,7,1,0,100,0,1
167427,-81.9672131147541,7,1,0,100,0,1
167502,-81.3008130081301,7,1,0,100,0,1
167577,-80.6451612903226,7,1,0,100,0,1
167652,-80,7,1,0,100,0,1
167727,-79.3650793650794,7,1,0,100,0,1
167802,-78.7401574803149,7,1,0,100,0,1
167877,-78.125,7,1,0,100,0,1
167952,-77.5193798449612,7,1,0,100,0,1
168027,-76.9230769230769,7,1,0,100,0,0
177327,-57.1428571428571,7,1,0,100,0,0
177627,-100,7,1,0,60,0,0
177927,-101.010101010101,7,1,0,60,0,0
178227,-102.040816326531,7,1,0,60,0,0
178527,-103.092783505155,7,1,0,60,0,0
178827,-104.166666666667,7,1,0,60,0,0
179127,-105.263157894737,7,1,0,60,0,0
179427,-106.382978723404,7,1,0,60,0,0
179727,-107.52688172043,7,1,0,60,0,0
180027,-108.695652173913,7,1,0,60,0,0
180327,-109.89010989011,7,1,0,60,0,0
180627,-111.111111111111,7,1,0,60,0,0
180927,-112.359550561798,7,1,0,60,0,0
181227,-113.636363636364,7,1,0,60,0,0
181527,-114.942528735632,7,1,0,60,0,0
181827,-116.279069767442,7,1,0,60,0,0
182127,-117.647058823529,7,1,0,60,0,0
182427,-90.9090909090909,7,1,0,100,0,0
182727,-84.7457627118644,7,1,0,100,0,0
183027,-79.3650793650794,7,1,0,100,0,0
183327,-74.6268656716418,7,1,0,100,0,0
183402,-52.6315789473684,7,1,0,100,0,0
183627,-74.6268656716418,7,1,0,100,0,0
186027,-123.456790123457,7,1,0,60,0,0
186627,-90.9090909090909,7,1,0,80,0,0
186927,-87.719298245614,7,1,0,80,0,0
187227,-84.7457627118644,7,1,0,80,0,0
187302,-84.0336134453781,7,1,0,80,0,0
187377,-83.3333333333333,7,1,0,80,0,0
187452,-82.6446280991736,7,1,0,80,0,0
187527,-81.9672131147541,7,1,0,80,0,0
187677,-80.6451612903226,7,1,0,80,0,0
187977,-78.125,7,1,0,80,0,0
188127,-76.9230769230769,7,1,0,80,0,0
188202,-76.3358778625954,7,1,0,80,0,0
188277,-75.7575757575758,7,1,0,80,0,0
188352,-75.187969924812,7,1,0,80,0,0
188427,-74.6268656716418,7,1,0,80,0,0
189027,-100,7,1,0,80,0,0
189177,-96.1538461538461,7,1,0,80,0,0
189327,-92.5925925925926,7,1,0,80,0,0
189477,-89.2857142857143,7,1,0,80,0,0
189627,-86.2068965517241,7,1,0,80,0,0
189702,-84.7457627118644,7,1,0,80,0,0
189777,-83.3333333333333,7,1,0,80,0,0
189852,-81.9672131147541,7,1,0,80,0,0
189927,-80.6451612903226,7,1,0,80,0,0
190077,-78.125,7,1,0,80,0,0
190227,-75.7575757575758,7,1,0,80,0,0
190527,-78.7401574803149,7,1,0,80,0,0
190827,-81.9672131147541,7,1,0,80,0,0
191127,-111.111111111111,7,1,0,80,0,0
191277,-108.695652173913,7,1,0,80,0,0
191427,-106.382978723404,7,1,0,80,0,0
191577,-104.166666666667,7,1,0,80,0,0
191727,-102.040816326531,7,1,0,80,0,0
191877,-100,7,1,0,80,0,0
192027,-98.0392156862745,7,1,0,80,0,0
192177,-95.2380952380952,7,1,0,80,0,0
192327,-92.5925925925926,7,1,0,80,0,0
192477,-90.0900900900901,7,1,0,80,0,0
192627,-87.719298245614,7,1,0,80,0,0
192777,-84.7457627118644,7,1,0,80,0,0
192927,-81.9672131147541,7,1,0,80,0,0
193077,-79.3650793650794,7,1,0,80,0,0
193227,-76.9230769230769,7,1,0,80,0,0
194427,-90.9090909090909,7,1,0,80,0,0
194727,-84.7457627118644,7,1,0,80,0,0
195027,-79.3650793650794,7,1,0,80,0,0
195327,-74.6268656716418,7,1,0,80,0,0
195627,-70.4225352112676,7,1,0,80,0,0
195777,-72.992700729927,7,1,0,80,0,0
195927,-75.7575757575758,7,1,0,80,0,0
196077,-78.7401574803149,7,1,0,80,0,0
196227,-81.9672131147541,7,1,0,80,0,0
196377,-85.4700854700855,7,1,0,80,0,0
196527,-89.2857142857143,7,1,0,80,0,0
196677,-93.4579439252336,7,1,0,80,0,0
196827,-98.0392156862745,7,1,0,80,0,0
196977,-89.2857142857143,7,1,0,80,0,0
197127,-81.9672131147541,7,1,0,80,0,0
197277,-75.7575757575758,7,1,0,80,0,0
197427,-70.4225352112676,7,1,0,80,0,0
197577,-100,7,1,0,50,0,0
199227,-86.9565217391304,7,1,0,100,0,1
206421,-86.9565217391304,4,1,0,100,0,1
206571,-87.3362445414847,4,1,0,100,0,1
206652,-87.3362445414847,4,1,0,100,0,1
206721,-87.719298245614,4,1,0,100,0,1
206871,-88.4955752212389,4,1,0,100,0,1
206946,-88.8888888888889,4,1,0,100,0,1
207021,-89.2857142857143,4,1,0,100,0,1
207171,-90.0900900900901,4,1,0,100,0,1
207252,-90.9090909090909,4,1,0,100,0,1
207321,-91.743119266055,4,1,0,100,0,1
207471,-93.4579439252336,4,1,0,100,0,1
207621,-95.2380952380952,4,1,0,100,0,1
207702,-96.1538461538461,4,1,0,100,0,1
207771,-97.0873786407767,4,1,0,100,0,1
207846,-98.5221674876847,4,1,0,100,0,1
207921,-100,4,1,0,100,0,1
208071,-103.092783505155,4,1,0,100,0,1
208227,-76.9230769230769,4,1,0,100,0,0
208527,-71.4285714285714,4,1,0,100,0,0
208827,-66.6666666666667,4,1,0,100,0,1
209127,-86.9565217391304,4,1,0,100,0,1
213627,-76.3358778625954,4,1,0,100,0,1
213777,-77.5193798449612,4,1,0,100,0,1
213852,-78.125,4,1,0,100,0,1
213927,-78.7401574803149,4,1,0,100,0,1
214077,-80,4,1,0,100,0,1
214152,-80.6451612903226,4,1,0,100,0,1
214227,-81.3008130081301,4,1,0,100,0,1
214377,-82.6446280991736,4,1,0,100,0,1
214452,-83.3333333333333,4,1,0,100,0,1
214527,-84.0336134453781,4,1,0,100,0,1
214677,-85.4700854700855,4,1,0,100,0,1
214752,-86.2068965517241,4,1,0,100,0,1
214827,-86.9565217391304,4,1,0,100,0,1
214977,-88.4955752212389,4,1,0,100,0,1
215127,-90.0900900900901,4,1,0,100,0,1
215202,-90.9090909090909,4,1,0,100,0,1
215277,-91.743119266055,4,1,0,100,0,1
215352,-92.5925925925926,4,1,0,100,0,1
215427,-93.4579439252336,4,1,0,100,0,1
215577,-95.2380952380952,4,1,0,100,0,1
215727,-97.0873786407767,4,1,0,100,0,1
215877,-99.009900990099,4,1,0,100,0,1
216027,-76.9230769230769,4,1,0,100,0,1
216327,-72.992700729927,4,1,0,100,0,1
216627,-69.4444444444444,4,1,0,100,0,1
216927,-66.2251655629139,4,1,0,100,0,1
217227,-63.2911392405063,7,1,0,100,0,0
217527,-100,7,1,0,80,0,0
218127,-108.695652173913,7,1,0,80,0,0
218277,-104.166666666667,7,1,0,80,0,0
218427,-90.9090909090909,7,1,0,100,0,1
218727,-100,7,1,0,100,0,1
237627,-100,7,1,0,100,0,0
237664,-133.333333333333,7,1,0,40,0,0
245577,-108.695652173913,7,1,0,80,0,0
245627,-106.382978723404,7,1,0,80,0,0
245677,-104.166666666667,7,1,0,80,0,0
245727,-100,7,1,0,80,0,0

[HitObjects]
249,167,1078,5,0,0:0:0:0:
249,167,1227,1,8,0:0:0:0:
253,172,2127,1,8,0:0:0:0:
253,172,2427,1,8,0:0:0:0:
253,172,3327,1,8,0:0:0:0:
253,172,3627,1,0,0:0:0:0:
253,172,4527,1,0,0:0:0:0:
253,172,4827,1,8,0:0:0:0:
253,172,5727,1,0,0:0:0:0:
255,186,5802,1,0,0:0:0:0:
255,186,5877,1,0,0:0:0:0:
256,184,5952,1,0,0:0:0:0:
253,172,6027,1,8,0:0:0:0:
236,177,6927,1,8,0:0:0:0:
236,177,7227,1,8,0:0:0:0:
254,173,8127,1,8,0:0:0:0:
254,173,8427,1,0,0:0:0:0:
254,173,9327,1,0,0:0:0:0:
254,173,9627,1,12,0:0:0:0:
254,173,9927,1,12,0:0:0:0:
254,173,10227,1,12,0:0:0:0:
262,163,10527,1,0,0:0:0:0:
262,163,10677,1,8,0:0:0:0:
262,164,10827,1,4,0:0:0:0:
244,171,11127,1,8,0:0:0:0:
244,170,11277,1,8,0:0:0:0:
244,170,11352,1,8,0:0:0:0:
244,170,11427,1,0,0:0:0:0:
243,171,11577,1,0,0:0:0:0:
243,171,11727,1,8,0:0:0:0:
244,171,11877,1,0,0:0:0:0:
244,171,12027,1,8,0:0:0:0:
244,171,12102,1,0,0:0:0:0:
244,170,12177,1,8,0:0:0:0:
244,170,12252,1,8,0:0:0:0:
244,170,12327,1,0,0:0:0:0:
243,171,12477,1,0,0:0:0:0:
243,171,12552,1,0,0:0:0:0:
243,171,12627,1,8,0:0:0:0:
244,171,12777,1,0,0:0:0:0:
244,171,12927,1,8,0:0:0:0:
219,158,13002,1,0,0:0:0:0:
244,171,13077,1,8,0:0:0:0:
244,170,13227,1,0,0:0:0:0:
254,193,13527,1,8,0:0:0:0:
254,193,13677,1,8,0:0:0:0:
254,193,13752,1,8,0:0:0:0:
254,193,13827,1,0,0:0:0:0:
259,196,13902,1,8,0:0:0:0:
254,193,13977,1,0,0:0:0:0:
254,192,14127,1,8,0:0:0:0:
254,193,14277,1,8,0:0:0:0:
254,193,14427,1,0,0:0:0:0:
254,193,14502,1,0,0:0:0:0:
254,193,14577,1,8,0:0:0:0:
254,193,14652,1,8,0:0:0:0:
254,193,14727,1,0,0:0:0:0:
254,193,14877,1,8,0:0:0:0:
254,192,15027,1,0,0:0:0:0:
254,193,15177,1,0,0:0:0:0:
254,193,15252,1,0,0:0:0:0:
254,193,15327,1,8,0:0:0:0:
254,193,15477,1,8,0:0:0:0:
254,193,15627,1,0,0:0:0:0:
253,176,15927,1,8,0:0:0:0:
245,181,16077,1,8,0:0:0:0:
242,177,16152,1,8,0:0:0:0:
242,177,16227,1,0,0:0:0:0:
241,177,16377,1,0,0:0:0:0:
241,177,16527,1,8,0:0:0:0:
241,177,16677,1,0,0:0:0:0:
241,177,16827,1,8,0:0:0:0:
241,177,16902,1,0,0:0:0:0:
245,181,16977,1,8,0:0:0:0:
245,181,17052,1,8,0:0:0:0:
242,177,17127,1,0,0:0:0:0:
241,177,17277,1,0,0:0:0:0:
241,177,17352,1,0,0:0:0:0:
241,177,17427,1,8,0:0:0:0:
236,190,17577,1,8,0:0:0:0:
236,190,17727,1,0,0:0:0:0:
222,166,17802,1,8,0:0:0:0:
236,190,17877,1,0,0:0:0:0:
236,190,18027,1,8,0:0:0:0:
250,188,18327,1,8,0:0:0:0:
250,188,18477,1,0,0:0:0:0:
250,188,18552,1,0,0:0:0:0:
250,188,18627,1,8,0:0:0:0:
250,188,18777,1,0,0:0:0:0:
242,173,18927,1,8,0:0:0:0:
242,173,19002,1,8,0:0:0:0:
242,173,19077,1,0,0:0:0:0:
236,187,19227,1,8,0:0:0:0:
236,187,19377,1,0,0:0:0:0:
236,187,19452,1,8,0:0:0:0:
236,187,19527,1,0,0:0:0:0:
238,188,19677,1,8,0:0:0:0:
234,182,19752,1,8,0:0:0:0:
235,181,19827,1,0,0:0:0:0:
235,181,19902,1,0,0:0:0:0:
235,179,19977,1,8,0:0:0:0:
235,179,20052,1,0,0:0:0:0:
235,179,20127,1,8,0:0:0:0:
235,179,20202,1,8,0:0:0:0:
235,179,20277,1,8,0:0:0:0:
235,179,20352,1,8,0:0:0:0:
234,179,20427,1,0,0:0:0:0:
244,171,20727,1,8,0:0:0:0:
244,170,20877,1,8,0:0:0:0:
244,170,20952,1,8,0:0:0:0:
244,170,21027,1,0,0:0:0:0:
243,171,21177,1,0,0:0:0:0:
243,171,21327,1,8,0:0:0:0:
244,171,21477,1,0,0:0:0:0:
244,171,21627,1,8,0:0:0:0:
244,171,21702,1,0,0:0:0:0:
244,170,21777,1,8,0:0:0:0:
244,170,21852,1,8,0:0:0:0:
244,170,21927,1,0,0:0:0:0:
243,171,22077,1,0,0:0:0:0:
243,171,22152,1,0,0:0:0:0:
243,171,22227,1,8,0:0:0:0:
244,171,22377,1,0,0:0:0:0:
244,171,22527,1,8,0:0:0:0:
217,154,22602,1,0,0:0:0:0:
244,171,22677,1,8,0:0:0:0:
244,170,22827,1,0,0:0:0:0:
254,193,23127,1,8,0:0:0:0:
254,193,23277,1,8,0:0:0:0:
254,193,23352,1,8,0:0:0:0:
254,193,23427,1,0,0:0:0:0:
259,196,23502,1,8,0:0:0:0:
254,193,23577,1,0,0:0:0:0:
254,192,23727,1,8,0:0:0:0:
254,193,23877,1,8,0:0:0:0:
254,193,24027,1,0,0:0:0:0:
254,193,24102,1,0,0:0:0:0:
254,193,24177,1,8,0:0:0:0:
254,193,24252,1,8,0:0:0:0:
254,193,24327,1,0,0:0:0:0:
254,193,24477,1,8,0:0:0:0:
254,192,24627,1,0,0:0:0:0:
254,193,24777,1,0,0:0:0:0:
254,193,24852,1,0,0:0:0:0:
254,193,24927,1,8,0:0:0:0:
254,193,25077,1,8,0:0:0:0:
254,193,25227,1,0,0:0:0:0:
253,176,25527,1,8,0:0:0:0:
245,181,25677,1,8,0:0:0:0:
242,177,25752,1,8,0:0:0:0:
242,177,25827,1,0,0:0:0:0:
241,177,25977,1,0,0:0:0:0:
241,177,26127,1,8,0:0:0:0:
241,177,26277,1,0,0:0:0:0:
241,177,26427,1,8,0:0:0:0:
241,177,26502,1,0,0:0:0:0:
245,181,26577,1,8,0:0:0:0:
245,181,26652,1,8,0:0:0:0:
242,177,26727,1,0,0:0:0:0:
241,177,26877,1,0,0:0:0:0:
241,177,26952,1,0,0:0:0:0:
241,177,27027,1,8,0:0:0:0:
236,190,27177,1,8,0:0:0:0:
236,190,27327,1,0,0:0:0:0:
217,154,27402,1,8,0:0:0:0:
236,190,27477,1,0,0:0:0:0:
236,190,27627,1,8,0:0:0:0:
246,182,27927,1,8,0:0:0:0:
246,183,28077,1,0,0:0:0:0:
246,182,28152,1,0,0:0:0:0:
246,181,28227,1,8,0:0:0:0:
246,182,28377,1,0,0:0:0:0:
246,182,28527,1,8,0:0:0:0:
246,182,28677,1,8,0:0:0:0:
246,182,28752,1,8,0:0:0:0:
240,183,28827,1,0,0:0:0:0:
237,187,28977,1,8,0:0:0:0:
237,187,29127,1,8,0:0:0:0:
239,188,29277,1,0,0:0:0:0:
239,188,29427,1,8,0:0:0:0:
239,188,29502,1,8,0:0:0:0:
239,187,29577,1,0,0:0:0:0:
239,188,29652,1,0,0:0:0:0:
238,191,29727,1,8,0:0:0:0:
237,187,30027,1,4,0:0:0:0:
235,165,30327,1,8,0:0:0:0:
239,188,30477,1,8,0:0:0:0:
235,165,30627,1,8,0:0:0:0:
248,171,30777,1,0,0:0:0:0:
235,167,30927,1,8,0:0:0:0:
248,171,31227,1,0,0:0:0:0:
248,172,31527,1,8,0:0:0:0:
240,191,31677,1,0,0:0:0:0:
248,171,31827,1,0,0:0:0:0:
248,172,31977,1,0,0:0:0:0:
248,171,32127,1,8,0:0:0:0:
248,172,32427,1,0,0:0:0:0:
248,171,32727,1,8,0:0:0:0:
248,171,33027,1,8,0:0:0:0:
248,171,33177,1,8,0:0:0:0:
248,172,33327,1,0,0:0:0:0:
248,172,33477,1,0,0:0:0:0:
248,171,33627,1,8,0:0:0:0:
248,171,33927,1,8,0:0:0:0:
248,171,34077,1,8,0:0:0:0:
248,171,34227,1,0,0:0:0:0:
248,172,34527,1,8,0:0:0:0:
248,171,34827,1,0,0:0:0:0:
248,171,35127,1,8,0:0:0:0:
240,191,35277,1,8,0:0:0:0:
248,172,35427,1,8,0:0:0:0:
240,168,35577,1,0,0:0:0:0:
240,168,35727,1,8,0:0:0:0:
241,175,36027,1,0,0:0:0:0:
241,175,36327,1,8,0:0:0:0:
240,191,36477,1,0,0:0:0:0:
241,176,36627,1,0,0:0:0:0:
241,176,36777,1,0,0:0:0:0:
241,175,36927,1,8,0:0:0:0:
251,177,37227,1,0,0:0:0:0:
251,177,37527,1,8,0:0:0:0:
251,177,37677,1,0,0:0:0:0:
251,177,37827,1,8,0:0:0:0:
251,177,37977,1,8,0:0:0:0:
251,177,38127,1,0,0:0:0:0:
251,177,38277,1,0,0:0:0:0:
251,177,38427,1,8,0:0:0:0:
244,175,38877,1,8,0:0:0:0:
244,175,39027,1,0,0:0:0:0:
244,175,39177,1,8,0:0:0:0:
244,175,39252,1,8,0:0:0:0:
244,175,39327,1,0,0:0:0:0:
244,175,39477,1,0,0:0:0:0:
241,183,39527,1,0,0:0:0:0:
241,184,39577,1,0,0:0:0:0:
244,175,39627,1,12,0:0:0:0:
241,191,39927,1,8,0:0:0:0:
239,202,40077,1,0,0:0:0:0:
238,202,40152,1,8,0:0:0:0:
238,202,40227,1,0,0:0:0:0:
238,202,40377,1,0,0:0:0:0:
238,201,40527,1,8,0:0:0:0:
238,201,40677,1,8,0:0:0:0:
238,201,40752,1,8,0:0:0:0:
238,201,40827,1,0,0:0:0:0:
241,185,41127,1,8,0:0:0:0:
241,185,41277,1,0,0:0:0:0:
240,184,41427,1,8,0:0:0:0:
240,184,41502,1,0,0:0:0:0:
240,184,41577,1,0,0:0:0:0:
240,183,41727,1,8,0:0:0:0:
243,195,41877,1,0,0:0:0:0:
243,195,41952,1,0,0:0:0:0:
241,185,42027,1,8,0:0:0:0:
241,185,42327,1,8,0:0:0:0:
240,184,42477,1,0,0:0:0:0:
240,184,42552,1,8,0:0:0:0:
240,183,42627,1,8,0:0:0:0:
240,183,42702,1,8,0:0:0:0:
241,181,42777,1,0,0:0:0:0:
237,182,42927,1,8,0:0:0:0:
241,185,43077,1,0,0:0:0:0:
241,185,43227,1,8,0:0:0:0:
243,174,43527,1,0,0:0:0:0:
243,175,43677,1,0,0:0:0:0:
255,173,43827,1,12,0:0:0:0:
255,173,44127,1,12,0:0:0:0:
255,173,44427,1,0,0:0:0:0:
243,186,44727,1,8,0:0:0:0:
241,190,44877,1,0,0:0:0:0:
241,189,44952,1,8,0:0:0:0:
241,189,45027,1,0,0:0:0:0:
241,189,45177,1,8,0:0:0:0:
241,189,45327,1,8,0:0:0:0:
243,186,45477,1,0,0:0:0:0:
240,196,45552,1,0,0:0:0:0:
243,186,45627,1,8,0:0:0:0:
240,196,45927,1,8,0:0:0:0:
240,196,46077,1,0,0:0:0:0:
240,196,46152,1,0,0:0:0:0:
240,196,46227,1,8,0:0:0:0:
240,196,46377,1,8,0:0:0:0:
240,196,46527,1,0,0:0:0:0:
240,197,46677,1,8,0:0:0:0:
240,196,46827,1,0,0:0:0:0:
243,186,47127,1,8,0:0:0:0:
240,196,47277,1,0,0:0:0:0:
240,196,47352,1,8,0:0:0:0:
240,196,47427,1,0,0:0:0:0:
240,196,47502,1,0,0:0:0:0:
240,197,47577,1,8,0:0:0:0:
243,190,47727,1,0,0:0:0:0:
243,190,47877,1,0,0:0:0:0:
243,186,48027,1,8,0:0:0:0:
240,196,48177,1,8,0:0:0:0:
240,196,48252,1,8,0:0:0:0:
240,196,48327,1,0,0:0:0:0:
232,201,48477,1,0,0:0:0:0:
243,190,48627,1,12,0:0:0:0:
241,202,48777,1,8,0:0:0:0:
241,202,48927,1,0,0:0:0:0:
241,202,49077,1,0,0:0:0:0:
241,202,49227,1,8,0:0:0:0:
256,192,49527,1,8,0:0:0:0:
255,187,49677,1,8,0:0:0:0:
256,192,49827,1,0,0:0:0:0:
256,192,50127,1,8,0:0:0:0:
256,192,50277,1,0,0:0:0:0:
256,192,50577,1,0,0:0:0:0:
256,192,50877,1,0,0:0:0:0:
256,192,51027,1,8,0:0:0:0:
256,192,51177,1,0,0:0:0:0:
256,192,51327,1,8,0:0:0:0:
250,187,51627,1,8,0:0:0:0:
250,187,51777,1,8,0:0:0:0:
250,187,51927,1,0,0:0:0:0:
250,187,52077,1,0,0:0:0:0:
250,187,52227,1,8,0:0:0:0:
256,193,52527,1,0,0:0:0:0:
256,193,52677,1,0,0:0:0:0:
256,193,52827,1,8,0:0:0:0:
256,193,53127,1,8,0:0:0:0:
256,193,53427,1,0,0:0:0:0:
254,187,53577,1,0,0:0:0:0:
255,187,53652,1,0,0:0:0:0:
256,193,53727,1,8,0:0:0:0:
248,291,54027,1,0,0:0:0:0:
256,193,54327,1,8,0:0:0:0:
256,193,54477,1,8,0:0:0:0:
255,187,54627,1,0,0:0:0:0:
255,187,54927,1,8,0:0:0:0:
255,187,55077,1,0,0:0:0:0:
255,187,55377,1,0,0:0:0:0:
255,187,55677,1,0,0:0:0:0:
255,187,55827,1,8,0:0:0:0:
255,187,55977,1,8,0:0:0:0:
255,187,56127,1,0,0:0:0:0:
245,189,56277,1,0,0:0:0:0:
255,187,56352,1,0,0:0:0:0:
246,189,56427,1,12,0:0:0:0:
246,189,56727,1,0,0:0:0:0:
245,189,56877,1,0,0:0:0:0:
245,189,57027,1,8,0:0:0:0:
245,189,57177,1,8,0:0:0:0:
245,189,57327,1,0,0:0:0:0:
246,189,57477,1,0,0:0:0:0:
246,189,57627,1,12,0:0:0:0:
245,189,57777,1,0,0:0:0:0:
245,189,57927,1,12,0:0:0:0:
245,189,58077,1,0,0:0:0:0:
245,189,58227,1,12,0:0:0:0:
261,198,58827,1,12,0:0:0:0:
256,186,59127,1,8,0:0:0:0:
255,186,59277,1,0,0:0:0:0:
255,186,59352,1,0,0:0:0:0:
255,186,59427,1,8,0:0:0:0:
246,193,59577,1,0,0:0:0:0:
247,190,59727,1,8,0:0:0:0:
247,191,59802,1,0,0:0:0:0:
247,191,59877,1,8,0:0:0:0:
247,191,59952,1,8,0:0:0:0:
247,191,60027,1,0,0:0:0:0:
247,191,60177,1,0,0:0:0:0:
247,191,60252,1,0,0:0:0:0:
247,191,60327,1,8,0:0:0:0:
246,193,60477,1,0,0:0:0:0:
247,190,60627,1,8,0:0:0:0:
239,191,60777,1,8,0:0:0:0:
239,191,60852,1,8,0:0:0:0:
239,191,60927,1,0,0:0:0:0:
239,191,61077,1,0,0:0:0:0:
239,191,61227,1,8,0:0:0:0:
242,208,61377,1,0,0:0:0:0:
242,207,61452,1,8,0:0:0:0:
242,207,61527,1,0,0:0:0:0:
246,181,61677,1,0,0:0:0:0:
246,181,61827,1,8,0:0:0:0:
246,181,61902,1,8,0:0:0:0:
246,181,61977,1,0,0:0:0:0:
245,191,62052,1,0,0:0:0:0:
251,182,62127,1,8,0:0:0:0:
251,184,62277,1,8,0:0:0:0:
251,184,62352,1,0,0:0:0:0:
251,184,62427,1,8,0:0:0:0:
251,184,62577,1,0,0:0:0:0:
246,181,62727,1,8,0:0:0:0:
242,187,62802,1,8,0:0:0:0:
246,181,62877,1,8,0:0:0:0:
251,182,63027,1,0,0:0:0:0:
251,184,63177,1,8,0:0:0:0:
251,184,63327,1,0,0:0:0:0:
251,184,63402,1,0,0:0:0:0:
251,184,63477,1,0,0:0:0:0:
246,181,63627,1,8,0:0:0:0:
256,181,63927,1,8,0:0:0:0:
251,184,64077,1,0,0:0:0:0:
251,184,64152,1,0,0:0:0:0:
251,184,64227,1,8,0:0:0:0:
251,184,64377,1,0,0:0:0:0:
246,181,64527,1,8,0:0:0:0:
250,180,64677,1,8,0:0:0:0:
250,180,64752,1,8,0:0:0:0:
250,180,64827,1,0,0:0:0:0:
251,184,64977,1,8,0:0:0:0:
251,184,65127,1,8,0:0:0:0:
251,184,65277,1,0,0:0:0:0:
251,184,65352,1,8,0:0:0:0:
246,181,65427,1,0,0:0:0:0:
250,180,65577,1,0,0:0:0:0:
250,180,65727,1,8,0:0:0:0:
253,189,65877,1,8,0:0:0:0:
251,184,65952,1,8,0:0:0:0:
251,184,66027,1,0,0:0:0:0:
265,180,66177,1,0,0:0:0:0:
239,169,66327,1,8,0:0:0:0:
239,170,66477,1,0,0:0:0:0:
239,171,66552,1,0,0:0:0:0:
239,171,66627,1,8,0:0:0:0:
239,171,66777,1,8,0:0:0:0:
238,172,66852,1,8,0:0:0:0:
238,172,66927,1,0,0:0:0:0:
232,175,67077,1,0,0:0:0:0:
231,174,67227,1,8,0:0:0:0:
231,174,67377,1,0,0:0:0:0:
231,174,67452,1,8,0:0:0:0:
231,174,67527,1,0,0:0:0:0:
231,174,67677,1,0,0:0:0:0:
231,174,67827,1,12,0:0:0:0:
231,174,68127,1,4,0:0:0:0:
231,174,68427,1,12,0:0:0:0:
256,186,68727,1,8,0:0:0:0:
255,186,68877,1,0,0:0:0:0:
255,186,68952,1,0,0:0:0:0:
255,186,69027,1,8,0:0:0:0:
246,193,69177,1,0,0:0:0:0:
247,190,69327,1,8,0:0:0:0:
247,191,69402,1,0,0:0:0:0:
247,191,69477,1,8,0:0:0:0:
247,191,69552,1,8,0:0:0:0:
247,191,69627,1,0,0:0:0:0:
247,191,69777,1,8,0:0:0:0:
247,191,69852,1,8,0:0:0:0:
247,191,69927,1,0,0:0:0:0:
246,193,70077,1,8,0:0:0:0:
247,190,70227,1,0,0:0:0:0:
239,191,70377,1,0,0:0:0:0:
239,191,70452,1,0,0:0:0:0:
239,191,70527,1,8,0:0:0:0:
239,191,70677,1,8,0:0:0:0:
239,191,70827,1,0,0:0:0:0:
246,181,70977,1,8,0:0:0:0:
241,196,71052,1,0,0:0:0:0:
246,181,71127,1,8,0:0:0:0:
246,181,71277,1,0,0:0:0:0:
246,181,71427,1,8,0:0:0:0:
246,181,71502,1,0,0:0:0:0:
246,181,71577,1,8,0:0:0:0:
245,191,71652,1,8,0:0:0:0:
251,182,71727,1,0,0:0:0:0:
251,184,71877,1,0,0:0:0:0:
251,184,71952,1,0,0:0:0:0:
251,184,72027,1,8,0:0:0:0:
251,184,72177,1,0,0:0:0:0:
246,181,72327,1,8,0:0:0:0:
242,187,72402,1,8,0:0:0:0:
246,181,72477,1,8,0:0:0:0:
246,181,72552,1,8,0:0:0:0:
251,182,72627,1,0,0:0:0:0:
251,184,72777,1,8,0:0:0:0:
251,184,72927,1,0,0:0:0:0:
251,184,73002,1,0,0:0:0:0:
251,184,73077,1,0,0:0:0:0:
246,181,73227,1,12,0:0:0:0:
248,178,73377,1,0,0:0:0:0:
246,181,73527,1,8,0:0:0:0:
245,199,73677,1,0,0:0:0:0:
241,197,73752,1,0,0:0:0:0:
241,197,73827,1,8,0:0:0:0:
241,197,73977,1,8,0:0:0:0:
240,197,74052,1,0,0:0:0:0:
240,196,74127,1,8,0:0:0:0:
240,196,74277,1,0,0:0:0:0:
240,196,74352,1,0,0:0:0:0:
240,196,74427,1,8,0:0:0:0:
241,197,74727,1,4,0:0:0:0:
241,197,74877,1,4,0:0:0:0:
240,197,75027,1,12,0:0:0:0:
240,196,75327,1,12,0:0:0:0:
236,193,75627,1,0,0:0:0:0:
230,181,75927,1,8,0:0:0:0:
231,181,76077,1,8,0:0:0:0:
236,188,76152,1,0,0:0:0:0:
231,181,76227,1,8,0:0:0:0:
231,182,76377,1,0,0:0:0:0:
231,182,76527,1,8,0:0:0:0:
230,181,76677,1,8,0:0:0:0:
236,188,76752,1,8,0:0:0:0:
230,181,76827,1,0,0:0:0:0:
231,181,76977,1,0,0:0:0:0:
231,181,77127,1,8,0:0:0:0:
236,188,77202,1,8,0:0:0:0:
231,182,77277,1,0,0:0:0:0:
236,188,77352,1,0,0:0:0:0:
231,182,77427,1,8,0:0:0:0:
230,181,77577,1,0,0:0:0:0:
230,181,77727,1,8,0:0:0:0:
231,181,77877,1,8,0:0:0:0:
235,187,77952,1,8,0:0:0:0:
238,183,78027,1,0,0:0:0:0:
231,178,78177,1,8,0:0:0:0:
238,183,78327,1,8,0:0:0:0:
238,183,78477,1,0,0:0:0:0:
221,193,78552,1,0,0:0:0:0:
238,183,78627,1,8,0:0:0:0:
238,183,78777,1,8,0:0:0:0:
238,183,78927,1,0,0:0:0:0:
238,183,79077,1,8,0:0:0:0:
222,193,79152,1,0,0:0:0:0:
238,183,79227,1,8,0:0:0:0:
238,183,79377,1,0,0:0:0:0:
238,183,79527,1,8,0:0:0:0:
238,183,79677,1,8,0:0:0:0:
238,183,79827,1,0,0:0:0:0:
227,185,79902,1,0,0:0:0:0:
238,183,79977,1,8,0:0:0:0:
227,185,80052,1,0,0:0:0:0:
238,183,80127,1,8,0:0:0:0:
232,187,80277,1,8,0:0:0:0:
232,187,80427,1,0,0:0:0:0:
238,183,80727,1,8,0:0:0:0:
237,185,80877,1,0,0:0:0:0:
220,194,80952,1,0,0:0:0:0:
237,187,81027,1,8,0:0:0:0:
237,187,81177,1,8,0:0:0:0:
238,187,81327,1,0,0:0:0:0:
238,183,81477,1,8,0:0:0:0:
221,197,81552,1,8,0:0:0:0:
222,197,81627,1,0,0:0:0:0:
219,194,81777,1,0,0:0:0:0:
220,194,81927,1,8,0:0:0:0:
219,194,82002,1,8,0:0:0:0:
219,194,82077,1,8,0:0:0:0:
219,193,82152,1,8,0:0:0:0:
219,193,82227,1,0,0:0:0:0:
218,192,82377,1,0,0:0:0:0:
221,197,82527,1,8,0:0:0:0:
219,194,82677,1,8,0:0:0:0:
220,194,82827,1,0,0:0:0:0:
231,178,83127,1,0,0:0:0:0:
231,178,83277,1,0,0:0:0:0:
231,178,83352,1,0,0:0:0:0:
231,178,83427,1,8,0:0:0:0:
231,176,83577,1,0,0:0:0:0:
231,176,83727,1,8,0:0:0:0:
231,178,83877,1,0,0:0:0:0:
231,178,84027,1,8,0:0:0:0:
231,178,84102,1,8,0:0:0:0:
231,178,84177,1,0,0:0:0:0:
231,178,84327,1,8,0:0:0:0:
231,176,84477,1,8,0:0:0:0:
231,185,84552,1,0,0:0:0:0:
231,176,84627,1,8,0:0:0:0:
231,178,84927,1,0,0:0:0:0:
258,182,85227,1,12,0:0:0:0:
256,191,85527,1,0,0:0:0:0:
254,197,85677,1,0,0:0:0:0:
256,191,85827,1,0,0:0:0:0:
256,192,86127,1,8,0:0:0:0:
256,191,86427,1,8,0:0:0:0:
254,197,86727,1,0,0:0:0:0:
254,197,86877,1,8,0:0:0:0:
254,197,87027,1,0,0:0:0:0:
254,197,87327,1,8,0:0:0:0:
251,195,87477,1,0,0:0:0:0:
254,197,87627,1,8,0:0:0:0:
261,205,87927,1,0,0:0:0:0:
249,186,88077,1,0,0:0:0:0:
261,205,88227,1,8,0:0:0:0:
258,202,88527,1,8,0:0:0:0:
257,200,88827,1,0,0:0:0:0:
256,200,89127,1,0,0:0:0:0:
256,200,89277,1,8,0:0:0:0:
258,202,89427,1,0,0:0:0:0:
257,200,89727,1,0,0:0:0:0:
256,200,90027,1,8,0:0:0:0:
252,206,90327,1,0,0:0:0:0:
258,202,90477,1,8,0:0:0:0:
257,200,90627,1,0,0:0:0:0:
235,193,90777,1,0,0:0:0:0:
252,206,90927,1,8,0:0:0:0:
252,206,91227,1,0,0:0:0:0:
254,182,91527,1,0,0:0:0:0:
254,182,91677,1,8,0:0:0:0:
254,182,91827,1,0,0:0:0:0:
255,182,91977,1,8,0:0:0:0:
255,182,92127,1,8,0:0:0:0:
254,182,92427,1,0,0:0:0:0:
254,182,92727,1,8,0:0:0:0:
254,182,92877,1,8,0:0:0:0:
255,182,93027,1,0,0:0:0:0:
255,182,93177,1,0,0:0:0:0:
254,182,93327,1,8,0:0:0:0:
262,187,93627,1,0,0:0:0:0:
241,177,93927,1,8,0:0:0:0:
251,177,94227,1,12,0:0:0:0:
250,174,94377,1,12,0:0:0:0:
246,177,94527,1,12,0:0:0:0:
246,177,94677,1,12,0:0:0:0:
237,194,94977,1,0,0:0:0:0:
237,194,95052,1,0,0:0:0:0:
247,194,95127,1,8,0:0:0:0:
239,202,95277,1,0,0:0:0:0:
238,202,95352,1,8,0:0:0:0:
238,202,95427,1,0,0:0:0:0:
238,202,95577,1,0,0:0:0:0:
238,201,95727,1,8,0:0:0:0:
238,201,95877,1,8,0:0:0:0:
238,201,95952,1,8,0:0:0:0:
238,201,96027,1,0,0:0:0:0:
241,185,96327,1,8,0:0:0:0:
241,185,96477,1,0,0:0:0:0:
240,184,96627,1,8,0:0:0:0:
240,184,96702,1,0,0:0:0:0:
240,184,96777,1,0,0:0:0:0:
240,183,96927,1,0,0:0:0:0:
243,195,97077,1,8,0:0:0:0:
243,195,97152,1,8,0:0:0:0:
241,185,97227,1,0,0:0:0:0:
241,185,97527,1,8,0:0:0:0:
240,184,97677,1,0,0:0:0:0:
240,184,97752,1,8,0:0:0:0:
240,183,97827,1,8,0:0:0:0:
240,183,97902,1,8,0:0:0:0:
241,181,97977,1,0,0:0:0:0:
237,182,98127,1,8,0:0:0:0:
241,185,98277,1,0,0:0:0:0:
258,192,98352,1,0,0:0:0:0:
241,185,98427,1,8,0:0:0:0:
258,192,98577,1,8,0:0:0:0:
243,174,98727,1,0,0:0:0:0:
243,175,98877,1,0,0:0:0:0:
255,173,99027,1,12,0:0:0:0:
255,173,99327,1,12,0:0:0:0:
255,173,99627,1,0,0:0:0:0:
243,186,99927,1,8,0:0:0:0:
241,190,100077,1,0,0:0:0:0:
241,189,100152,1,8,0:0:0:0:
241,189,100227,1,0,0:0:0:0:
241,189,100377,1,8,0:0:0:0:
241,189,100527,1,8,0:0:0:0:
243,186,100677,1,0,0:0:0:0:
240,196,100752,1,0,0:0:0:0:
243,186,100827,1,8,0:0:0:0:
240,196,101127,1,8,0:0:0:0:
240,196,101277,1,0,0:0:0:0:
240,196,101352,1,0,0:0:0:0:
240,196,101427,1,8,0:0:0:0:
240,196,101577,1,8,0:0:0:0:
231,167,101652,1,8,0:0:0:0:
240,196,101727,1,0,0:0:0:0:
240,197,101877,1,8,0:0:0:0:
240,196,102027,1,0,0:0:0:0:
243,186,102327,1,8,0:0:0:0:
240,196,102477,1,0,0:0:0:0:
240,196,102552,1,8,0:0:0:0:
240,196,102627,1,0,0:0:0:0:
240,196,102702,1,0,0:0:0:0:
240,197,102777,1,8,0:0:0:0:
243,190,102927,1,0,0:0:0:0:
243,190,103077,1,0,0:0:0:0:
230,167,103227,1,8,0:0:0:0:
239,176,104427,1,0,0:0:0:0:
239,176,104877,1,0,0:0:0:0:
239,176,105027,1,8,0:0:0:0:
239,176,105477,1,8,0:0:0:0:
239,176,105627,1,0,0:0:0:0:
239,176,105927,1,0,0:0:0:0:
239,176,106227,1,8,0:0:0:0:
239,176,106527,1,8,0:0:0:0:
230,191,106827,1,0,0:0:0:0:
249,177,107427,1,8,0:0:0:0:
255,179,107727,1,0,0:0:0:0:
255,179,107877,1,8,0:0:0:0:
255,179,108027,1,0,0:0:0:0:
194,211,108327,1,0,0:0:0:0:
194,211,108627,1,8,0:0:0:0:
194,211,108927,1,0,0:0:0:0:
194,211,109227,1,8,0:0:0:0:
153,199,109527,1,0,0:0:0:0:
240,172,109827,1,8,0:0:0:0:
223,172,110127,1,8,0:0:0:0:
240,172,110427,1,0,0:0:0:0:
222,172,110727,1,8,0:0:0:0:
240,172,111027,1,0,0:0:0:0:
255,175,111127,1,8,0:0:0:0:
256,175,111227,1,8,0:0:0:0:
256,175,111327,1,0,0:0:0:0:
256,175,111427,1,8,0:0:0:0:
256,175,111527,1,8,0:0:0:0:
240,172,111627,1,0,0:0:0:0:
250,174,111927,1,0,0:0:0:0:
246,191,112027,1,0,0:0:0:0:
255,175,112127,1,0,0:0:0:0:
240,172,112227,1,8,0:0:0:0:
240,172,112527,1,0,0:0:0:0:
240,172,112827,1,8,0:0:0:0:
244,177,113127,1,8,0:0:0:0:
240,172,113327,1,8,0:0:0:0:
240,172,113427,1,0,0:0:0:0:
257,168,113502,1,0,0:0:0:0:
256,168,113577,1,0,0:0:0:0:
256,167,113652,1,0,0:0:0:0:
240,172,113727,1,8,0:0:0:0:
254,167,114027,1,0,0:0:0:0:
256,169,114627,1,8,0:0:0:0:
256,169,115227,1,8,0:0:0:0:
256,169,115527,1,0,0:0:0:0:
256,169,116127,1,8,0:0:0:0:
256,169,116427,1,8,0:0:0:0:
256,169,117027,1,0,0:0:0:0:
256,169,117477,1,0,0:0:0:0:
256,169,117627,1,8,0:0:0:0:
256,169,117702,1,8,0:0:0:0:
256,169,117777,1,0,0:0:0:0:
256,169,117852,1,0,0:0:0:0:
256,169,117927,1,8,0:0:0:0:
256,169,118077,1,8,0:0:0:0:
256,169,118227,1,0,0:0:0:0:
256,169,118827,1,0,0:0:0:0:
256,169,118902,1,0,0:0:0:0:
235,167,118977,1,8,0:0:0:0:
236,167,119052,1,8,0:0:0:0:
250,166,119127,1,0,0:0:0:0:
250,162,119202,1,0,0:0:0:0:
249,162,119277,1,8,0:0:0:0:
261,166,119427,1,8,0:0:0:0:
261,167,119502,1,0,0:0:0:0:
261,167,119577,1,8,0:0:0:0:
261,167,119652,1,8,0:0:0:0:
256,169,119727,1,0,0:0:0:0:
249,160,119877,1,8,0:0:0:0:
247,156,119952,1,0,0:0:0:0:
246,159,120027,1,8,0:0:0:0:
246,159,120102,1,0,0:0:0:0:
251,154,120177,1,8,0:0:0:0:
250,154,120252,1,8,0:0:0:0:
250,154,120327,1,0,0:0:0:0:
250,154,120402,1,8,0:0:0:0:
250,154,120477,1,0,0:0:0:0:
250,154,120552,1,0,0:0:0:0:
250,154,120627,1,8,0:0:0:0:
246,159,120927,1,0,0:0:0:0:
246,159,121002,1,8,0:0:0:0:
242,157,121077,1,0,0:0:0:0:
242,157,121152,1,0,0:0:0:0:
242,157,121227,1,8,0:0:0:0:
242,157,121302,1,8,0:0:0:0:
241,157,121377,1,0,0:0:0:0:
240,158,121527,1,8,0:0:0:0:
239,173,121602,1,8,0:0:0:0:
240,173,121677,1,0,0:0:0:0:
239,172,121752,1,8,0:0:0:0:
239,172,121827,1,0,0:0:0:0:
239,172,121977,1,8,0:0:0:0:
239,172,122052,1,8,0:0:0:0:
246,176,122127,1,0,0:0:0:0:
246,176,122202,1,8,0:0:0:0:
241,172,122277,1,0,0:0:0:0:
243,173,122352,1,0,0:0:0:0:
243,173,122427,1,8,0:0:0:0:
243,173,122502,1,8,0:0:0:0:
239,173,122577,1,0,0:0:0:0:
240,173,122652,1,0,0:0:0:0:
239,172,122727,1,8,0:0:0:0:
256,169,123027,1,0,0:0:0:0:
256,169,123102,1,8,0:0:0:0:
235,167,123177,1,8,0:0:0:0:
236,167,123252,1,8,0:0:0:0:
250,166,123327,1,0,0:0:0:0:
250,162,123402,1,0,0:0:0:0:
249,162,123477,1,8,0:0:0:0:
261,167,123552,1,0,0:0:0:0:
261,166,123627,1,8,0:0:0:0:
261,167,123702,1,8,0:0:0:0:
261,167,123777,1,0,0:0:0:0:
256,169,123852,1,0,0:0:0:0:
246,159,123927,1,8,0:0:0:0:
249,160,124077,1,8,0:0:0:0:
247,156,124152,1,0,0:0:0:0:
246,159,124227,1,8,0:0:0:0:
257,178,124302,1,0,0:0:0:0:
251,154,124377,1,8,0:0:0:0:
250,154,124452,1,8,0:0:0:0:
250,154,124527,1,0,0:0:0:0:
250,154,124602,1,8,0:0:0:0:
250,154,124677,1,0,0:0:0:0:
250,154,124752,1,0,0:0:0:0:
250,154,124827,1,8,0:0:0:0:
246,159,125127,1,0,0:0:0:0:
246,159,125202,1,8,0:0:0:0:
242,157,125277,1,0,0:0:0:0:
242,157,125352,1,0,0:0:0:0:
242,157,125427,1,8,0:0:0:0:
242,157,125502,1,8,0:0:0:0:
241,157,125577,1,0,0:0:0:0:
240,171,125652,1,8,0:0:0:0:
240,158,125727,1,0,0:0:0:0:
239,173,125802,1,0,0:0:0:0:
240,173,125877,1,8,0:0:0:0:
239,172,125952,1,8,0:0:0:0:
239,172,126027,1,0,0:0:0:0:
239,172,126177,1,8,0:0:0:0:
239,172,126252,1,8,0:0:0:0:
246,176,126327,1,0,0:0:0:0:
246,176,126402,1,8,0:0:0:0:
241,172,126477,1,0,0:0:0:0:
243,173,126552,1,0,0:0:0:0:
243,173,126627,1,8,0:0:0:0:
243,173,126702,1,8,0:0:0:0:
239,173,126777,1,0,0:0:0:0:
240,173,126852,1,0,0:0:0:0:
239,172,126927,1,8,0:0:0:0:
260,183,127227,1,4,0:0:0:0:
260,183,127527,1,4,0:0:0:0:
260,183,127827,1,4,0:0:0:0:
260,183,127977,1,8,0:0:0:0:
260,183,128052,1,8,0:0:0:0:
260,183,128127,1,0,0:0:0:0:
260,183,128277,1,12,0:0:0:0:
251,177,128427,1,0,0:0:0:0:
251,177,128577,1,0,0:0:0:0:
260,183,128727,1,12,0:0:0:0:
251,177,128877,1,0,0:0:0:0:
251,180,128952,1,0,0:0:0:0:
250,179,129027,1,12,0:0:0:0:
247,165,129627,1,8,0:0:0:0:
247,165,129777,1,4,0:0:0:0:
237,160,129927,1,0,0:0:0:0:
236,162,130002,1,0,0:0:0:0:
238,158,130077,1,8,0:0:0:0:
238,158,130152,1,8,0:0:0:0:
241,163,130227,1,0,0:0:0:0:
239,161,130302,1,0,0:0:0:0:
240,165,130377,1,0,0:0:0:0:
240,165,130452,1,8,0:0:0:0:
240,165,130527,1,8,0:0:0:0:
240,165,130602,1,8,0:0:0:0:
242,176,130677,1,0,0:0:0:0:
242,176,130752,1,0,0:0:0:0:
242,176,130827,1,8,0:0:0:0:
236,173,130977,1,0,0:0:0:0:
230,164,131127,1,8,0:0:0:0:
236,173,131277,1,0,0:0:0:0:
236,173,131427,1,12,0:0:0:0:
229,181,131727,1,0,0:0:0:0:
232,183,131777,1,8,0:0:0:0:
236,173,132027,1,12,0:0:0:0:
256,186,132327,1,8,0:0:0:0:
255,186,132477,1,0,0:0:0:0:
255,186,132552,1,0,0:0:0:0:
255,186,132627,1,8,0:0:0:0:
246,193,132777,1,0,0:0:0:0:
247,190,132927,1,8,0:0:0:0:
247,191,133002,1,0,0:0:0:0:
247,191,133077,1,8,0:0:0:0:
247,191,133152,1,8,0:0:0:0:
247,191,133227,1,0,0:0:0:0:
247,191,133377,1,0,0:0:0:0:
247,191,133452,1,0,0:0:0:0:
247,191,133527,1,8,0:0:0:0:
246,193,133677,1,0,0:0:0:0:
247,190,133827,1,8,0:0:0:0:
239,191,133977,1,8,0:0:0:0:
239,191,134052,1,8,0:0:0:0:
239,191,134127,1,0,0:0:0:0:
235,204,134202,1,8,0:0:0:0:
239,191,134277,1,0,0:0:0:0:
243,230,134352,1,0,0:0:0:0:
239,191,134427,1,8,0:0:0:0:
246,181,134577,1,8,0:0:0:0:
265,180,134652,1,8,0:0:0:0:
246,181,134727,1,0,0:0:0:0:
246,181,134877,1,0,0:0:0:0:
246,181,135027,1,8,0:0:0:0:
246,181,135102,1,8,0:0:0:0:
246,181,135177,1,0,0:0:0:0:
245,191,135252,1,0,0:0:0:0:
251,182,135327,1,8,0:0:0:0:
251,184,135477,1,8,0:0:0:0:
251,184,135552,1,0,0:0:0:0:
251,184,135627,1,8,0:0:0:0:
251,184,135777,1,0,0:0:0:0:
246,181,135927,1,8,0:0:0:0:
242,187,136002,1,0,0:0:0:0:
246,181,136077,1,8,0:0:0:0:
246,181,136152,1,8,0:0:0:0:
251,182,136227,1,0,0:0:0:0:
251,184,136377,1,8,0:0:0:0:
251,184,136527,1,0,0:0:0:0:
251,184,136602,1,8,0:0:0:0:
251,184,136677,1,0,0:0:0:0:
246,181,136827,1,8,0:0:0:0:
256,181,137127,1,8,0:0:0:0:
251,184,137277,1,0,0:0:0:0:
251,184,137352,1,0,0:0:0:0:
251,184,137427,1,8,0:0:0:0:
251,184,137577,1,0,0:0:0:0:
246,181,137727,1,8,0:0:0:0:
250,180,137877,1,8,0:0:0:0:
250,180,137952,1,8,0:0:0:0:
250,180,138027,1,0,0:0:0:0:
251,184,138177,1,8,0:0:0:0:
251,184,138327,1,8,0:0:0:0:
251,184,138477,1,0,0:0:0:0:
251,184,138552,1,8,0:0:0:0:
246,181,138627,1,0,0:0:0:0:
250,180,138777,1,0,0:0:0:0:
250,180,138927,1,8,0:0:0:0:
253,190,139002,1,8,0:0:0:0:
253,189,139077,1,0,0:0:0:0:
251,184,139152,1,0,0:0:0:0:
251,184,139227,1,8,0:0:0:0:
265,180,139377,1,0,0:0:0:0:
239,169,139527,1,8,0:0:0:0:
239,170,139677,1,0,0:0:0:0:
239,171,139752,1,0,0:0:0:0:
239,171,139827,1,8,0:0:0:0:
239,171,139977,1,8,0:0:0:0:
238,172,140052,1,8,0:0:0:0:
238,172,140127,1,0,0:0:0:0:
232,175,140277,1,0,0:0:0:0:
231,174,140427,1,8,0:0:0:0:
231,174,140502,1,8,0:0:0:0:
231,174,140577,1,0,0:0:0:0:
231,174,140652,1,8,0:0:0:0:
231,174,140727,1,0,0:0:0:0:
231,174,140877,1,0,0:0:0:0:
231,174,141027,1,12,0:0:0:0:
231,174,141327,1,4,0:0:0:0:
231,174,141627,1,12,0:0:0:0:
256,186,141927,1,8,0:0:0:0:
255,186,142077,1,0,0:0:0:0:
255,186,142152,1,0,0:0:0:0:
255,186,142227,1,8,0:0:0:0:
246,193,142377,1,0,0:0:0:0:
247,190,142527,1,8,0:0:0:0:
247,191,142602,1,0,0:0:0:0:
247,191,142677,1,8,0:0:0:0:
247,191,142752,1,8,0:0:0:0:
247,191,142827,1,0,0:0:0:0:
247,191,142977,1,8,0:0:0:0:
247,191,143052,1,8,0:0:0:0:
247,191,143127,1,0,0:0:0:0:
246,193,143277,1,8,0:0:0:0:
247,190,143427,1,0,0:0:0:0:
239,191,143577,1,0,0:0:0:0:
239,191,143652,1,0,0:0:0:0:
239,191,143727,1,8,0:0:0:0:
235,204,143802,1,0,0:0:0:0:
239,191,143877,1,8,0:0:0:0:
241,196,143952,1,8,0:0:0:0:
239,191,144027,1,0,0:0:0:0:
246,181,144177,1,8,0:0:0:0:
265,180,144252,1,8,0:0:0:0:
246,181,144327,1,0,0:0:0:0:
246,181,144477,1,0,0:0:0:0:
246,181,144627,1,8,0:0:0:0:
246,181,144702,1,0,0:0:0:0:
246,181,144777,1,8,0:0:0:0:
245,191,144852,1,8,0:0:0:0:
251,182,144927,1,0,0:0:0:0:
251,184,145077,1,0,0:0:0:0:
251,184,145152,1,0,0:0:0:0:
251,184,145227,1,8,0:0:0:0:
251,184,145377,1,0,0:0:0:0:
246,181,145527,1,8,0:0:0:0:
242,187,145602,1,8,0:0:0:0:
246,181,145677,1,8,0:0:0:0:
246,181,145752,1,8,0:0:0:0:
251,182,145827,1,0,0:0:0:0:
251,184,145977,1,8,0:0:0:0:
251,184,146127,1,0,0:0:0:0:
251,184,146202,1,0,0:0:0:0:
251,184,146277,1,0,0:0:0:0:
246,181,146427,1,12,0:0:0:0:
248,178,146577,1,0,0:0:0:0:
246,181,146727,1,8,0:0:0:0:
245,199,146877,1,0,0:0:0:0:
241,197,146952,1,0,0:0:0:0:
241,197,147027,1,8,0:0:0:0:
241,197,147177,1,8,0:0:0:0:
240,197,147252,1,0,0:0:0:0:
240,196,147327,1,8,0:0:0:0:
240,196,147477,1,0,0:0:0:0:
240,196,147552,1,0,0:0:0:0:
240,196,147627,1,8,0:0:0:0:
241,197,147927,1,4,0:0:0:0:
241,197,148077,1,4,0:0:0:0:
240,197,148227,1,12,0:0:0:0:
240,196,148527,1,12,0:0:0:0:
241,197,148677,1,8,0:0:0:0:
245,202,148727,1,8,0:0:0:0:
245,202,148777,1,8,0:0:0:0:
236,193,148827,1,4,0:0:0:0:
242,185,148977,1,8,0:0:0:0:
242,185,149052,1,8,0:0:0:0:
217,197,149127,1,8,0:0:0:0:
246,178,149277,1,4,0:0:0:0:
241,184,149427,1,8,0:0:0:0:
241,182,149502,1,0,0:0:0:0:
217,197,149577,1,8,0:0:0:0:
245,178,149727,1,4,0:0:0:0:
246,178,149877,1,8,0:0:0:0:
241,182,149952,1,8,0:0:0:0:
217,197,150027,1,8,0:0:0:0:
246,178,150177,1,4,0:0:0:0:
241,182,150477,1,8,0:0:0:0:
256,192,150627,12,0,151077,0:0:0:0:
242,185,151227,5,12,0:0:0:0:
241,182,151377,1,0,0:0:0:0:
241,182,151452,1,0,0:0:0:0:
242,185,151527,1,0,0:0:0:0:
242,185,151677,1,12,0:0:0:0:
242,185,151827,1,0,0:0:0:0:
242,185,151902,1,8,0:0:0:0:
242,185,151977,1,0,0:0:0:0:
242,185,152127,1,12,0:0:0:0:
241,182,152277,1,0,0:0:0:0:
241,182,152352,1,0,0:0:0:0:
241,182,152427,1,0,0:0:0:0:
242,185,152577,1,12,0:0:0:0:
237,188,152727,1,0,0:0:0:0:
237,188,152802,1,0,0:0:0:0:
237,188,152877,1,8,0:0:0:0:
237,188,153027,1,0,0:0:0:0:
237,189,153177,1,0,0:0:0:0:
247,194,153327,1,8,0:0:0:0:
245,190,153402,1,8,0:0:0:0:
245,190,153477,1,8,0:0:0:0:
245,190,153552,1,8,0:0:0:0:
240,167,153627,1,4,0:0:0:0:
239,167,153777,1,8,0:0:0:0:
239,167,153852,1,0,0:0:0:0:
239,167,153927,1,8,0:0:0:0:
239,167,154077,1,0,0:0:0:0:
237,180,154227,1,8,0:0:0:0:
236,180,154302,1,8,0:0:0:0:
236,179,154377,1,8,0:0:0:0:
236,179,154527,1,0,0:0:0:0:
236,179,154602,1,0,0:0:0:0:
236,179,154677,1,8,0:0:0:0:
233,181,154827,1,0,0:0:0:0:
233,181,155052,1,8,0:0:0:0:
237,180,155127,1,0,0:0:0:0:
236,180,155277,1,0,0:0:0:0:
236,179,155427,1,8,0:0:0:0:
237,190,155577,1,8,0:0:0:0:
237,187,155727,1,0,0:0:0:0:
237,187,155877,1,0,0:0:0:0:
238,189,156027,1,12,0:0:0:0:
238,189,156177,1,0,0:0:0:0:
238,189,156252,1,0,0:0:0:0:
238,189,156327,1,0,0:0:0:0:
237,190,156477,1,8,0:0:0:0:
237,187,156627,1,0,0:0:0:0:
237,187,156702,1,0,0:0:0:0:
237,187,156777,1,8,0:0:0:0:
238,189,156927,1,8,0:0:0:0:
238,189,157002,1,0,0:0:0:0:
238,189,157077,1,8,0:0:0:0:
238,189,157227,1,0,0:0:0:0:
237,190,157377,1,0,0:0:0:0:
237,190,157452,1,8,0:0:0:0:
237,187,157527,1,0,0:0:0:0:
237,187,157602,1,8,0:0:0:0:
237,187,157677,1,8,0:0:0:0:
256,192,158127,12,0,158277,0:0:0:0:
241,178,158427,5,8,0:0:0:0:
241,178,158502,1,8,0:0:0:0:
241,178,158577,1,8,0:0:0:0:
241,178,158652,1,8,0:0:0:0:
241,178,158727,1,0,0:0:0:0:
241,178,158877,1,8,0:0:0:0:
241,178,158952,1,8,0:0:0:0:
241,178,159027,1,0,0:0:0:0:
241,178,159102,1,0,0:0:0:0:
241,178,159177,1,8,0:0:0:0:
241,178,159327,1,0,0:0:0:0:
241,178,159402,1,0,0:0:0:0:
241,178,159477,1,8,0:0:0:0:
241,178,159552,1,8,0:0:0:0:
241,178,159627,1,0,0:0:0:0:
241,178,159777,1,8,0:0:0:0:
241,178,159852,1,8,0:0:0:0:
241,178,159927,1,0,0:0:0:0:
241,178,160002,1,0,0:0:0:0:
241,178,160077,1,8,0:0:0:0:
255,167,160227,1,0,0:0:0:0:
255,168,160302,1,0,0:0:0:0:
255,168,160377,1,8,0:0:0:0:
256,168,160452,1,0,0:0:0:0:
257,168,160527,1,8,0:0:0:0:
257,168,160602,1,8,0:0:0:0:
257,168,160677,1,0,0:0:0:0:
257,168,160752,1,0,0:0:0:0:
257,168,160827,1,8,0:0:0:0:
254,169,160902,1,8,0:0:0:0:
254,168,160977,1,8,0:0:0:0:
254,168,161052,1,0,0:0:0:0:
255,167,161127,1,8,0:0:0:0:
255,168,161277,1,0,0:0:0:0:
255,168,161352,1,0,0:0:0:0:
256,168,161427,1,0,0:0:0:0:
257,168,161502,1,8,0:0:0:0:
257,168,161577,1,0,0:0:0:0:
259,173,161727,1,8,0:0:0:0:
259,173,161802,1,8,0:0:0:0:
259,173,161877,1,0,0:0:0:0:
259,173,161952,1,0,0:0:0:0:
259,173,162027,1,8,0:0:0:0:
259,173,162177,1,0,0:0:0:0:
259,173,162252,1,0,0:0:0:0:
259,173,162327,1,8,0:0:0:0:
259,173,162402,1,8,0:0:0:0:
259,173,162477,1,0,0:0:0:0:
258,179,162627,1,8,0:0:0:0:
258,179,162702,1,8,0:0:0:0:
258,179,162777,1,0,0:0:0:0:
258,179,162852,1,8,0:0:0:0:
258,179,162927,1,0,0:0:0:0:
258,179,163002,1,0,0:0:0:0:
258,178,163077,1,8,0:0:0:0:
259,173,163152,1,0,0:0:0:0:
259,173,163227,1,8,0:0:0:0:
259,173,163377,1,0,0:0:0:0:
259,173,163452,1,0,0:0:0:0:
263,175,163527,1,0,0:0:0:0:
262,175,163677,1,8,0:0:0:0:
262,175,163752,1,8,0:0:0:0:
262,175,163827,1,0,0:0:0:0:
262,175,163902,1,0,0:0:0:0:
262,175,163977,1,0,0:0:0:0:
258,178,164052,1,0,0:0:0:0:
259,173,164127,1,8,0:0:0:0:
266,174,164277,1,8,0:0:0:0:
266,174,164352,1,8,0:0:0:0:
266,174,164427,1,0,0:0:0:0:
263,175,164502,1,8,0:0:0:0:
262,175,164577,1,0,0:0:0:0:
262,175,164652,1,0,0:0:0:0:
262,175,164727,1,8,0:0:0:0:
262,175,164877,1,0,0:0:0:0:
262,175,164952,1,0,0:0:0:0:
265,174,165027,1,8,0:0:0:0:
265,174,165102,1,0,0:0:0:0:
266,174,165177,1,8,0:0:0:0:
266,174,165252,1,8,0:0:0:0:
266,174,165327,1,0,0:0:0:0:
266,174,165402,1,8,0:0:0:0:
263,175,165477,1,8,0:0:0:0:
249,172,165627,1,0,0:0:0:0:
249,172,165702,1,0,0:0:0:0:
249,172,165777,1,8,0:0:0:0:
248,172,165852,1,8,0:0:0:0:
248,172,165927,1,0,0:0:0:0:
248,172,166077,1,8,0:0:0:0:
248,172,166152,1,8,0:0:0:0:
248,172,166227,1,8,0:0:0:0:
248,172,166302,1,8,0:0:0:0:
248,172,166377,1,0,0:0:0:0:
249,172,166527,1,0,0:0:0:0:
249,172,166602,1,0,0:0:0:0:
249,172,166677,1,0,0:0:0:0:
249,172,166752,1,8,0:0:0:0:
248,172,166827,1,8,0:0:0:0:
248,172,166902,1,8,0:0:0:0:
248,172,166977,1,0,0:0:0:0:
248,172,167052,1,0,0:0:0:0:
248,172,167127,1,0,0:0:0:0:
248,172,167202,1,8,0:0:0:0:
248,172,167277,1,8,0:0:0:0:
248,172,167352,1,8,0:0:0:0:
249,172,167427,1,0,0:0:0:0:
249,172,167502,1,0,0:0:0:0:
249,172,167577,1,8,0:0:0:0:
249,172,167652,1,0,0:0:0:0:
249,172,167727,1,8,0:0:0:0:
248,172,167802,1,8,0:0:0:0:
248,172,167877,1,0,0:0:0:0:
248,172,167952,1,0,0:0:0:0:
248,172,168027,1,12,0:0:0:0:
248,172,168327,1,4,0:0:0:0:
249,172,168627,1,12,0:0:0:0:
248,172,168927,1,4,0:0:0:0:
248,172,169227,1,12,0:0:0:0:
249,172,169527,1,12,0:0:0:0:
248,172,169827,1,4,0:0:0:0:
248,172,170127,1,4,0:0:0:0:
249,172,170427,1,12,0:0:0:0:
248,172,170727,1,4,0:0:0:0:
248,172,171027,1,12,0:0:0:0:
249,172,171327,1,4,0:0:0:0:
248,172,171627,1,12,0:0:0:0:
248,172,171927,1,4,0:0:0:0:
249,172,172227,1,4,0:0:0:0:
248,172,172527,1,12,0:0:0:0:
250,179,172677,1,0,0:0:0:0:
250,179,172752,1,0,0:0:0:0:
248,172,172827,1,12,0:0:0:0:
249,172,173127,1,4,0:0:0:0:
248,172,173427,1,12,0:0:0:0:
248,172,173727,1,4,0:0:0:0:
249,172,174027,1,12,0:0:0:0:
248,172,174327,1,12,0:0:0:0:
248,172,174627,1,4,0:0:0:0:
249,172,174927,1,4,0:0:0:0:
248,172,175227,1,12,0:0:0:0:
248,172,175527,1,4,0:0:0:0:
249,172,175827,1,12,0:0:0:0:
248,172,176127,1,4,0:0:0:0:
248,172,176427,1,12,0:0:0:0:
249,172,176727,1,4,0:0:0:0:
248,172,177027,1,4,0:0:0:0:
248,172,177327,1,12,0:0:0:0:
252,192,177627,1,0,0:0:0:0:
252,192,177927,1,0,0:0:0:0:
252,192,178227,1,8,0:0:0:0:
252,192,178527,1,8,0:0:0:0:
252,192,178827,1,0,0:0:0:0:
252,192,179127,1,0,0:0:0:0:
252,192,179427,1,8,0:0:0:0:
252,192,179727,1,0,0:0:0:0:
252,192,180027,1,8,0:0:0:0:
252,192,180327,1,8,0:0:0:0:
252,192,180627,1,0,0:0:0:0:
252,192,180927,1,8,0:0:0:0:
252,192,181227,1,0,0:0:0:0:
252,192,181527,1,0,0:0:0:0:
252,192,181827,1,8,0:0:0:0:
252,192,182127,1,8,0:0:0:0:
260,192,182427,1,4,0:0:0:0:
260,192,182727,1,4,0:0:0:0:
260,192,183027,1,12,0:0:0:0:
260,192,183327,1,12,0:0:0:0:
256,192,183402,12,0,185427,0:0:0:0:
257,178,186027,5,8,0:0:0:0:
257,178,186327,1,8,0:0:0:0:
257,178,186627,1,4,0:0:0:0:
257,178,186927,1,4,0:0:0:0:
250,176,187227,1,8,0:0:0:0:
250,176,187302,1,8,0:0:0:0:
250,176,187377,1,0,0:0:0:0:
249,176,187452,1,8,0:0:0:0:
249,176,187527,1,0,0:0:0:0:
250,176,187677,1,12,0:0:0:0:
250,176,187977,1,12,0:0:0:0:
250,176,188127,1,0,0:0:0:0:
250,176,188202,1,0,0:0:0:0:
250,176,188277,1,0,0:0:0:0:
250,176,188352,1,0,0:0:0:0:
249,176,188427,1,8,0:0:0:0:
250,176,189027,1,8,0:0:0:0:
250,176,189177,1,0,0:0:0:0:
250,176,189327,1,8,0:0:0:0:
250,176,189477,1,0,0:0:0:0:
250,176,189627,1,8,0:0:0:0:
250,176,189702,1,8,0:0:0:0:
250,176,189777,1,0,0:0:0:0:
250,176,189852,1,0,0:0:0:0:
250,176,189927,1,8,0:0:0:0:
250,176,190077,1,0,0:0:0:0:
250,176,190227,1,12,0:0:0:0:
250,176,190527,1,12,0:0:0:0:
250,176,190827,1,12,0:0:0:0:
249,188,191127,1,0,0:0:0:0:
249,188,191277,1,8,0:0:0:0:
248,187,191427,1,0,0:0:0:0:
248,187,191577,1,8,0:0:0:0:
248,187,191727,1,0,0:0:0:0:
249,188,191877,1,8,0:0:0:0:
249,188,192027,1,0,0:0:0:0:
249,188,192177,1,0,0:0:0:0:
248,187,192327,1,0,0:0:0:0:
248,187,192477,1,0,0:0:0:0:
248,187,192627,1,8,0:0:0:0:
249,188,192777,1,8,0:0:0:0:
249,188,192927,1,8,0:0:0:0:
249,188,193077,1,8,0:0:0:0:
248,187,193227,1,0,0:0:0:0:
246,188,194427,1,12,0:0:0:0:
246,188,194727,1,4,0:0:0:0:
246,188,195027,1,12,0:0:0:0:
246,188,195327,1,4,0:0:0:0:
246,188,195627,1,12,0:0:0:0:
246,188,195777,1,0,0:0:0:0:
246,188,195927,1,8,0:0:0:0:
246,188,196077,1,0,0:0:0:0:
246,188,196227,1,8,0:0:0:0:
246,188,196377,1,0,0:0:0:0:
246,188,196527,1,8,0:0:0:0:
239,195,196677,1,8,0:0:0:0:
239,195,196827,1,0,0:0:0:0:
239,195,196977,1,0,0:0:0:0:
239,195,197127,1,0,0:0:0:0:
239,195,197277,1,0,0:0:0:0:
239,195,197427,1,8,0:0:0:0:
239,194,199227,1,12,0:0:0:0:
256,186,199527,1,8,0:0:0:0:
255,186,199677,1,0,0:0:0:0:
255,186,199752,1,0,0:0:0:0:
255,186,199827,1,8,0:0:0:0:
246,193,199977,1,0,0:0:0:0:
247,190,200127,1,8,0:0:0:0:
247,191,200202,1,0,0:0:0:0:
247,191,200277,1,8,0:0:0:0:
247,191,200352,1,8,0:0:0:0:
247,191,200427,1,0,0:0:0:0:
247,191,200577,1,0,0:0:0:0:
247,191,200652,1,0,0:0:0:0:
247,191,200727,1,8,0:0:0:0:
246,193,200877,1,0,0:0:0:0:
247,190,201027,1,8,0:0:0:0:
239,191,201177,1,8,0:0:0:0:
239,191,201252,1,8,0:0:0:0:
239,191,201327,1,0,0:0:0:0:
235,204,201402,1,8,0:0:0:0:
239,191,201477,1,0,0:0:0:0:
243,230,201552,1,0,0:0:0:0:
239,191,201627,1,8,0:0:0:0:
246,181,201777,1,8,0:0:0:0:
265,180,201852,1,8,0:0:0:0:
246,181,201927,1,0,0:0:0:0:
246,181,202077,1,0,0:0:0:0:
246,181,202227,1,8,0:0:0:0:
246,181,202302,1,8,0:0:0:0:
246,181,202377,1,0,0:0:0:0:
245,191,202452,1,0,0:0:0:0:
251,182,202527,1,8,0:0:0:0:
251,184,202677,1,8,0:0:0:0:
251,184,202752,1,0,0:0:0:0:
251,184,202827,1,8,0:0:0:0:
251,184,202977,1,0,0:0:0:0:
246,189,203052,1,0,0:0:0:0:
246,181,203127,1,8,0:0:0:0:
242,187,203202,1,0,0:0:0:0:
246,181,203277,1,8,0:0:0:0:
246,181,203352,1,8,0:0:0:0:
251,182,203427,1,0,0:0:0:0:
251,184,203577,1,8,0:0:0:0:
251,184,203727,1,0,0:0:0:0:
251,184,203802,1,8,0:0:0:0:
251,184,203877,1,0,0:0:0:0:
246,181,204027,1,8,0:0:0:0:
256,181,204327,1,8,0:0:0:0:
251,184,204477,1,0,0:0:0:0:
251,184,204552,1,0,0:0:0:0:
251,184,204627,1,8,0:0:0:0:
257,200,204702,1,8,0:0:0:0:
251,184,204777,1,0,0:0:0:0:
246,181,204927,1,8,0:0:0:0:
250,180,205077,1,8,0:0:0:0:
250,180,205152,1,8,0:0:0:0:
250,180,205227,1,0,0:0:0:0:
251,184,205377,1,8,0:0:0:0:
251,184,205527,1,8,0:0:0:0:
257,200,205602,1,0,0:0:0:0:
251,184,205677,1,0,0:0:0:0:
251,184,205752,1,8,0:0:0:0:
246,181,205827,1,0,0:0:0:0:
250,180,205977,1,0,0:0:0:0:
250,180,206127,1,8,0:0:0:0:
253,190,206202,1,8,0:0:0:0:
253,189,206277,1,0,0:0:0:0:
251,184,206352,1,0,0:0:0:0:
251,184,206427,1,8,0:0:0:0:
265,180,206577,1,0,0:0:0:0:
256,188,206652,1,8,0:0:0:0:
239,169,206727,1,0,0:0:0:0:
239,170,206877,1,0,0:0:0:0:
239,171,206952,1,0,0:0:0:0:
239,171,207027,1,8,0:0:0:0:
239,171,207177,1,8,0:0:0:0:
238,172,207252,1,8,0:0:0:0:
238,172,207327,1,0,0:0:0:0:
232,175,207477,1,0,0:0:0:0:
231,174,207627,1,8,0:0:0:0:
231,174,207702,1,8,0:0:0:0:
231,174,207777,1,0,0:0:0:0:
231,174,207852,1,8,0:0:0:0:
231,174,207927,1,0,0:0:0:0:
231,174,208077,1,0,0:0:0:0:
231,174,208227,1,12,0:0:0:0:
231,174,208527,1,4,0:0:0:0:
231,174,208827,1,12,0:0:0:0:
256,186,209127,1,8,0:0:0:0:
255,186,209277,1,0,0:0:0:0:
255,186,209352,1,0,0:0:0:0:
255,186,209427,1,8,0:0:0:0:
246,193,209577,1,0,0:0:0:0:
247,190,209727,1,8,0:0:0:0:
247,191,209802,1,0,0:0:0:0:
247,191,209877,1,8,0:0:0:0:
247,191,209952,1,8,0:0:0:0:
247,191,210027,1,0,0:0:0:0:
247,191,210177,1,8,0:0:0:0:
247,191,210252,1,8,0:0:0:0:
247,191,210327,1,0,0:0:0:0:
246,193,210477,1,8,0:0:0:0:
247,190,210627,1,0,0:0:0:0:
239,191,210777,1,0,0:0:0:0:
239,191,210852,1,0,0:0:0:0:
239,191,210927,1,8,0:0:0:0:
235,204,211002,1,0,0:0:0:0:
239,191,211077,1,8,0:0:0:0:
241,196,211152,1,8,0:0:0:0:
239,191,211227,1,0,0:0:0:0:
246,181,211377,1,8,0:0:0:0:
265,180,211452,1,8,0:0:0:0:
246,181,211527,1,0,0:0:0:0:
246,181,211677,1,0,0:0:0:0:
246,181,211827,1,8,0:0:0:0:
246,181,211902,1,0,0:0:0:0:
246,181,211977,1,8,0:0:0:0:
245,191,212052,1,8,0:0:0:0:
251,182,212127,1,0,0:0:0:0:
251,184,212277,1,0,0:0:0:0:
251,184,212352,1,0,0:0:0:0:
251,184,212427,1,8,0:0:0:0:
251,184,212577,1,0,0:0:0:0:
246,181,212727,1,8,0:0:0:0:
242,187,212802,1,8,0:0:0:0:
246,181,212877,1,8,0:0:0:0:
246,181,212952,1,8,0:0:0:0:
251,182,213027,1,0,0:0:0:0:
251,184,213177,1,8,0:0:0:0:
251,184,213327,1,0,0:0:0:0:
251,184,213402,1,0,0:0:0:0:
251,184,213477,1,8,0:0:0:0:
250,173,213552,1,0,0:0:0:0:
246,181,213627,1,12,0:0:0:0:
248,178,213777,1,0,0:0:0:0:
244,189,213852,1,8,0:0:0:0:
246,181,213927,1,0,0:0:0:0:
245,199,214077,1,0,0:0:0:0:
241,197,214152,1,0,0:0:0:0:
241,197,214227,1,8,0:0:0:0:
241,197,214377,1,8,0:0:0:0:
240,197,214452,1,0,0:0:0:0:
240,196,214527,1,8,0:0:0:0:
240,196,214677,1,0,0:0:0:0:
240,196,214752,1,0,0:0:0:0:
240,196,214827,1,8,0:0:0:0:
240,196,214977,1,0,0:0:0:0:
240,196,215127,1,8,0:0:0:0:
241,197,215202,1,8,0:0:0:0:
241,197,215277,1,0,0:0:0:0:
241,197,215352,1,8,0:0:0:0:
240,197,215427,1,0,0:0:0:0:
240,196,215577,1,0,0:0:0:0:
240,196,215727,1,8,0:0:0:0:
239,189,215877,1,8,0:0:0:0:
238,189,216027,1,4,0:0:0:0:
238,189,216327,1,12,0:0:0:0:
238,189,216627,1,4,0:0:0:0:
238,189,216927,1,12,0:0:0:0:
238,189,217227,1,4,0:0:0:0:
238,189,218127,1,0,0:0:0:0:
238,189,218277,1,8,0:0:0:0:
238,189,218427,1,4,0:0:0:0:
244,171,218727,1,8,0:0:0:0:
244,170,218877,1,8,0:0:0:0:
244,170,218952,1,8,0:0:0:0:
244,170,219027,1,0,0:0:0:0:
243,171,219177,1,0,0:0:0:0:
243,171,219327,1,8,0:0:0:0:
244,171,219477,1,0,0:0:0:0:
244,171,219627,1,8,0:0:0:0:
244,171,219702,1,0,0:0:0:0:
244,170,219777,1,8,0:0:0:0:
244,170,219852,1,8,0:0:0:0:
244,170,219927,1,0,0:0:0:0:
243,171,220077,1,0,0:0:0:0:
243,171,220152,1,0,0:0:0:0:
243,171,220227,1,8,0:0:0:0:
244,171,220377,1,8,0:0:0:0:
244,171,220527,1,0,0:0:0:0:
219,158,220602,1,0,0:0:0:0:
244,171,220677,1,8,0:0:0:0:
267,161,220752,1,8,0:0:0:0:
244,170,220827,1,0,0:0:0:0:
256,189,220977,1,0,0:0:0:0:
254,193,221127,1,8,0:0:0:0:
254,193,221277,1,0,0:0:0:0:
254,193,221352,1,8,0:0:0:0:
254,193,221427,1,0,0:0:0:0:
259,196,221502,1,0,0:0:0:0:
254,193,221577,1,8,0:0:0:0:
254,192,221727,1,0,0:0:0:0:
254,193,221877,1,8,0:0:0:0:
236,184,221952,1,8,0:0:0:0:
254,193,222027,1,0,0:0:0:0:
254,193,222102,1,0,0:0:0:0:
254,193,222177,1,8,0:0:0:0:
254,193,222252,1,8,0:0:0:0:
254,193,222327,1,0,0:0:0:0:
254,193,222477,1,8,0:0:0:0:
254,192,222627,1,0,0:0:0:0:
254,193,222777,1,0,0:0:0:0:
254,193,222852,1,0,0:0:0:0:
254,193,222927,1,8,0:0:0:0:
254,193,223077,1,8,0:0:0:0:
254,193,223227,1,0,0:0:0:0:
253,176,223527,1,8,0:0:0:0:
245,181,223677,1,8,0:0:0:0:
242,177,223752,1,8,0:0:0:0:
242,177,223827,1,0,0:0:0:0:
241,177,223977,1,0,0:0:0:0:
241,177,224127,1,8,0:0:0:0:
241,177,224277,1,0,0:0:0:0:
241,177,224427,1,8,0:0:0:0:
241,177,224502,1,0,0:0:0:0:
245,181,224577,1,8,0:0:0:0:
245,181,224652,1,8,0:0:0:0:
242,177,224727,1,0,0:0:0:0:
241,177,224877,1,0,0:0:0:0:
241,177,224952,1,0,0:0:0:0:
241,177,225027,1,8,0:0:0:0:
236,190,225177,1,8,0:0:0:0:
236,190,225327,1,0,0:0:0:0:
222,166,225402,1,8,0:0:0:0:
236,190,225477,1,0,0:0:0:0:
243,192,225552,1,0,0:0:0:0:
236,190,225627,1,8,0:0:0:0:
244,187,225777,1,0,0:0:0:0:
250,188,225927,1,8,0:0:0:0:
250,188,226077,1,0,0:0:0:0:
250,188,226152,1,0,0:0:0:0:
250,188,226227,1,8,0:0:0:0:
250,188,226377,1,0,0:0:0:0:
242,173,226527,1,8,0:0:0:0:
242,173,226602,1,8,0:0:0:0:
242,173,226677,1,0,0:0:0:0:
251,187,226752,1,0,0:0:0:0:
236,187,226827,1,8,0:0:0:0:
236,192,226902,1,8,0:0:0:0:
236,187,226977,1,0,0:0:0:0:
236,187,227052,1,8,0:0:0:0:
236,187,227127,1,0,0:0:0:0:
238,188,227277,1,8,0:0:0:0:
234,182,227352,1,8,0:0:0:0:
235,181,227427,1,0,0:0:0:0:
235,181,227502,1,0,0:0:0:0:
235,179,227577,1,8,0:0:0:0:
235,179,227652,1,0,0:0:0:0:
235,179,227727,1,8,0:0:0:0:
235,179,227802,1,8,0:0:0:0:
235,179,227877,1,8,0:0:0:0:
235,179,227952,1,8,0:0:0:0:
234,179,228027,1,0,0:0:0:0:
244,188,228327,1,8,0:0:0:0:
244,188,228477,1,0,0:0:0:0:
244,188,228552,1,0,0:0:0:0:
244,188,228627,1,8,0:0:0:0:
238,187,228702,1,8,0:0:0:0:
244,188,228777,1,0,0:0:0:0:
244,187,228927,1,8,0:0:0:0:
244,188,229077,1,8,0:0:0:0:
244,188,229152,1,0,0:0:0:0:
244,188,229227,1,8,0:0:0:0:
244,188,229377,1,0,0:0:0:0:
244,188,229527,1,8,0:0:0:0:
244,188,229602,1,8,0:0:0:0:
244,188,229677,1,0,0:0:0:0:
244,187,229827,1,8,0:0:0:0:
244,188,229977,1,0,0:0:0:0:
244,188,230052,1,0,0:0:0:0:
244,188,230127,1,8,0:0:0:0:
244,188,230277,1,0,0:0:0:0:
244,188,230427,1,8,0:0:0:0:
224,181,230577,1,8,0:0:0:0:
224,181,230652,1,0,0:0:0:0:
244,188,230727,1,8,0:0:0:0:
244,188,230877,1,0,0:0:0:0:
244,188,230952,1,0,0:0:0:0:
244,188,231027,1,8,0:0:0:0:
244,188,231177,1,8,0:0:0:0:
244,188,231327,1,0,0:0:0:0:
244,188,231402,1,0,0:0:0:0:
244,188,231477,1,8,0:0:0:0:
244,188,231552,1,8,0:0:0:0:
244,188,231627,1,0,0:0:0:0:
244,188,231777,1,0,0:0:0:0:
244,188,231852,1,0,0:0:0:0:
244,188,231927,1,8,0:0:0:0:
244,188,232077,1,0,0:0:0:0:
244,188,232227,1,8,0:0:0:0:
244,188,232302,1,0,0:0:0:0:
244,188,232377,1,8,0:0:0:0:
244,188,232452,1,8,0:0:0:0:
244,188,232527,1,0,0:0:0:0:
244,188,232677,1,0,0:0:0:0:
244,188,232827,1,8,0:0:0:0:
244,188,233127,1,8,0:0:0:0:
244,188,233277,1,0,0:0:0:0:
238,191,233352,1,0,0:0:0:0:
237,189,233427,1,8,0:0:0:0:
244,188,233502,1,8,0:0:0:0:
236,188,233577,1,0,0:0:0:0:
235,187,233727,1,8,0:0:0:0:
235,187,233877,1,0,0:0:0:0:
235,187,233952,1,0,0:0:0:0:
235,187,234027,1,8,0:0:0:0:
232,176,234177,1,0,0:0:0:0:
232,176,234327,1,8,0:0:0:0:
232,176,234402,1,0,0:0:0:0:
232,176,234477,1,8,0:0:0:0:
232,176,234627,1,0,0:0:0:0:
232,176,234777,1,8,0:0:0:0:
232,176,234852,1,8,0:0:0:0:
232,176,234927,1,0,0:0:0:0:
232,176,235077,1,0,0:0:0:0:
232,176,235227,1,8,0:0:0:0:
232,176,235377,1,0,0:0:0:0:
222,177,235452,1,0,0:0:0:0:
249,175,235527,1,8,0:0:0:0:
249,175,235677,1,0,0:0:0:0:
249,175,235827,1,8,0:0:0:0:
250,183,235902,1,8,0:0:0:0:
248,182,235977,1,0,0:0:0:0:
247,183,236052,1,0,0:0:0:0:
247,182,236127,1,8,0:0:0:0:
247,180,236202,1,0,0:0:0:0:
249,203,236277,1,0,0:0:0:0:
240,198,236427,1,8,0:0:0:0:
240,199,236577,1,0,0:0:0:0:
242,196,236652,1,0,0:0:0:0:
242,196,236727,1,8,0:0:0:0:
241,196,236877,1,8,0:0:0:0:
241,196,236952,1,0,0:0:0:0:
240,196,237027,1,8,0:0:0:0:
250,202,237102,1,8,0:0:0:0:
240,196,237177,1,0,0:0:0:0:
229,210,237252,1,0,0:0:0:0:
240,198,237327,1,8,0:0:0:0:
227,209,237477,1,8,0:0:0:0:
240,199,237552,1,8,0:0:0:0:
224,208,237627,1,0,0:0:0:0:
227,209,238527,1,8,0:0:0:0:
227,209,238827,1,8,0:0:0:0:
227,209,239727,1,8,0:0:0:0:
227,209,240027,1,0,0:0:0:0:
227,209,240927,1,0,0:0:0:0:
227,209,241227,1,8,0:0:0:0:
227,209,242127,1,0,0:0:0:0:
227,209,242427,1,8,0:0:0:0:
227,209,243327,1,8,0:0:0:0:
227,209,243627,1,8,0:0:0:0:
227,209,244527,1,8,0:0:0:0:
227,209,244827,1,0,0:0:0:0:
194,214,245577,1,0,0:0:0:0:
223,224,245627,1,0,0:0:0:0:
222,224,245677,1,0,0:0:0:0:
227,209,245727,1,12,0:0:0:0:
