osu file format v14

[General]
AudioFilename: audio.mp3
AudioLeadIn: 0
PreviewTime: 58527
Countdown: 0
SampleSet: Normal
StackLeniency: 0.7
Mode: 1
LetterboxInBreaks: 0
WidescreenStoryboard: 1

[Editor]
Bookmarks: 10815,20415,30015,39615,49215,58815
DistanceSpacing: 0.1
BeatDivisor: 4
GridSize: 32
TimelineZoom: 4.150002

[Metadata]
Title:Weenywalker
TitleUnicode:ウィーニーウォーカー
Artist:youman
ArtistUnicode:youまん
Creator:gaston_2199
Version:08's Oni
Source:
Tags:ボーカロイド vocaloid グミ GUMI メグッポイド megpoid ブイフラワ flower vflower japanese rock jrock j-rock 6_4 paz08
BeatmapID:4190957
BeatmapSetID:1994252

[Difficulty]
HPDrainRate:5
CircleSize:2
OverallDifficulty:6
ApproachRate:10
SliderMultiplier:1.4
SliderTickRate:1

[Events]
//Background and Video events
0,0,"BG.jpg",0,0
//Break Periods
//Storyboard Layer 0 (Background)
//Storyboard Layer 1 (Fail)
//Storyboard Layer 2 (Pass)
//Storyboard Layer 3 (Foreground)
//Storyboard Layer 4 (Overlay)
//Storyboard Sound Samples

[TimingPoints]
28,300,4,1,0,40,1,8
602,-125,4,1,0,40,0,8
1227,300,4,1,0,40,1,0
1227,-125,4,1,0,40,0,8
6001,-111.111111111111,4,1,0,70,0,8
9601,-90.9090909090909,4,1,0,80,0,8
10501,-111.111111111111,4,1,0,70,0,8
10801,-95.2380952380952,4,1,0,90,0,8
30151,-125,4,1,0,60,0,8
39601,-100,4,1,0,80,0,8
43801,-90.9090909090909,4,1,0,80,0,8
44326,-100,4,1,0,80,0,8
48148,-101.26582278481,4,1,0,80,0,8
48223,-101.910828025478,4,1,0,80,0,8
48298,-102.564102564103,4,1,0,80,0,8
48448,-103.896103896104,4,1,0,80,0,8
48598,-105.263157894737,4,1,0,80,0,8
48748,-106.666666666667,4,1,0,80,0,8
48898,-108.108108108108,4,1,0,80,0,8
49048,-109.58904109589,4,1,0,80,0,8
49198,-111.111111111111,4,1,0,80,0,8
49351,-125,4,1,0,70,0,8
54298,-124.51289,4,1,0,70,0,8
54451,-123.48409,4,1,0,70,0,8
54598,-122.50366,4,1,0,70,0,8
54898,-120.52685,4,1,0,70,0,8
55048,-119.550446,4,1,0,70,0,8
55201,-118.56264,4,1,0,70,0,8
55348,-117.62129,4,1,0,70,0,8
55648,-115.72326,4,1,0,70,0,8
55798,-114.78576,4,1,0,70,0,8
55948,-113.85586,4,1,0,70,0,8
56098,-112.9335,4,1,0,70,0,8
56248,-112.01859,4,1,0,70,0,8
56398,-100,4,1,0,80,0,8
56701,-96.53256,4,1,0,80,0,8
56851,-94.860756,4,1,0,80,0,8
56926,-94.03574,4,1,0,80,0,8
57001,-93.2179,4,1,0,80,0,8
57151,-91.60351,4,1,0,80,0,8
57301,-90.01707,4,1,0,80,0,8
57376,-89.23419,4,1,0,80,0,8
57451,-88.45811,4,1,0,80,0,8
57598,-83.33333,4,1,0,90,0,8
57898,-91.28709,4,1,0,90,0,8
58198,-100,4,1,0,90,0,8
58827,-95.2380952380952,4,1,0,100,0,1
67827,-83.3333333333333,4,1,0,100,0,0
68427,-76.9230769230769,4,1,0,100,0,1
68476,-95.2380952380952,4,1,0,100,0,1
73201,-83.33333,4,1,0,100,0,1
73348,-85.220245,4,1,0,100,0,1
73423,-86.19935,4,1,0,100,0,1
73498,-87.18971,4,1,0,100,0,1
73648,-89.20469,4,1,0,100,0,1
73798,-91.26624,4,1,0,100,0,1
73873,-92.31481,4,1,0,100,0,1
73948,-93.37542,4,1,0,100,0,1
74023,-94.448235,4,1,0,100,0,1
74098,-95.53336,4,1,0,100,0,1
74248,-97.741165,4,1,0,100,0,1
74398,-100,4,1,0,100,0,1
74701,-76.9230769230769,4,1,0,100,0,1
75627,-76.9230769230769,4,1,0,100,0,0
75676,-100.028114,4,1,0,80,0,0
76048,-100.37322,4,1,0,80,0,0
76198,-100.726585,4,1,0,80,0,0
76273,-100.90374,4,1,0,80,0,0
76348,-101.0812,4,1,0,80,0,0
76498,-101.43706,4,1,0,80,0,0
76648,-101.794174,4,1,0,80,0,0
76798,-102.15254,4,1,0,80,0,0
76873,-102.33221,4,1,0,80,0,0
76948,-102.51218,4,1,0,80,0,0
77098,-102.87307,4,1,0,80,0,0
77248,-103.235245,4,1,0,80,0,0
77398,-103.59869,4,1,0,80,0,0
77473,-103.78088,4,1,0,80,0,0
77548,-103.96342,4,1,0,80,0,0
77698,-104.32942,4,1,0,80,0,0
77998,-105.0653,4,1,0,80,0,0
78148,-105.435196,4,1,0,80,0,0
78298,-105.80638,4,1,0,80,0,0
78448,-106.17887,4,1,0,80,0,0
78523,-106.365616,4,1,0,80,0,0
78598,-106.55268,4,1,0,80,0,0
78748,-106.92781,4,1,0,80,0,0
78898,-107.30425,4,1,0,80,0,0
79048,-107.68202,4,1,0,80,0,0
79198,-108.06112,4,1,0,80,0,0
79273,-108.251175,4,1,0,80,0,0
79348,-108.44155,4,1,0,80,0,0
79498,-108.82332,4,1,0,80,0,0
79648,-109.20644,4,1,0,80,0,0
79798,-109.59091,4,1,0,80,0,0
79873,-109.78365,4,1,0,80,0,0
79948,-109.97673,4,1,0,80,0,0
80098,-110.363914,4,1,0,80,0,0
80248,-110.75245,4,1,0,80,0,0
80398,-111.111111111111,4,1,0,80,0,0
80701,-100,4,1,0,80,0,0
80848,-100.34477,4,1,0,80,0,0
80998,-100.69781,4,1,0,80,0,0
81073,-100.87479,4,1,0,80,0,0
81148,-101.05207,4,1,0,80,0,0
81298,-101.4076,4,1,0,80,0,0
81448,-101.76437,4,1,0,80,0,0
81598,-102.12239,4,1,0,80,0,0
81673,-102.30187,4,1,0,80,0,0
81748,-102.48168,4,1,0,80,0,0
81898,-102.842224,4,1,0,80,0,0
82048,-103.20405,4,1,0,80,0,0
82123,-103.38543,4,1,0,80,0,0
82198,-103.56713,4,1,0,80,0,0
82348,-103.93151,4,1,0,80,0,0
82498,-104.297165,4,1,0,80,0,0
82648,-104.6641,4,1,0,80,0,0
82798,-105.03233,4,1,0,80,0,0
82948,-105.401855,4,1,0,80,0,0
83098,-105.77268,4,1,0,80,0,0
83248,-106.144806,4,1,0,80,0,0
83398,-106.51825,4,1,0,80,0,0
83473,-106.705444,4,1,0,80,0,0
83548,-106.893,4,1,0,80,0,0
83698,-107.269066,4,1,0,80,0,0
83848,-107.64646,4,1,0,80,0,0
83998,-108.025185,4,1,0,80,0,0
84148,-108.405235,4,1,0,80,0,0
84223,-108.595764,4,1,0,80,0,0
84298,-108.78663,4,1,0,80,0,0
84448,-109.16935,4,1,0,80,0,0
84598,-109.55344,4,1,0,80,0,0
84673,-109.74599,4,1,0,80,0,0
84748,-109.93887,4,1,0,80,0,0
84823,-110.13209,4,1,0,80,0,0
84898,-110.32565,4,1,0,80,0,0
85201,-95.2380952380952,4,1,0,80,0,0
85351,-125,4,1,0,70,0,0
94048,-119.047619047619,4,1,0,80,0,0
94123,-116.279069767442,4,1,0,80,0,0
94198,-113.636363636364,4,1,0,80,0,0
94348,-108.695652173913,4,1,0,80,0,0
94498,-104.166666666667,4,1,0,80,0,0
94648,-100,4,1,0,80,0,0
94801,-111.111111111111,4,1,0,80,0,0
95101,-100,4,1,0,80,0,0
99001,-90.9090909090909,4,1,0,80,0,0
99751,-100,4,1,0,80,0,0
104401,-133.333333333333,4,1,0,60,0,0
113952,-133.333333333333,4,1,0,70,0,0
114324,-136.752136752137,4,1,0,70,0,0
114624,-140.350877192982,4,1,0,70,0,0
114924,-144.144144144144,4,1,0,70,0,0
115224,-148.148148148148,4,1,0,70,0,0
115524,-152.380952380952,4,1,0,70,0,0
115824,-156.862745098039,4,1,0,70,0,0
116124,-161.616161616162,4,1,0,70,0,0
116424,-166.666666666667,4,1,0,70,0,0
117627,-76.9230769230769,4,1,0,100,0,1
118227,-76.9230769230769,4,1,0,80,0,0
118827,300,7,1,0,100,1,1
118827,-83.33333,7,1,0,100,0,1
118873,-84.29781,7,1,0,100,0,1
118948,-85.31435,7,1,0,100,0,1
119023,-86.34315,7,1,0,100,0,1
119098,-87.38435,7,1,0,100,0,1
119248,-89.50457,7,1,0,100,0,1
119398,-91.67623,7,1,0,100,0,1
119473,-92.781746,7,1,0,100,0,1
119548,-93.9006,7,1,0,100,0,1
119623,-95.03293,7,1,0,100,0,1
119698,-96.17892,7,1,0,100,0,1
119848,-98.51253,7,1,0,100,0,1
119998,-100.90276,7,1,0,100,0,1
120073,-102.11953,7,1,0,100,0,1
120148,-103.350975,7,1,0,100,0,1
120223,-104.59727,7,1,0,100,0,1
120298,-105.8586,7,1,0,100,0,1
120448,-108.42707,7,1,0,100,0,1
120627,-111.111115,7,1,0,90,0,0
120927,-83.33333,7,1,0,100,0,1
120973,-84.29781,7,1,0,100,0,1
121048,-85.31435,7,1,0,100,0,1
121123,-86.34315,7,1,0,100,0,1
121198,-87.38435,7,1,0,100,0,1
121348,-89.50457,7,1,0,100,0,1
121498,-91.67623,7,1,0,100,0,1
121573,-92.781746,7,1,0,100,0,1
121648,-93.9006,7,1,0,100,0,1
121723,-95.03293,7,1,0,100,0,1
121798,-96.17892,7,1,0,100,0,1
121948,-98.51253,7,1,0,100,0,1
122098,-100.90276,7,1,0,100,0,1
122173,-102.11953,7,1,0,100,0,1
122248,-103.350975,7,1,0,100,0,1
122323,-104.59727,7,1,0,100,0,1
122398,-105.8586,7,1,0,100,0,1
122548,-108.42707,7,1,0,100,0,1
122623,-109.73457,7,1,0,100,0,1
122727,-111.111115,7,1,0,90,0,0
123027,-76.92308,7,1,0,100,0,1
123148,-79.26818,7,1,0,100,0,1
123223,-80.492065,7,1,0,100,0,1
123298,-81.73485,7,1,0,100,0,1
123448,-84.27828,7,1,0,100,0,1
123598,-86.90086,7,1,0,100,0,1
123673,-88.2426,7,1,0,100,0,1
123748,-89.60505,7,1,0,100,0,1
123823,-90.98855,7,1,0,100,0,1
123898,-92.39339,7,1,0,100,0,1
124048,-95.26849,7,1,0,100,0,1
124198,-98.23307,7,1,0,100,0,1
124273,-99.74978,7,1,0,100,0,1
124348,-101.289894,7,1,0,100,0,1
124423,-102.8538,7,1,0,100,0,1
124498,-104.44183,7,1,0,100,0,1
124648,-107.69187,7,1,0,100,0,1
124723,-109.35461,7,1,0,100,0,1
124827,-111.111115,7,1,0,90,0,0
125127,-76.92308,7,1,0,100,0,1
125248,-79.26818,7,1,0,100,0,1
125323,-80.492065,7,1,0,100,0,1
125398,-81.73485,7,1,0,100,0,1
125548,-84.27828,7,1,0,100,0,1
125698,-86.90086,7,1,0,100,0,1
125773,-88.2426,7,1,0,100,0,1
125848,-89.60505,7,1,0,100,0,1
125923,-90.98855,7,1,0,100,0,1
125998,-92.39339,7,1,0,100,0,1
126148,-95.26849,7,1,0,100,0,1
126298,-98.23307,7,1,0,100,0,1
126373,-99.74978,7,1,0,100,0,1
126448,-101.289894,7,1,0,100,0,1
126523,-102.8538,7,1,0,100,0,1
126598,-104.44183,7,1,0,100,0,1
126748,-107.69187,7,1,0,100,0,1
126823,-109.35461,7,1,0,100,0,1
126927,-111.111115,7,1,0,90,0,0
127227,300,4,1,0,80,1,0
127227,-76.9230769230769,4,1,0,80,0,0
127951,-100,4,1,0,80,0,0
128251,-76.9230769230769,4,1,0,80,0,0
128401,-100,4,1,0,80,0,0
128701,-76.9230769230769,4,1,0,80,0,0
128776,-100,4,1,0,80,0,0
129001,-76.9230769230769,4,1,0,80,0,0
129076,-100,4,1,0,80,0,0
129777,-83.33333,4,1,0,100,0,1
129898,-86.103905,4,1,0,100,0,1
129973,-87.55276,4,1,0,100,0,1
130048,-89.02598,4,1,0,100,0,1
130198,-92.04723,4,1,0,100,0,1
130348,-95.17101,4,1,0,100,0,1
130423,-96.77242,4,1,0,100,0,1
130498,-98.40079,4,1,0,100,0,1
130648,-101.74019,4,1,0,100,0,1
130827,-90.9090909090909,4,1,0,90,0,0
131701,-111.111111111111,4,1,0,90,0,0
132027,-95.2380952380952,7,1,0,100,0,1
141027,-83.3333333333333,4,1,0,100,0,0
141627,-76.9230769230769,4,1,0,100,0,1
141676,-95.2380952380952,4,1,0,100,0,1
146401,-83.33333,4,1,0,100,0,1
146548,-85.220245,4,1,0,100,0,1
146623,-86.19935,4,1,0,100,0,1
146698,-87.18971,4,1,0,100,0,1
146848,-89.20469,4,1,0,100,0,1
146998,-91.26624,4,1,0,100,0,1
147073,-92.31481,4,1,0,100,0,1
147148,-93.37542,4,1,0,100,0,1
147223,-94.448235,4,1,0,100,0,1
147298,-95.53336,4,1,0,100,0,1
147448,-97.741165,4,1,0,100,0,1
147598,-100,4,1,0,100,0,1
147901,-76.9230769230769,4,1,0,100,0,1
148501,-80,4,1,0,100,0,1
148827,-83.33333,4,1,0,100,0,0
149098,-89.10915,4,1,0,80,0,0
149248,-92.17668,4,1,0,80,0,0
149548,-98.63217,4,1,0,80,0,0
149698,-102.027534,4,1,0,80,0,0
149998,-109.17292,4,1,0,80,0,0
150148,-112.93114,4,1,0,80,0,0
150448,-120.84013,4,1,0,80,0,0
150598,-125,4,1,0,80,0,0
151198,-83.33333,4,1,0,80,0,0
151498,-88.302826,4,1,0,80,0,0
151648,-90.89763,4,1,0,80,0,0
151948,-96.31823,4,1,0,80,0,0
152098,-99.14857,4,1,0,80,0,0
152398,-105.06118,4,1,0,80,0,0
152548,-108.148445,4,1,0,80,0,0
152848,-114.59776,4,1,0,80,0,0
152998,-117.965256,4,1,0,80,0,0
153148,-121.43168,4,1,0,80,0,0
153298,-125,4,1,0,80,0,0
153601,-100,7,1,0,80,0,0
155398,-104.166666666667,7,1,0,60,0,0
155548,-108.695652173913,7,1,0,60,0,0
155698,-113.636363636364,7,1,0,60,0,0
155848,-119.047619047619,7,1,0,60,0,0
155998,-105.26316,4,1,0,80,0,0
156148,-103.528824,4,1,0,80,0,0
156223,-102.672386,4,1,0,80,0,0
156298,-101.823044,4,1,0,80,0,0
156448,-100.145386,4,1,0,80,0,0
156523,-99.31694,4,1,0,80,0,0
156598,-98.49537,4,1,0,80,0,0
156748,-96.87252,4,1,0,80,0,0
156898,-95.27642,4,1,0,80,0,0
156973,-94.48828,4,1,0,80,0,0
157048,-93.70663,4,1,0,80,0,0
157123,-92.93145,4,1,0,80,0,0
157198,-92.1627,4,1,0,80,0,0
157348,-90.644196,4,1,0,80,0,0
157423,-89.894356,4,1,0,80,0,0
157498,-89.15073,4,1,0,80,0,0
157648,-87.68186,4,1,0,80,0,0
157723,-86.95652,4,1,0,80,0,0
158101,-125,7,1,0,70,0,0
158427,-80,4,1,0,100,0,1
158473,-80.92025,4,1,0,100,0,1
158548,-82.44341,4,1,0,100,0,1
158698,-85.57629,4,1,0,100,0,1
158848,-88.82822,4,1,0,100,0,1
158923,-90.50024,4,1,0,100,0,1
158998,-92.20371,4,1,0,100,0,1
159073,-93.93927,4,1,0,100,0,1
159148,-95.70749,4,1,0,100,0,1
159298,-76.92308,4,1,0,100,0,1
159373,-78.71146,4,1,0,100,0,1
159448,-80.54141,4,1,0,100,0,1
159598,-84.329956,4,1,0,100,0,1
159748,-88.29669,4,1,0,100,0,1
159823,-90.3495,4,1,0,100,0,1
159898,-92.450035,4,1,0,100,0,1
159973,-94.599396,4,1,0,100,0,1
160048,-96.79873,4,1,0,100,0,1
160198,-101.35199,4,1,0,100,0,1
160348,-106.11942,4,1,0,100,0,1
160498,-83.33333,4,1,0,100,0,1
160573,-84.288345,4,1,0,100,0,1
160648,-85.25432,4,1,0,100,0,1
160723,-86.23135,4,1,0,100,0,1
160798,-87.21959,4,1,0,100,0,1
160948,-89.23016,4,1,0,100,0,1
161023,-90.25277,4,1,0,100,0,1
161098,-91.28709,4,1,0,100,0,1
161248,-93.39143,4,1,0,100,0,1
161398,-95.54428,4,1,0,100,0,1
161548,-97.74676,4,1,0,100,0,1
161698,-80,4,1,0,100,0,1
161773,-81.47343,4,1,0,100,0,1
161848,-82.97398,4,1,0,100,0,1
161923,-84.502174,4,1,0,100,0,1
161998,-86.058525,4,1,0,100,0,1
162148,-89.25773,4,1,0,100,0,1
162223,-90.90165,4,1,0,100,0,1
162298,-92.57586,4,1,0,100,0,1
162448,-96.01736,4,1,0,100,0,1
162598,-99.58677,4,1,0,100,0,1
162673,-101.42094,4,1,0,100,0,1
162748,-103.28888,4,1,0,100,0,1
162823,-105.19123,4,1,0,100,0,1
162898,-107.128624,4,1,0,100,0,1
163048,-111.111115,4,1,0,100,0,1
163198,-83.3333333333333,7,1,0,100,0,1
163498,-100,4,1,0,100,0,1
163648,-97.00702,4,1,0,100,0,1
163723,-95.54428,4,1,0,100,0,1
163798,-94.10361,4,1,0,100,0,1
163948,-91.28709,4,1,0,100,0,1
164023,-89.91061,4,1,0,100,0,1
164098,-88.55488,4,1,0,100,0,1
164248,-85.90444,4,1,0,100,0,1
164398,-83.33333,4,1,0,100,0,1
164473,-84.559,4,1,0,100,0,1
164548,-85.8027,4,1,0,100,0,1
164698,-88.34524,4,1,0,100,0,1
164848,-90.96312,4,1,0,100,0,1
164923,-92.30102,4,1,0,100,0,1
164998,-93.65858,4,1,0,100,0,1
165148,-96.433914,4,1,0,100,0,1
165223,-97.85226,4,1,0,100,0,1
165298,-99.29148,4,1,0,100,0,1
165448,-102.23372,4,1,0,100,0,1
165598,-105.26316,4,1,0,100,0,1
165748,-103.222244,4,1,0,100,0,1
165823,-102.21667,4,1,0,100,0,1
165898,-101.2209,4,1,0,100,0,1
166048,-99.25836,4,1,0,100,0,1
166198,-97.33386,4,1,0,100,0,1
166273,-96.38565,4,1,0,100,0,1
166348,-95.446686,4,1,0,100,0,1
166423,-94.51686,4,1,0,100,0,1
166498,-93.59611,4,1,0,100,0,1
166648,-91.78139,4,1,0,100,0,1
166798,-90.00188,4,1,0,100,0,1
166873,-89.12509,4,1,0,100,0,1
166948,-88.25685,4,1,0,100,0,1
167023,-87.39707,4,1,0,100,0,1
167098,-86.54567,4,1,0,100,0,1
167248,-84.86766,4,1,0,100,0,1
167398,-83.22219,4,1,0,100,0,1
167473,-82.41146,4,1,0,100,0,1
167548,-81.60862,4,1,0,100,0,1
167623,-80.81361,4,1,0,100,0,1
167698,-80.02633,4,1,0,100,0,1
167848,-78.47473,4,1,0,100,0,1
168027,-76.92308,4,1,0,80,0,0
177298,-71.4285714285714,7,1,0,60,0,0
177598,-100,4,1,0,60,0,0
177898,-102.25424,4,1,0,60,0,0
178198,-104.55932,4,1,0,60,0,0
178498,-106.91635,4,1,0,60,0,0
178798,-109.326515,4,1,0,60,0,0
179098,-111.791,4,1,0,60,0,0
179398,-114.31106,4,1,0,60,0,0
179698,-116.88792,4,1,0,60,0,0
179998,-119.52286,4,1,0,60,0,0
180298,-122.21722,4,1,0,60,0,0
180598,-124.97229,4,1,0,60,0,0
180898,-127.78947,4,1,0,60,0,0
181198,-130.67018,4,1,0,60,0,0
181498,-133.61581,4,1,0,60,0,0
181798,-136.62784,4,1,0,60,0,0
182098,-139.70778,4,1,0,60,0,0
182398,-76.9230789940828,4,1,0,80,0,0
186001,-142.857142857143,7,1,0,70,0,0
186601,-90.9090909090909,7,1,0,80,0,0
187201,-76.9230769230769,7,1,0,80,0,0
187351,-100,7,1,0,80,0,0
187651,-76.9230769230769,7,1,0,80,0,0
187948,-90.90909,4,1,0,80,0,0
188023,-92.364716,4,1,0,80,0,0
188098,-93.84364,4,1,0,80,0,0
188173,-95.34625,4,1,0,80,0,0
188248,-96.87293,4,1,0,80,0,0
188398,-100,4,1,0,80,0,0
188998,-76.92308,4,1,0,80,0,0
189148,-79.48763,4,1,0,80,0,0
189298,-82.13769,4,1,0,80,0,0
189448,-84.8761,4,1,0,80,0,0
189598,-87.7058,4,1,0,80,0,0
189673,-89.15584,4,1,0,80,0,0
189748,-90.629845,4,1,0,80,0,0
189823,-92.12822,4,1,0,80,0,0
189898,-93.65137,4,1,0,80,0,0
190048,-96.773636,4,1,0,80,0,0
190198,-76.9230769230769,4,1,0,80,0,0
191098,-111.111115,4,1,0,90,0,0
191248,-108.23066,4,1,0,90,0,0
191398,-105.42488,4,1,0,90,0,0
191698,-100.02963,4,1,0,90,0,0
191848,-97.43645,4,1,0,90,0,0
191998,-94.91051,4,1,0,90,0,0
192148,-92.450035,4,1,0,90,0,0
192298,-90.053345,4,1,0,90,0,0
192448,-87.718796,4,1,0,90,0,0
192598,-85.44476,4,1,0,90,0,0
192748,-83.22969,4,1,0,90,0,0
192898,-81.07203,4,1,0,90,0,0
193048,-78.970314,4,1,0,90,0,0
193198,-76.92308,4,1,0,90,0,0
194401,-133.333333333333,7,1,0,80,0,0
195598,-95.2381,4,1,0,90,0,0
195748,-92.982056,4,1,0,90,0,0
195898,-90.77946,4,1,0,90,0,0
196048,-88.629036,4,1,0,90,0,0
196198,-86.52955,4,1,0,90,0,0
196348,-84.479805,4,1,0,90,0,0
196423,-83.473206,4,1,0,90,0,0
196498,-82.478615,4,1,0,90,0,0
196648,-80.52481,4,1,0,90,0,0
196798,-78.61731,4,1,0,90,0,0
196873,-77.68056,4,1,0,90,0,0
196948,-76.755,4,1,0,90,0,0
197023,-75.84044,4,1,0,90,0,0
197098,-74.93679,4,1,0,90,0,0
197248,-73.16166,4,1,0,90,0,0
197398,-71.42857,4,1,0,90,0,0
197577,-142.857142857143,7,1,0,10,0,0
199227,-95.2380952380952,7,1,0,100,0,1
208227,-83.3333333333333,4,1,0,100,0,0
208827,-76.9230769230769,4,1,0,100,0,1
208876,-95.2380952380952,4,1,0,100,0,1
215998,-76.92308,4,1,0,100,0,1
216298,-73.621925,4,1,0,100,0,1
216598,-70.46245,4,1,0,100,0,1
216898,-67.43856,4,1,0,100,0,1
217227,-64.51613,4,1,0,80,0,0
217501,-111.111111111111,7,1,0,70,0,0
218427,-76.9230769230769,7,1,0,90,0,1
218551,-95.2380952380952,7,1,0,90,0,1
227251,-94.500084,4,1,0,90,0,1
227401,-93.7678,4,1,0,90,0,1
227476,-93.40378,4,1,0,90,0,1
227551,-93.04118,4,1,0,90,0,1
227626,-92.67999,4,1,0,90,0,1
227701,-92.3202,4,1,0,90,0,1
227851,-91.604805,4,1,0,90,0,1
227998,-90.90909,4,1,0,90,0,1
237627,-86.9565217391304,7,1,0,90,0,0
237751,-125,4,1,0,40,0,8
245701,-111.111111111111,4,1,0,80,0,8

[HitObjects]
256,192,628,5,0,0:0:0:0:
256,192,778,1,0,0:0:0:0:
256,192,853,1,0,0:0:0:0:
256,192,928,1,0,0:0:0:0:
256,192,1078,1,0,0:0:0:0:
256,192,1227,1,8,0:0:0:0:
256,192,1527,1,0,0:0:0:0:
256,192,1677,1,0,0:0:0:0:
256,192,1827,1,8,0:0:0:0:
256,192,1977,1,8,0:0:0:0:
256,192,2127,1,0,0:0:0:0:
256,192,2427,1,8,0:0:0:0:
256,192,2727,1,0,0:0:0:0:
256,192,2877,1,8,0:0:0:0:
256,192,3027,1,0,0:0:0:0:
256,192,3177,1,0,0:0:0:0:
256,192,3327,1,8,0:0:0:0:
256,192,3627,1,0,0:0:0:0:
256,192,3927,1,8,0:0:0:0:
256,192,4077,1,0,0:0:0:0:
256,192,4227,1,8,0:0:0:0:
256,192,4377,1,8,0:0:0:0:
256,192,4527,1,0,0:0:0:0:
256,192,4827,1,8,0:0:0:0:
256,192,5127,1,0,0:0:0:0:
256,192,5277,1,8,0:0:0:0:
256,192,5427,1,0,0:0:0:0:
256,192,5577,1,8,0:0:0:0:
256,192,5652,1,8,0:0:0:0:
256,192,5727,1,0,0:0:0:0:
256,192,6027,1,8,0:0:0:0:
256,192,6327,1,8,0:0:0:0:
256,192,6477,1,0,0:0:0:0:
256,192,6627,1,8,0:0:0:0:
256,192,6777,1,0,0:0:0:0:
256,192,6927,1,0,0:0:0:0:
256,192,7227,1,8,0:0:0:0:
256,192,7527,1,0,0:0:0:0:
256,192,7677,1,8,0:0:0:0:
256,192,7827,1,0,0:0:0:0:
256,192,7977,1,8,0:0:0:0:
256,192,8127,1,0,0:0:0:0:
256,192,8427,1,8,0:0:0:0:
256,192,8727,1,0,0:0:0:0:
256,192,8877,1,0,0:0:0:0:
256,192,9027,1,8,0:0:0:0:
256,192,9177,1,8,0:0:0:0:
256,192,9327,1,0,0:0:0:0:
256,192,9627,1,4,0:0:0:0:
256,192,9927,1,4,0:0:0:0:
256,192,10227,1,4,0:0:0:0:
256,192,10527,1,8,0:0:0:0:
256,192,10677,1,0,0:0:0:0:
256,192,10827,1,12,0:0:0:0:
256,192,11127,1,8,0:0:0:0:
256,192,11277,1,0,0:0:0:0:
256,192,11352,1,0,0:0:0:0:
256,192,11427,1,0,0:0:0:0:
256,192,11577,1,0,0:0:0:0:
256,192,11727,1,8,0:0:0:0:
256,192,11877,1,0,0:0:0:0:
256,192,12027,1,8,0:0:0:0:
256,192,12102,1,8,0:0:0:0:
256,192,12177,1,0,0:0:0:0:
256,192,12252,1,0,0:0:0:0:
256,192,12327,1,8,0:0:0:0:
256,192,12477,1,0,0:0:0:0:
256,192,12627,1,8,0:0:0:0:
256,192,12927,1,8,0:0:0:0:
256,192,13077,1,8,0:0:0:0:
256,192,13227,1,0,0:0:0:0:
256,192,13527,1,8,0:0:0:0:
256,192,13677,1,0,0:0:0:0:
256,192,13752,1,0,0:0:0:0:
256,192,13827,1,8,0:0:0:0:
256,192,13977,1,0,0:0:0:0:
256,192,14127,1,8,0:0:0:0:
256,192,14277,1,8,0:0:0:0:
256,192,14427,1,0,0:0:0:0:
256,192,14502,1,0,0:0:0:0:
256,192,14577,1,0,0:0:0:0:
256,192,14652,1,0,0:0:0:0:
256,192,14727,1,8,0:0:0:0:
256,192,14877,1,0,0:0:0:0:
256,192,15027,1,0,0:0:0:0:
256,192,15177,1,8,0:0:0:0:
256,192,15327,1,8,0:0:0:0:
256,192,15627,1,0,0:0:0:0:
256,192,15927,1,8,0:0:0:0:
256,192,16077,1,0,0:0:0:0:
256,192,16227,1,8,0:0:0:0:
256,192,16527,1,8,0:0:0:0:
256,192,16677,1,0,0:0:0:0:
256,192,16827,1,8,0:0:0:0:
256,192,16902,1,8,0:0:0:0:
256,192,16977,1,0,0:0:0:0:
256,192,17052,1,0,0:0:0:0:
256,192,17127,1,8,0:0:0:0:
256,192,17277,1,0,0:0:0:0:
256,192,17427,1,8,0:0:0:0:
256,192,17727,1,8,0:0:0:0:
256,192,17877,1,0,0:0:0:0:
256,192,18027,1,0,0:0:0:0:
256,192,18327,1,8,0:0:0:0:
256,192,18477,1,0,0:0:0:0:
256,192,18552,1,0,0:0:0:0:
256,192,18627,1,8,0:0:0:0:
256,192,18777,1,0,0:0:0:0:
256,192,18927,1,8,0:0:0:0:
256,192,19002,1,8,0:0:0:0:
256,192,19077,1,8,0:0:0:0:
256,192,19152,1,8,0:0:0:0:
256,192,19227,1,0,0:0:0:0:
256,192,19377,1,0,0:0:0:0:
256,192,19527,1,8,0:0:0:0:
256,192,19677,1,8,0:0:0:0:
256,192,19827,1,0,0:0:0:0:
256,192,19902,1,0,0:0:0:0:
256,192,19977,1,0,0:0:0:0:
256,192,20052,1,0,0:0:0:0:
256,192,20127,1,8,0:0:0:0:
256,192,20277,1,8,0:0:0:0:
256,192,20427,1,4,0:0:0:0:
256,192,20727,1,8,0:0:0:0:
256,192,20877,1,0,0:0:0:0:
256,192,20952,1,0,0:0:0:0:
256,192,21027,1,0,0:0:0:0:
256,192,21177,1,0,0:0:0:0:
256,192,21327,1,8,0:0:0:0:
256,192,21477,1,0,0:0:0:0:
256,192,21627,1,8,0:0:0:0:
256,192,21702,1,8,0:0:0:0:
256,192,21777,1,0,0:0:0:0:
256,192,21852,1,0,0:0:0:0:
256,192,21927,1,8,0:0:0:0:
256,192,22077,1,8,0:0:0:0:
256,192,22227,1,0,0:0:0:0:
256,192,22527,1,8,0:0:0:0:
256,192,22677,1,0,0:0:0:0:
256,192,22827,1,0,0:0:0:0:
256,192,23127,1,8,0:0:0:0:
256,192,23277,1,0,0:0:0:0:
256,192,23352,1,0,0:0:0:0:
256,192,23427,1,8,0:0:0:0:
256,192,23577,1,0,0:0:0:0:
256,192,23727,1,8,0:0:0:0:
256,192,23877,1,8,0:0:0:0:
256,192,24027,1,0,0:0:0:0:
256,192,24102,1,8,0:0:0:0:
256,192,24177,1,0,0:0:0:0:
256,192,24252,1,0,0:0:0:0:
256,192,24327,1,8,0:0:0:0:
256,192,24477,1,0,0:0:0:0:
256,192,24627,1,0,0:0:0:0:
256,192,24777,1,8,0:0:0:0:
256,192,24927,1,8,0:0:0:0:
256,192,25227,1,0,0:0:0:0:
256,192,25527,1,8,0:0:0:0:
256,192,25677,1,0,0:0:0:0:
256,192,25827,1,8,0:0:0:0:
256,192,26127,1,8,0:0:0:0:
256,192,26277,1,0,0:0:0:0:
256,192,26427,1,8,0:0:0:0:
256,192,26502,1,8,0:0:0:0:
256,192,26577,1,0,0:0:0:0:
256,192,26652,1,0,0:0:0:0:
256,192,26727,1,8,0:0:0:0:
256,192,26877,1,0,0:0:0:0:
256,192,27027,1,8,0:0:0:0:
256,192,27327,1,8,0:0:0:0:
256,192,27477,1,8,0:0:0:0:
256,192,27627,1,0,0:0:0:0:
256,192,27927,1,8,0:0:0:0:
256,192,28077,1,0,0:0:0:0:
256,192,28152,1,0,0:0:0:0:
256,192,28227,1,0,0:0:0:0:
256,192,28377,1,0,0:0:0:0:
256,192,28527,1,8,0:0:0:0:
256,192,28677,1,0,0:0:0:0:
256,192,28752,1,0,0:0:0:0:
256,192,28827,1,8,0:0:0:0:
256,192,28977,1,0,0:0:0:0:
256,192,29127,1,8,0:0:0:0:
256,192,29277,1,8,0:0:0:0:
256,192,29427,1,0,0:0:0:0:
256,192,29502,1,0,0:0:0:0:
256,192,29577,1,0,0:0:0:0:
256,192,29652,1,0,0:0:0:0:
256,192,29727,1,8,0:0:0:0:
256,192,29877,1,8,0:0:0:0:
256,192,30027,1,4,0:0:0:0:
256,192,30327,1,8,0:0:0:0:
256,192,30477,1,0,0:0:0:0:
256,192,30627,1,0,0:0:0:0:
256,192,30777,1,0,0:0:0:0:
256,192,30927,1,8,0:0:0:0:
256,192,31227,1,0,0:0:0:0:
256,192,31527,1,8,0:0:0:0:
256,192,31677,1,0,0:0:0:0:
256,192,31752,1,0,0:0:0:0:
256,192,31827,1,8,0:0:0:0:
256,192,31977,1,0,0:0:0:0:
256,192,32127,1,8,0:0:0:0:
256,192,32277,1,8,0:0:0:0:
256,192,32427,1,0,0:0:0:0:
256,192,32727,1,8,0:0:0:0:
256,192,32877,1,0,0:0:0:0:
256,192,33027,1,8,0:0:0:0:
256,192,33177,1,0,0:0:0:0:
256,192,33327,1,8,0:0:0:0:
256,192,33627,1,0,0:0:0:0:
256,192,33927,1,8,0:0:0:0:
256,192,34077,1,0,0:0:0:0:
256,192,34152,1,0,0:0:0:0:
256,192,34227,1,8,0:0:0:0:
256,192,34377,1,0,0:0:0:0:
256,192,34527,1,8,0:0:0:0:
256,192,34827,1,0,0:0:0:0:
256,192,35127,1,8,0:0:0:0:
256,192,35277,1,8,0:0:0:0:
256,192,35427,1,0,0:0:0:0:
256,192,35577,1,0,0:0:0:0:
256,192,35727,1,8,0:0:0:0:
256,192,36027,1,0,0:0:0:0:
256,192,36327,1,8,0:0:0:0:
256,192,36477,1,0,0:0:0:0:
256,192,36552,1,0,0:0:0:0:
256,192,36627,1,8,0:0:0:0:
256,192,36777,1,0,0:0:0:0:
256,192,36927,1,8,0:0:0:0:
256,192,37227,1,0,0:0:0:0:
256,192,37527,1,8,0:0:0:0:
256,192,37677,1,0,0:0:0:0:
256,192,37827,1,8,0:0:0:0:
256,192,37977,1,0,0:0:0:0:
256,192,38127,1,8,0:0:0:0:
256,192,38427,1,0,0:0:0:0:
256,192,39027,1,8,0:0:0:0:
256,192,39177,1,0,0:0:0:0:
256,192,39252,1,0,0:0:0:0:
256,192,39327,1,8,0:0:0:0:
256,192,39477,1,0,0:0:0:0:
256,192,39627,1,12,0:0:0:0:
256,192,39927,1,8,0:0:0:0:
256,192,40152,1,0,0:0:0:0:
256,192,40227,1,0,0:0:0:0:
256,192,40377,1,0,0:0:0:0:
256,192,40527,1,8,0:0:0:0:
256,192,40827,1,0,0:0:0:0:
256,192,41127,1,8,0:0:0:0:
256,192,41277,1,0,0:0:0:0:
256,192,41352,1,0,0:0:0:0:
256,192,41427,1,0,0:0:0:0:
256,192,41577,1,8,0:0:0:0:
256,192,41727,1,8,0:0:0:0:
256,192,41877,1,8,0:0:0:0:
256,192,42027,1,0,0:0:0:0:
256,192,42327,1,8,0:0:0:0:
256,192,42477,1,0,0:0:0:0:
256,192,42552,1,0,0:0:0:0:
256,192,42627,1,8,0:0:0:0:
256,192,42777,1,0,0:0:0:0:
256,192,42927,1,8,0:0:0:0:
256,192,43227,1,0,0:0:0:0:
256,192,43527,1,8,0:0:0:0:
256,192,43677,1,8,0:0:0:0:
256,192,43827,1,4,0:0:0:0:
256,192,44127,1,4,0:0:0:0:
256,192,44427,1,8,0:0:0:0:
256,192,44727,1,8,0:0:0:0:
256,192,44877,1,8,0:0:0:0:
256,192,44952,1,8,0:0:0:0:
256,192,45027,1,0,0:0:0:0:
256,192,45177,1,0,0:0:0:0:
256,192,45327,1,8,0:0:0:0:
256,192,45627,1,0,0:0:0:0:
256,192,45927,1,8,0:0:0:0:
256,192,46077,1,0,0:0:0:0:
256,192,46152,1,0,0:0:0:0:
256,192,46227,1,8,0:0:0:0:
256,192,46377,1,0,0:0:0:0:
256,192,46527,1,8,0:0:0:0:
256,192,46827,1,0,0:0:0:0:
256,192,47127,1,8,0:0:0:0:
256,192,47277,1,0,0:0:0:0:
256,192,47352,1,0,0:0:0:0:
256,192,47427,1,0,0:0:0:0:
256,192,47577,1,8,0:0:0:0:
256,192,47727,1,8,0:0:0:0:
256,192,48027,1,0,0:0:0:0:
256,192,48177,1,8,0:0:0:0:
256,192,48252,1,8,0:0:0:0:
256,192,48327,1,8,0:0:0:0:
256,192,48477,1,0,0:0:0:0:
256,192,48627,1,0,0:0:0:0:
256,192,48777,1,8,0:0:0:0:
256,192,48927,1,8,0:0:0:0:
256,192,49077,1,8,0:0:0:0:
256,192,49227,1,4,0:0:0:0:
256,192,49527,1,8,0:0:0:0:
256,192,49827,1,0,0:0:0:0:
256,192,50127,1,8,0:0:0:0:
256,192,50277,1,0,0:0:0:0:
256,192,50577,1,8,0:0:0:0:
256,192,50727,1,0,0:0:0:0:
256,192,50877,1,0,0:0:0:0:
256,192,51027,1,8,0:0:0:0:
256,192,51477,1,8,0:0:0:0:
256,192,51627,1,0,0:0:0:0:
256,192,51777,1,0,0:0:0:0:
256,192,51927,1,8,0:0:0:0:
256,192,52077,1,0,0:0:0:0:
256,192,52227,1,8,0:0:0:0:
256,192,52527,1,8,0:0:0:0:
256,192,52677,1,8,0:0:0:0:
256,192,52827,1,0,0:0:0:0:
256,192,53127,1,8,0:0:0:0:
256,192,53427,1,0,0:0:0:0:
256,192,53577,1,0,0:0:0:0:
256,192,53652,1,0,0:0:0:0:
256,192,53727,1,8,0:0:0:0:
256,192,54027,1,0,0:0:0:0:
256,192,54327,1,8,0:0:0:0:
256,192,54477,1,8,0:0:0:0:
256,192,54627,1,0,0:0:0:0:
256,192,54927,1,8,0:0:0:0:
256,192,55077,1,0,0:0:0:0:
256,192,55377,1,8,0:0:0:0:
256,192,55677,1,8,0:0:0:0:
256,192,55827,1,0,0:0:0:0:
256,192,55977,1,0,0:0:0:0:
256,192,56127,1,8,0:0:0:0:
256,192,56277,1,0,0:0:0:0:
256,192,56427,1,12,0:0:0:0:
256,192,56727,1,8,0:0:0:0:
256,192,56877,1,0,0:0:0:0:
256,192,56952,1,0,0:0:0:0:
256,192,57027,1,8,0:0:0:0:
256,192,57177,1,0,0:0:0:0:
256,192,57327,1,8,0:0:0:0:
256,192,57402,1,8,0:0:0:0:
256,192,57477,1,8,0:0:0:0:
256,192,57627,1,4,0:0:0:0:
256,192,57927,1,4,0:0:0:0:
256,192,58227,1,4,0:0:0:0:
256,192,58827,1,12,0:0:0:0:
256,192,59127,1,8,0:0:0:0:
256,192,59277,1,0,0:0:0:0:
256,192,59352,1,0,0:0:0:0:
256,192,59427,1,0,0:0:0:0:
256,192,59577,1,0,0:0:0:0:
256,192,59727,1,8,0:0:0:0:
256,192,59802,1,8,0:0:0:0:
256,192,59877,1,0,0:0:0:0:
256,192,59952,1,0,0:0:0:0:
256,192,60027,1,8,0:0:0:0:
256,192,60177,1,0,0:0:0:0:
256,192,60327,1,8,0:0:0:0:
256,192,60402,1,8,0:0:0:0:
256,192,60477,1,8,0:0:0:0:
256,192,60552,1,8,0:0:0:0:
256,192,60627,1,0,0:0:0:0:
256,192,60777,1,8,0:0:0:0:
256,192,60852,1,0,0:0:0:0:
256,192,60927,1,8,0:0:0:0:
256,192,61077,1,8,0:0:0:0:
256,192,61227,1,0,0:0:0:0:
256,192,61527,1,8,0:0:0:0:
256,192,61677,1,8,0:0:0:0:
256,192,61752,1,8,0:0:0:0:
256,192,61827,1,0,0:0:0:0:
256,192,61977,1,0,0:0:0:0:
256,192,62127,1,8,0:0:0:0:
256,192,62202,1,0,0:0:0:0:
256,192,62277,1,8,0:0:0:0:
256,192,62352,1,8,0:0:0:0:
256,192,62427,1,0,0:0:0:0:
256,192,62577,1,0,0:0:0:0:
256,192,62727,1,8,0:0:0:0:
256,192,62802,1,8,0:0:0:0:
256,192,62877,1,8,0:0:0:0:
256,192,62952,1,8,0:0:0:0:
256,192,63027,1,0,0:0:0:0:
256,192,63177,1,8,0:0:0:0:
256,192,63327,1,8,0:0:0:0:
256,192,63627,1,0,0:0:0:0:
256,192,63702,1,0,0:0:0:0:
256,192,63777,1,0,0:0:0:0:
256,192,63927,1,8,0:0:0:0:
256,192,64077,1,8,0:0:0:0:
256,192,64227,1,0,0:0:0:0:
256,192,64302,1,0,0:0:0:0:
256,192,64377,1,0,0:0:0:0:
256,192,64527,1,8,0:0:0:0:
256,192,64827,1,8,0:0:0:0:
256,192,64902,1,8,0:0:0:0:
256,192,64977,1,0,0:0:0:0:
256,192,65127,1,8,0:0:0:0:
256,192,65277,1,8,0:0:0:0:
256,192,65427,1,0,0:0:0:0:
256,192,65502,1,0,0:0:0:0:
256,192,65577,1,0,0:0:0:0:
256,192,65727,1,8,0:0:0:0:
256,192,66027,1,0,0:0:0:0:
256,192,66102,1,0,0:0:0:0:
256,192,66177,1,0,0:0:0:0:
256,192,66252,1,0,0:0:0:0:
256,192,66327,1,8,0:0:0:0:
256,192,66477,1,0,0:0:0:0:
256,192,66627,1,8,0:0:0:0:
256,192,66702,1,8,0:0:0:0:
256,192,66777,1,0,0:0:0:0:
256,192,66927,1,8,0:0:0:0:
256,192,67077,1,8,0:0:0:0:
256,192,67227,1,0,0:0:0:0:
256,192,67302,1,8,0:0:0:0:
256,192,67377,1,0,0:0:0:0:
256,192,67452,1,0,0:0:0:0:
256,192,67527,1,8,0:0:0:0:
256,192,67677,1,8,0:0:0:0:
256,192,67827,1,4,0:0:0:0:
256,192,68127,1,4,0:0:0:0:
256,192,68427,1,12,0:0:0:0:
256,192,68727,1,8,0:0:0:0:
256,192,68877,1,0,0:0:0:0:
256,192,68952,1,0,0:0:0:0:
256,192,69027,1,8,0:0:0:0:
256,192,69102,1,8,0:0:0:0:
256,192,69177,1,0,0:0:0:0:
256,192,69327,1,8,0:0:0:0:
256,192,69477,1,0,0:0:0:0:
256,192,69627,1,8,0:0:0:0:
256,192,69702,1,8,0:0:0:0:
256,192,69777,1,0,0:0:0:0:
256,192,69927,1,8,0:0:0:0:
256,192,70002,1,8,0:0:0:0:
256,192,70077,1,0,0:0:0:0:
256,192,70152,1,0,0:0:0:0:
256,192,70227,1,8,0:0:0:0:
256,192,70377,1,0,0:0:0:0:
256,192,70452,1,0,0:0:0:0:
256,192,70527,1,8,0:0:0:0:
256,192,70677,1,0,0:0:0:0:
256,192,70827,1,0,0:0:0:0:
256,192,71127,1,8,0:0:0:0:
256,192,71277,1,0,0:0:0:0:
256,192,71352,1,8,0:0:0:0:
256,192,71427,1,0,0:0:0:0:
256,192,71502,1,8,0:0:0:0:
256,192,71577,1,0,0:0:0:0:
256,192,71727,1,8,0:0:0:0:
256,192,71877,1,0,0:0:0:0:
256,192,71952,1,0,0:0:0:0:
256,192,72027,1,8,0:0:0:0:
256,192,72177,1,0,0:0:0:0:
256,192,72327,1,8,0:0:0:0:
256,192,72402,1,8,0:0:0:0:
256,192,72477,1,8,0:0:0:0:
256,192,72552,1,8,0:0:0:0:
256,192,72627,1,0,0:0:0:0:
256,192,72777,1,8,0:0:0:0:
256,192,72852,1,0,0:0:0:0:
256,192,72927,1,8,0:0:0:0:
256,192,73077,1,0,0:0:0:0:
256,192,73227,1,12,0:0:0:0:
256,192,73377,1,0,0:0:0:0:
256,192,73452,1,0,0:0:0:0:
256,192,73527,1,8,0:0:0:0:
256,192,73677,1,0,0:0:0:0:
256,192,73827,1,8,0:0:0:0:
256,192,73902,1,8,0:0:0:0:
256,192,73977,1,0,0:0:0:0:
256,192,74052,1,0,0:0:0:0:
256,192,74127,1,8,0:0:0:0:
256,192,74277,1,0,0:0:0:0:
256,192,74427,1,8,0:0:0:0:
256,192,74727,1,4,0:0:0:0:
256,192,74877,1,4,0:0:0:0:
256,192,75027,1,4,0:0:0:0:
256,192,75327,1,12,0:0:0:0:
256,192,75627,1,4,0:0:0:0:
256,192,75927,1,8,0:0:0:0:
256,192,76077,1,8,0:0:0:0:
256,192,76227,1,0,0:0:0:0:
256,192,76302,1,0,0:0:0:0:
256,192,76377,1,0,0:0:0:0:
256,192,76527,1,8,0:0:0:0:
256,192,76677,1,0,0:0:0:0:
256,192,76827,1,8,0:0:0:0:
256,192,76902,1,8,0:0:0:0:
256,192,76977,1,0,0:0:0:0:
256,192,77127,1,8,0:0:0:0:
256,192,77277,1,8,0:0:0:0:
256,192,77427,1,0,0:0:0:0:
256,192,77502,1,0,0:0:0:0:
256,192,77577,1,0,0:0:0:0:
256,192,77727,1,8,0:0:0:0:
256,192,78027,1,0,0:0:0:0:
256,192,78177,1,0,0:0:0:0:
256,192,78327,1,8,0:0:0:0:
256,192,78477,1,0,0:0:0:0:
256,192,78552,1,0,0:0:0:0:
256,192,78627,1,0,0:0:0:0:
256,192,78777,1,0,0:0:0:0:
256,192,78927,1,8,0:0:0:0:
256,192,79077,1,0,0:0:0:0:
256,192,79227,1,8,0:0:0:0:
256,192,79302,1,8,0:0:0:0:
256,192,79377,1,0,0:0:0:0:
256,192,79527,1,8,0:0:0:0:
256,192,79677,1,8,0:0:0:0:
256,192,79827,1,0,0:0:0:0:
256,192,79902,1,0,0:0:0:0:
256,192,79977,1,8,0:0:0:0:
256,192,80127,1,8,0:0:0:0:
256,192,80277,1,0,0:0:0:0:
256,192,80427,1,8,0:0:0:0:
256,192,80727,1,8,0:0:0:0:
256,192,80877,1,8,0:0:0:0:
256,192,81027,1,0,0:0:0:0:
256,192,81102,1,0,0:0:0:0:
256,192,81177,1,0,0:0:0:0:
256,192,81327,1,8,0:0:0:0:
256,192,81477,1,0,0:0:0:0:
256,192,81627,1,8,0:0:0:0:
256,192,81702,1,8,0:0:0:0:
256,192,81777,1,0,0:0:0:0:
256,192,81927,1,8,0:0:0:0:
256,192,82077,1,0,0:0:0:0:
256,192,82152,1,0,0:0:0:0:
256,192,82227,1,8,0:0:0:0:
256,192,82377,1,0,0:0:0:0:
256,192,82527,1,8,0:0:0:0:
256,192,82677,1,0,0:0:0:0:
256,192,82977,1,0,0:0:0:0:
256,192,83127,1,8,0:0:0:0:
256,192,83277,1,0,0:0:0:0:
256,192,83427,1,8,0:0:0:0:
256,192,83502,1,8,0:0:0:0:
256,192,83577,1,0,0:0:0:0:
256,192,83727,1,8,0:0:0:0:
256,192,83877,1,0,0:0:0:0:
256,192,84027,1,8,0:0:0:0:
256,192,84177,1,0,0:0:0:0:
256,192,84252,1,0,0:0:0:0:
256,192,84327,1,8,0:0:0:0:
256,192,84477,1,0,0:0:0:0:
256,192,84627,1,8,0:0:0:0:
256,192,84702,1,8,0:0:0:0:
256,192,84777,1,0,0:0:0:0:
256,192,84852,1,0,0:0:0:0:
256,192,84927,1,8,0:0:0:0:
256,192,85227,1,4,0:0:0:0:
256,192,85527,1,8,0:0:0:0:
256,192,85677,1,0,0:0:0:0:
256,192,85827,1,8,0:0:0:0:
256,192,86127,1,0,0:0:0:0:
256,192,86277,1,8,0:0:0:0:
256,192,86427,1,0,0:0:0:0:
256,192,86727,1,8,0:0:0:0:
256,192,86877,1,8,0:0:0:0:
256,192,87027,1,0,0:0:0:0:
256,192,87327,1,8,0:0:0:0:
256,192,87477,1,0,0:0:0:0:
256,192,87627,1,8,0:0:0:0:
256,192,87927,1,8,0:0:0:0:
256,192,88227,1,0,0:0:0:0:
256,192,88377,1,8,0:0:0:0:
256,192,88527,1,0,0:0:0:0:
256,192,88827,1,8,0:0:0:0:
256,192,89127,1,0,0:0:0:0:
256,192,89277,1,0,0:0:0:0:
256,192,89427,1,8,0:0:0:0:
256,192,89727,1,8,0:0:0:0:
256,192,90027,1,0,0:0:0:0:
256,192,90327,1,0,0:0:0:0:
256,192,90477,1,8,0:0:0:0:
256,192,90627,1,0,0:0:0:0:
256,192,90777,1,0,0:0:0:0:
256,192,90927,1,8,0:0:0:0:
256,192,91227,1,0,0:0:0:0:
256,192,91527,1,8,0:0:0:0:
256,192,91677,1,8,0:0:0:0:
256,192,91827,1,0,0:0:0:0:
256,192,91977,1,0,0:0:0:0:
256,192,92127,1,8,0:0:0:0:
256,192,92427,1,8,0:0:0:0:
256,192,92727,1,0,0:0:0:0:
256,192,92877,1,8,0:0:0:0:
256,192,93027,1,0,0:0:0:0:
256,192,93177,1,0,0:0:0:0:
256,192,93327,1,8,0:0:0:0:
256,192,93627,1,0,0:0:0:0:
256,192,93927,1,8,0:0:0:0:
256,192,94077,1,0,0:0:0:0:
256,192,94152,1,0,0:0:0:0:
256,192,94227,1,8,0:0:0:0:
256,192,94377,1,8,0:0:0:0:
256,192,94527,1,0,0:0:0:0:
256,192,94677,1,8,0:0:0:0:
256,192,94977,1,0,0:0:0:0:
256,192,95127,1,12,0:0:0:0:
256,192,95352,1,0,0:0:0:0:
256,192,95427,1,0,0:0:0:0:
256,192,95577,1,0,0:0:0:0:
256,192,95727,1,8,0:0:0:0:
256,192,96027,1,0,0:0:0:0:
256,192,96327,1,8,0:0:0:0:
256,192,96477,1,0,0:0:0:0:
256,192,96552,1,0,0:0:0:0:
256,192,96627,1,0,0:0:0:0:
256,192,96777,1,8,0:0:0:0:
256,192,96927,1,8,0:0:0:0:
256,192,97077,1,8,0:0:0:0:
256,192,97227,1,0,0:0:0:0:
256,192,97527,1,8,0:0:0:0:
256,192,97677,1,0,0:0:0:0:
256,192,97752,1,0,0:0:0:0:
256,192,97827,1,8,0:0:0:0:
256,192,97977,1,0,0:0:0:0:
256,192,98127,1,8,0:0:0:0:
256,192,98427,1,0,0:0:0:0:
256,192,98727,1,8,0:0:0:0:
256,192,98877,1,8,0:0:0:0:
256,192,99027,1,4,0:0:0:0:
256,192,99327,1,12,0:0:0:0:
256,192,99477,1,0,0:0:0:0:
256,192,99627,1,12,0:0:0:0:
256,192,99927,1,8,0:0:0:0:
256,192,100077,1,8,0:0:0:0:
256,192,100152,1,8,0:0:0:0:
256,192,100227,1,0,0:0:0:0:
256,192,100377,1,0,0:0:0:0:
256,192,100527,1,8,0:0:0:0:
256,192,100827,1,0,0:0:0:0:
256,192,101127,1,8,0:0:0:0:
256,192,101277,1,0,0:0:0:0:
256,192,101352,1,0,0:0:0:0:
256,192,101427,1,8,0:0:0:0:
256,192,101577,1,0,0:0:0:0:
256,192,101727,1,8,0:0:0:0:
256,192,102027,1,0,0:0:0:0:
256,192,102327,1,8,0:0:0:0:
256,192,102477,1,0,0:0:0:0:
256,192,102552,1,0,0:0:0:0:
256,192,102627,1,0,0:0:0:0:
256,192,102777,1,8,0:0:0:0:
256,192,102927,1,8,0:0:0:0:
256,192,103077,1,0,0:0:0:0:
256,192,103227,1,12,0:0:0:0:
256,192,104427,1,4,0:0:0:0:
256,192,104877,1,0,0:0:0:0:
256,192,105027,1,8,0:0:0:0:
256,192,105327,1,8,0:0:0:0:
256,192,105627,1,0,0:0:0:0:
256,192,105927,1,0,0:0:0:0:
256,192,106227,1,8,0:0:0:0:
256,192,106527,1,0,0:0:0:0:
256,192,107127,1,0,0:0:0:0:
256,192,107277,1,0,0:0:0:0:
256,192,107427,1,8,0:0:0:0:
256,192,107727,1,8,0:0:0:0:
256,192,107877,1,8,0:0:0:0:
256,192,108027,1,0,0:0:0:0:
256,192,108327,1,0,0:0:0:0:
256,192,108627,1,8,0:0:0:0:
256,192,108927,1,8,0:0:0:0:
256,192,109227,1,4,0:0:0:0:
256,192,109527,1,0,0:0:0:0:
256,192,109827,1,8,0:0:0:0:
256,192,110127,1,8,0:0:0:0:
256,192,110427,1,0,0:0:0:0:
256,192,110727,1,8,0:0:0:0:
256,192,111027,1,0,0:0:0:0:
256,192,111227,1,8,0:0:0:0:
256,192,111327,1,0,0:0:0:0:
256,192,111527,1,8,0:0:0:0:
256,192,111627,1,0,0:0:0:0:
256,192,111927,1,8,0:0:0:0:
256,192,112027,1,0,0:0:0:0:
256,192,112127,1,0,0:0:0:0:
256,192,112227,1,8,0:0:0:0:
256,192,112527,1,0,0:0:0:0:
256,192,112827,1,8,0:0:0:0:
256,192,113127,1,0,0:0:0:0:
256,192,113277,1,0,0:0:0:0:
256,192,113427,1,8,0:0:0:0:
256,192,113502,1,8,0:0:0:0:
256,192,113577,1,8,0:0:0:0:
256,192,113727,1,8,0:0:0:0:
256,192,114027,1,0,0:0:0:0:
256,192,114327,1,8,0:0:0:0:
256,192,114627,1,8,0:0:0:0:
256,192,114927,1,8,0:0:0:0:
256,192,115227,1,0,0:0:0:0:
256,192,115527,1,8,0:0:0:0:
256,192,115827,1,8,0:0:0:0:
256,192,116127,1,8,0:0:0:0:
256,192,116427,1,0,0:0:0:0:
256,192,117627,1,12,0:0:0:0:
256,192,117777,1,12,0:0:0:0:
256,192,117927,1,4,0:0:0:0:
256,192,118077,1,4,0:0:0:0:
256,192,118827,1,0,0:0:0:0:
256,192,118902,1,0,0:0:0:0:
256,192,118977,1,0,0:0:0:0:
256,192,119052,1,0,0:0:0:0:
256,192,119127,1,8,0:0:0:0:
256,192,119277,1,0,0:0:0:0:
256,192,119427,1,8,0:0:0:0:
256,192,119502,1,8,0:0:0:0:
256,192,119577,1,0,0:0:0:0:
256,192,119652,1,0,0:0:0:0:
256,192,119727,1,8,0:0:0:0:
256,192,119877,1,0,0:0:0:0:
256,192,120027,1,8,0:0:0:0:
256,192,120102,1,8,0:0:0:0:
256,192,120177,1,8,0:0:0:0:
256,192,120252,1,8,0:0:0:0:
256,192,120327,1,0,0:0:0:0:
256,192,120477,1,8,0:0:0:0:
256,192,120627,1,0,0:0:0:0:
256,192,120927,1,8,0:0:0:0:
256,192,121002,1,0,0:0:0:0:
256,192,121077,1,8,0:0:0:0:
256,192,121152,1,8,0:0:0:0:
256,192,121227,1,0,0:0:0:0:
256,192,121377,1,8,0:0:0:0:
256,192,121527,1,0,0:0:0:0:
256,192,121602,1,0,0:0:0:0:
256,192,121677,1,8,0:0:0:0:
256,192,121752,1,8,0:0:0:0:
256,192,121827,1,0,0:0:0:0:
256,192,121977,1,0,0:0:0:0:
256,192,122127,1,8,0:0:0:0:
256,192,122202,1,8,0:0:0:0:
256,192,122277,1,0,0:0:0:0:
256,192,122352,1,0,0:0:0:0:
256,192,122427,1,8,0:0:0:0:
256,192,122577,1,0,0:0:0:0:
256,192,122652,1,0,0:0:0:0:
256,192,122727,1,8,0:0:0:0:
256,192,123027,1,12,0:0:0:0:
256,192,123177,1,0,0:0:0:0:
256,192,123252,1,0,0:0:0:0:
256,192,123327,1,8,0:0:0:0:
256,192,123477,1,8,0:0:0:0:
256,192,123627,1,0,0:0:0:0:
256,192,123702,1,0,0:0:0:0:
256,192,123777,1,0,0:0:0:0:
256,192,123852,1,0,0:0:0:0:
256,192,123927,1,8,0:0:0:0:
256,192,124077,1,0,0:0:0:0:
256,192,124227,1,8,0:0:0:0:
256,192,124302,1,8,0:0:0:0:
256,192,124377,1,0,0:0:0:0:
256,192,124452,1,0,0:0:0:0:
256,192,124527,1,8,0:0:0:0:
256,192,124677,1,0,0:0:0:0:
256,192,124752,1,0,0:0:0:0:
256,192,124827,1,8,0:0:0:0:
256,192,125127,1,12,0:0:0:0:
256,192,125277,1,0,0:0:0:0:
256,192,125352,1,0,0:0:0:0:
256,192,125427,1,8,0:0:0:0:
256,192,125577,1,0,0:0:0:0:
256,192,125727,1,8,0:0:0:0:
256,192,125802,1,0,0:0:0:0:
256,192,125877,1,8,0:0:0:0:
256,192,125952,1,8,0:0:0:0:
256,192,126027,1,0,0:0:0:0:
256,192,126177,1,0,0:0:0:0:
256,192,126327,1,8,0:0:0:0:
256,192,126402,1,8,0:0:0:0:
256,192,126477,1,0,0:0:0:0:
256,192,126552,1,0,0:0:0:0:
256,192,126627,1,8,0:0:0:0:
256,192,126777,1,0,0:0:0:0:
256,192,126852,1,0,0:0:0:0:
256,192,126927,1,8,0:0:0:0:
256,192,127227,1,4,0:0:0:0:
256,192,127527,1,4,0:0:0:0:
256,192,127827,1,12,0:0:0:0:
256,192,128127,1,8,0:0:0:0:
256,192,128277,1,4,0:0:0:0:
256,192,128577,1,0,0:0:0:0:
256,192,128727,1,12,0:0:0:0:
256,192,129027,1,12,0:0:0:0:
256,192,129627,1,0,0:0:0:0:
256,192,129777,1,12,0:0:0:0:
256,192,129927,1,0,0:0:0:0:
256,192,130002,1,0,0:0:0:0:
256,192,130077,1,8,0:0:0:0:
256,192,130227,1,0,0:0:0:0:
256,192,130377,1,8,0:0:0:0:
256,192,130452,1,8,0:0:0:0:
256,192,130527,1,0,0:0:0:0:
256,192,130677,1,8,0:0:0:0:
256,192,130827,1,0,0:0:0:0:
256,192,130977,1,8,0:0:0:0:
256,192,131127,1,0,0:0:0:0:
256,192,131277,1,8,0:0:0:0:
256,192,131427,1,4,0:0:0:0:
256,192,131727,1,0,0:0:0:0:
256,192,132027,1,12,0:0:0:0:
256,192,132327,1,8,0:0:0:0:
256,192,132477,1,0,0:0:0:0:
256,192,132552,1,0,0:0:0:0:
256,192,132627,1,8,0:0:0:0:
256,192,132777,1,0,0:0:0:0:
256,192,132927,1,8,0:0:0:0:
256,192,133002,1,0,0:0:0:0:
256,192,133077,1,8,0:0:0:0:
256,192,133152,1,8,0:0:0:0:
256,192,133227,1,0,0:0:0:0:
256,192,133377,1,0,0:0:0:0:
256,192,133527,1,8,0:0:0:0:
256,192,133602,1,8,0:0:0:0:
256,192,133677,1,0,0:0:0:0:
256,192,133752,1,0,0:0:0:0:
256,192,133827,1,8,0:0:0:0:
256,192,133977,1,0,0:0:0:0:
256,192,134052,1,0,0:0:0:0:
256,192,134127,1,8,0:0:0:0:
256,192,134277,1,0,0:0:0:0:
256,192,134427,1,8,0:0:0:0:
256,192,134727,1,8,0:0:0:0:
256,192,134877,1,8,0:0:0:0:
256,192,134952,1,8,0:0:0:0:
256,192,135027,1,0,0:0:0:0:
256,192,135177,1,8,0:0:0:0:
256,192,135327,1,0,0:0:0:0:
256,192,135402,1,8,0:0:0:0:
256,192,135477,1,0,0:0:0:0:
256,192,135552,1,0,0:0:0:0:
256,192,135627,1,8,0:0:0:0:
256,192,135777,1,0,0:0:0:0:
256,192,135927,1,8,0:0:0:0:
256,192,136002,1,8,0:0:0:0:
256,192,136077,1,8,0:0:0:0:
256,192,136152,1,8,0:0:0:0:
256,192,136227,1,0,0:0:0:0:
256,192,136377,1,8,0:0:0:0:
256,192,136527,1,8,0:0:0:0:
256,192,136827,1,0,0:0:0:0:
256,192,136902,1,0,0:0:0:0:
256,192,136977,1,0,0:0:0:0:
256,192,137127,1,8,0:0:0:0:
256,192,137277,1,8,0:0:0:0:
256,192,137427,1,0,0:0:0:0:
256,192,137502,1,0,0:0:0:0:
256,192,137577,1,0,0:0:0:0:
256,192,137727,1,8,0:0:0:0:
256,192,138027,1,8,0:0:0:0:
256,192,138102,1,8,0:0:0:0:
256,192,138177,1,0,0:0:0:0:
256,192,138327,1,8,0:0:0:0:
256,192,138477,1,8,0:0:0:0:
256,192,138627,1,0,0:0:0:0:
256,192,138702,1,0,0:0:0:0:
256,192,138777,1,0,0:0:0:0:
256,192,138927,1,8,0:0:0:0:
256,192,139227,1,0,0:0:0:0:
256,192,139302,1,8,0:0:0:0:
256,192,139377,1,0,0:0:0:0:
256,192,139452,1,0,0:0:0:0:
256,192,139527,1,8,0:0:0:0:
256,192,139677,1,0,0:0:0:0:
256,192,139827,1,8,0:0:0:0:
256,192,139902,1,8,0:0:0:0:
256,192,139977,1,0,0:0:0:0:
256,192,140127,1,8,0:0:0:0:
256,192,140277,1,8,0:0:0:0:
256,192,140427,1,0,0:0:0:0:
256,192,140502,1,0,0:0:0:0:
256,192,140577,1,0,0:0:0:0:
256,192,140652,1,0,0:0:0:0:
256,192,140727,1,8,0:0:0:0:
256,192,140877,1,8,0:0:0:0:
256,192,141027,1,4,0:0:0:0:
256,192,141327,1,4,0:0:0:0:
256,192,141627,1,12,0:0:0:0:
256,192,141927,1,8,0:0:0:0:
256,192,142077,1,0,0:0:0:0:
256,192,142152,1,0,0:0:0:0:
256,192,142227,1,8,0:0:0:0:
256,192,142302,1,8,0:0:0:0:
256,192,142377,1,0,0:0:0:0:
256,192,142527,1,8,0:0:0:0:
256,192,142677,1,0,0:0:0:0:
256,192,142827,1,8,0:0:0:0:
256,192,142902,1,8,0:0:0:0:
256,192,142977,1,0,0:0:0:0:
256,192,143127,1,8,0:0:0:0:
256,192,143202,1,8,0:0:0:0:
256,192,143277,1,0,0:0:0:0:
256,192,143352,1,0,0:0:0:0:
256,192,143427,1,8,0:0:0:0:
256,192,143577,1,0,0:0:0:0:
256,192,143652,1,0,0:0:0:0:
256,192,143727,1,8,0:0:0:0:
256,192,143877,1,0,0:0:0:0:
256,192,144027,1,0,0:0:0:0:
256,192,144327,1,8,0:0:0:0:
256,192,144477,1,0,0:0:0:0:
256,192,144552,1,0,0:0:0:0:
256,192,144627,1,8,0:0:0:0:
256,192,144702,1,8,0:0:0:0:
256,192,144777,1,0,0:0:0:0:
256,192,144927,1,8,0:0:0:0:
256,192,145077,1,0,0:0:0:0:
256,192,145152,1,0,0:0:0:0:
256,192,145227,1,8,0:0:0:0:
256,192,145377,1,0,0:0:0:0:
256,192,145527,1,8,0:0:0:0:
256,192,145602,1,8,0:0:0:0:
256,192,145677,1,8,0:0:0:0:
256,192,145752,1,8,0:0:0:0:
256,192,145827,1,0,0:0:0:0:
256,192,145977,1,8,0:0:0:0:
256,192,146052,1,0,0:0:0:0:
256,192,146127,1,8,0:0:0:0:
256,192,146277,1,0,0:0:0:0:
256,192,146427,1,12,0:0:0:0:
256,192,146577,1,0,0:0:0:0:
256,192,146652,1,0,0:0:0:0:
256,192,146727,1,8,0:0:0:0:
256,192,146877,1,0,0:0:0:0:
256,192,147027,1,8,0:0:0:0:
256,192,147102,1,8,0:0:0:0:
256,192,147177,1,0,0:0:0:0:
256,192,147252,1,0,0:0:0:0:
256,192,147327,1,8,0:0:0:0:
256,192,147477,1,0,0:0:0:0:
256,192,147627,1,8,0:0:0:0:
256,192,147927,1,4,0:0:0:0:
256,192,148077,1,4,0:0:0:0:
256,192,148227,1,4,0:0:0:0:
256,192,148527,1,8,0:0:0:0:
256,192,148827,1,4,0:0:0:0:
256,192,149127,1,8,0:0:0:0:
256,192,149277,1,4,0:0:0:0:
256,192,149577,1,8,0:0:0:0:
256,192,149727,1,4,0:0:0:0:
256,192,150027,1,8,0:0:0:0:
256,192,150177,1,4,0:0:0:0:
256,192,150477,1,8,0:0:0:0:
256,192,150627,2,0,L|288:192,6,28
256,192,151227,1,12,0:0:0:0:
256,192,151527,1,0,0:0:0:0:
256,192,151677,1,12,0:0:0:0:
256,192,151977,1,0,0:0:0:0:
256,192,152127,1,12,0:0:0:0:
256,192,152427,1,0,0:0:0:0:
256,192,152577,1,12,0:0:0:0:
256,192,152877,1,0,0:0:0:0:
256,192,153027,1,8,0:0:0:0:
256,192,153177,1,8,0:0:0:0:
256,192,153327,1,0,0:0:0:0:
256,192,153402,1,0,0:0:0:0:
256,192,153477,1,0,0:0:0:0:
256,192,153627,1,12,0:0:0:0:
256,192,153852,1,0,0:0:0:0:
256,192,153927,1,8,0:0:0:0:
256,192,154077,1,8,0:0:0:0:
256,192,154227,1,0,0:0:0:0:
256,192,154377,1,8,0:0:0:0:
256,192,154452,1,8,0:0:0:0:
256,192,154527,1,0,0:0:0:0:
256,192,154677,1,8,0:0:0:0:
256,192,154827,1,0,0:0:0:0:
256,192,155052,1,0,0:0:0:0:
256,192,155127,1,8,0:0:0:0:
256,192,155277,1,0,0:0:0:0:
256,192,155427,1,8,0:0:0:0:
256,192,155577,1,8,0:0:0:0:
256,192,155727,1,0,0:0:0:0:
256,192,155877,1,0,0:0:0:0:
256,192,156027,1,8,0:0:0:0:
256,192,156177,1,0,0:0:0:0:
256,192,156252,1,0,0:0:0:0:
256,192,156327,1,0,0:0:0:0:
256,192,156477,1,8,0:0:0:0:
256,192,156552,1,8,0:0:0:0:
256,192,156627,1,0,0:0:0:0:
256,192,156777,1,0,0:0:0:0:
256,192,156927,1,8,0:0:0:0:
256,192,157002,1,8,0:0:0:0:
256,192,157077,1,8,0:0:0:0:
256,192,157152,1,8,0:0:0:0:
256,192,157227,1,0,0:0:0:0:
256,192,157377,1,8,0:0:0:0:
256,192,157452,1,8,0:0:0:0:
256,192,157527,1,8,0:0:0:0:
256,192,157677,1,0,0:0:0:0:
256,192,157752,1,8,0:0:0:0:
256,192,158127,1,0,0:0:0:0:
256,192,158427,1,8,0:0:0:0:
256,192,158502,1,8,0:0:0:0:
256,192,158577,1,0,0:0:0:0:
256,192,158727,1,0,0:0:0:0:
256,192,158877,1,8,0:0:0:0:
256,192,158952,1,8,0:0:0:0:
256,192,159027,1,8,0:0:0:0:
256,192,159102,1,8,0:0:0:0:
256,192,159177,1,0,0:0:0:0:
256,192,159327,1,8,0:0:0:0:
256,192,159402,1,8,0:0:0:0:
256,192,159477,1,0,0:0:0:0:
256,192,159627,1,0,0:0:0:0:
256,192,159777,1,8,0:0:0:0:
256,192,159852,1,8,0:0:0:0:
256,192,159927,1,0,0:0:0:0:
256,192,160002,1,0,0:0:0:0:
256,192,160077,1,8,0:0:0:0:
256,192,160227,1,0,0:0:0:0:
256,192,160377,1,8,0:0:0:0:
256,192,160527,1,0,0:0:0:0:
256,192,160602,1,0,0:0:0:0:
256,192,160677,1,8,0:0:0:0:
256,192,160752,1,8,0:0:0:0:
256,192,160827,1,0,0:0:0:0:
256,192,160977,1,8,0:0:0:0:
256,192,161052,1,8,0:0:0:0:
256,192,161127,1,8,0:0:0:0:
256,192,161277,1,8,0:0:0:0:
256,192,161427,1,0,0:0:0:0:
256,192,161577,1,0,0:0:0:0:
256,192,161727,1,8,0:0:0:0:
256,192,161802,1,0,0:0:0:0:
256,192,161877,1,8,0:0:0:0:
256,192,161952,1,8,0:0:0:0:
256,192,162027,1,0,0:0:0:0:
256,192,162177,1,8,0:0:0:0:
256,192,162252,1,8,0:0:0:0:
256,192,162327,1,8,0:0:0:0:
256,192,162477,1,0,0:0:0:0:
256,192,162627,1,8,0:0:0:0:
256,192,162702,1,8,0:0:0:0:
256,192,162777,1,0,0:0:0:0:
256,192,162852,1,0,0:0:0:0:
256,192,162927,1,8,0:0:0:0:
256,192,163077,1,0,0:0:0:0:
256,192,163227,1,12,0:0:0:0:
256,192,163527,1,0,0:0:0:0:
256,192,163677,1,8,0:0:0:0:
256,192,163752,1,8,0:0:0:0:
256,192,163827,1,0,0:0:0:0:
256,192,163977,1,8,0:0:0:0:
256,192,164052,1,8,0:0:0:0:
256,192,164127,1,8,0:0:0:0:
256,192,164277,1,0,0:0:0:0:
256,192,164427,1,0,0:0:0:0:
256,192,164502,1,0,0:0:0:0:
256,192,164577,1,8,0:0:0:0:
256,192,164727,1,0,0:0:0:0:
256,192,164877,1,8,0:0:0:0:
256,192,164952,1,8,0:0:0:0:
256,192,165027,1,0,0:0:0:0:
256,192,165177,1,8,0:0:0:0:
256,192,165252,1,8,0:0:0:0:
256,192,165327,1,8,0:0:0:0:
256,192,165477,1,0,0:0:0:0:
256,192,165627,1,8,0:0:0:0:
256,192,165777,1,0,0:0:0:0:
256,192,165852,1,0,0:0:0:0:
256,192,165927,1,8,0:0:0:0:
256,192,166077,1,0,0:0:0:0:
256,192,166227,1,8,0:0:0:0:
256,192,166302,1,8,0:0:0:0:
256,192,166377,1,0,0:0:0:0:
256,192,166452,1,0,0:0:0:0:
256,192,166527,1,8,0:0:0:0:
256,192,166677,1,0,0:0:0:0:
256,192,166827,1,8,0:0:0:0:
256,192,166902,1,0,0:0:0:0:
256,192,166977,1,8,0:0:0:0:
256,192,167052,1,8,0:0:0:0:
256,192,167127,1,0,0:0:0:0:
256,192,167277,1,0,0:0:0:0:
256,192,167427,1,8,0:0:0:0:
256,192,167502,1,8,0:0:0:0:
256,192,167577,1,0,0:0:0:0:
256,192,167652,1,0,0:0:0:0:
256,192,167727,1,8,0:0:0:0:
256,192,167877,1,8,0:0:0:0:
256,192,168027,1,4,0:0:0:0:
256,192,168327,1,4,0:0:0:0:
256,192,168627,1,12,0:0:0:0:
256,192,168927,1,12,0:0:0:0:
256,192,169227,1,4,0:0:0:0:
256,192,169527,1,12,0:0:0:0:
256,192,169827,1,4,0:0:0:0:
256,192,170127,1,4,0:0:0:0:
256,192,170427,1,12,0:0:0:0:
256,192,170727,1,12,0:0:0:0:
256,192,171027,1,4,0:0:0:0:
256,192,171327,1,4,0:0:0:0:
256,192,171627,1,12,0:0:0:0:
256,192,171927,1,12,0:0:0:0:
256,192,172227,1,4,0:0:0:0:
256,192,172527,1,12,0:0:0:0:
256,192,172827,1,4,0:0:0:0:
256,192,173127,1,4,0:0:0:0:
256,192,173427,1,12,0:0:0:0:
256,192,173727,1,12,0:0:0:0:
256,192,174027,1,4,0:0:0:0:
256,192,174327,1,12,0:0:0:0:
256,192,174627,1,4,0:0:0:0:
256,192,174927,1,4,0:0:0:0:
256,192,175227,1,12,0:0:0:0:
256,192,175527,1,12,0:0:0:0:
256,192,175827,1,4,0:0:0:0:
256,192,176127,1,4,0:0:0:0:
256,192,176427,1,12,0:0:0:0:
256,192,176727,1,12,0:0:0:0:
256,192,177027,1,4,0:0:0:0:
256,192,177327,1,12,0:0:0:0:
256,192,177627,1,0,0:0:0:0:
256,192,177927,1,8,0:0:0:0:
256,192,178227,1,0,0:0:0:0:
256,192,178527,1,8,0:0:0:0:
256,192,178827,1,0,0:0:0:0:
256,192,179127,1,8,0:0:0:0:
256,192,179427,1,0,0:0:0:0:
256,192,179727,1,8,0:0:0:0:
256,192,180027,1,0,0:0:0:0:
256,192,180327,1,8,0:0:0:0:
256,192,180627,1,0,0:0:0:0:
256,192,180927,1,8,0:0:0:0:
256,192,181227,1,0,0:0:0:0:
256,192,181527,1,8,0:0:0:0:
256,192,181827,1,0,0:0:0:0:
256,192,182127,1,8,0:0:0:0:
256,192,182427,1,4,0:0:0:0:
256,192,182727,1,4,0:0:0:0:
256,192,183027,1,12,0:0:0:0:
256,192,183327,1,12,0:0:0:0:
256,192,183477,8,0,185427,0:0:0:0:
256,192,186027,5,8,0:0:0:0:
256,192,186327,1,8,0:0:0:0:
256,192,186627,1,4,0:0:0:0:
256,192,186927,1,4,0:0:0:0:
256,192,187227,1,12,0:0:0:0:
256,192,187377,1,0,0:0:0:0:
256,192,187452,1,0,0:0:0:0:
256,192,187527,1,8,0:0:0:0:
256,192,187677,1,4,0:0:0:0:
256,192,187977,1,8,0:0:0:0:
256,192,188052,1,8,0:0:0:0:
256,192,188127,1,8,0:0:0:0:
256,192,188202,1,8,0:0:0:0:
256,192,188277,1,0,0:0:0:0:
256,192,188427,1,8,0:0:0:0:
256,192,188877,1,0,0:0:0:0:
256,192,189027,1,12,0:0:0:0:
256,192,189177,1,0,0:0:0:0:
256,192,189327,1,8,0:0:0:0:
256,192,189477,1,0,0:0:0:0:
256,192,189627,1,8,0:0:0:0:
256,192,189702,1,8,0:0:0:0:
256,192,189777,1,0,0:0:0:0:
256,192,189852,1,0,0:0:0:0:
256,192,189927,1,8,0:0:0:0:
256,192,190077,1,8,0:0:0:0:
256,192,190227,1,4,0:0:0:0:
256,192,190527,1,4,0:0:0:0:
256,192,190827,1,12,0:0:0:0:
256,192,191127,1,0,0:0:0:0:
256,192,191277,1,8,0:0:0:0:
256,192,191427,1,0,0:0:0:0:
256,192,191727,1,0,0:0:0:0:
256,192,191877,1,8,0:0:0:0:
256,192,192177,1,0,0:0:0:0:
256,192,192327,1,8,0:0:0:0:
256,192,192477,1,8,0:0:0:0:
256,192,192627,1,0,0:0:0:0:
256,192,192777,1,8,0:0:0:0:
256,192,192927,1,0,0:0:0:0:
256,192,193077,1,8,0:0:0:0:
256,192,193227,1,4,0:0:0:0:
256,192,194427,1,4,0:0:0:0:
256,192,194727,1,4,0:0:0:0:
256,192,195027,1,12,0:0:0:0:
256,192,195327,1,12,0:0:0:0:
256,192,195627,1,4,0:0:0:0:
256,192,195777,1,0,0:0:0:0:
256,192,195927,1,8,0:0:0:0:
256,192,196077,1,0,0:0:0:0:
256,192,196227,1,8,0:0:0:0:
256,192,196377,1,0,0:0:0:0:
256,192,196452,1,0,0:0:0:0:
256,192,196527,1,8,0:0:0:0:
256,192,196677,1,0,0:0:0:0:
256,192,196827,1,8,0:0:0:0:
256,192,196902,1,0,0:0:0:0:
256,192,196977,1,8,0:0:0:0:
256,192,197052,1,0,0:0:0:0:
256,192,197127,1,8,0:0:0:0:
256,192,197277,1,8,0:0:0:0:
256,192,197427,1,4,0:0:0:0:
256,192,198027,8,0,198627,0:0:0:0:
256,192,199227,5,12,0:0:0:0:
256,192,199527,1,8,0:0:0:0:
256,192,199677,1,0,0:0:0:0:
256,192,199752,1,0,0:0:0:0:
256,192,199827,1,0,0:0:0:0:
256,192,199977,1,0,0:0:0:0:
256,192,200127,1,8,0:0:0:0:
256,192,200202,1,8,0:0:0:0:
256,192,200277,1,0,0:0:0:0:
256,192,200352,1,0,0:0:0:0:
256,192,200427,1,8,0:0:0:0:
256,192,200577,1,0,0:0:0:0:
256,192,200727,1,8,0:0:0:0:
256,192,200802,1,0,0:0:0:0:
256,192,200877,1,8,0:0:0:0:
256,192,200952,1,8,0:0:0:0:
256,192,201027,1,0,0:0:0:0:
256,192,201177,1,0,0:0:0:0:
256,192,201252,1,0,0:0:0:0:
256,192,201327,1,8,0:0:0:0:
256,192,201477,1,8,0:0:0:0:
256,192,201627,1,0,0:0:0:0:
256,192,201927,1,8,0:0:0:0:
256,192,202077,1,0,0:0:0:0:
256,192,202152,1,0,0:0:0:0:
256,192,202227,1,0,0:0:0:0:
256,192,202377,1,0,0:0:0:0:
256,192,202527,1,8,0:0:0:0:
256,192,202602,1,8,0:0:0:0:
256,192,202677,1,0,0:0:0:0:
256,192,202752,1,0,0:0:0:0:
256,192,202827,1,8,0:0:0:0:
256,192,202977,1,0,0:0:0:0:
256,192,203127,1,8,0:0:0:0:
256,192,203202,1,8,0:0:0:0:
256,192,203277,1,8,0:0:0:0:
256,192,203352,1,8,0:0:0:0:
256,192,203427,1,0,0:0:0:0:
256,192,203577,1,8,0:0:0:0:
256,192,203727,1,8,0:0:0:0:
256,192,204027,1,8,0:0:0:0:
256,192,204102,1,8,0:0:0:0:
256,192,204177,1,0,0:0:0:0:
256,192,204327,1,8,0:0:0:0:
256,192,204477,1,8,0:0:0:0:
256,192,204627,1,0,0:0:0:0:
256,192,204702,1,0,0:0:0:0:
256,192,204777,1,0,0:0:0:0:
256,192,204927,1,8,0:0:0:0:
256,192,205227,1,0,0:0:0:0:
256,192,205302,1,0,0:0:0:0:
256,192,205377,1,0,0:0:0:0:
256,192,205527,1,8,0:0:0:0:
256,192,205677,1,8,0:0:0:0:
256,192,205827,1,8,0:0:0:0:
256,192,205902,1,8,0:0:0:0:
256,192,205977,1,0,0:0:0:0:
256,192,206127,1,8,0:0:0:0:
256,192,206427,1,0,0:0:0:0:
256,192,206502,1,8,0:0:0:0:
256,192,206577,1,0,0:0:0:0:
256,192,206652,1,0,0:0:0:0:
256,192,206727,1,8,0:0:0:0:
256,192,206877,1,0,0:0:0:0:
256,192,207027,1,8,0:0:0:0:
256,192,207102,1,8,0:0:0:0:
256,192,207177,1,0,0:0:0:0:
256,192,207327,1,8,0:0:0:0:
256,192,207477,1,8,0:0:0:0:
256,192,207627,1,0,0:0:0:0:
256,192,207702,1,0,0:0:0:0:
256,192,207777,1,0,0:0:0:0:
256,192,207852,1,0,0:0:0:0:
256,192,207927,1,8,0:0:0:0:
256,192,208077,1,8,0:0:0:0:
256,192,208227,1,4,0:0:0:0:
256,192,208527,1,4,0:0:0:0:
256,192,208827,1,12,0:0:0:0:
256,192,209127,1,8,0:0:0:0:
256,192,209277,1,0,0:0:0:0:
256,192,209352,1,0,0:0:0:0:
256,192,209427,1,8,0:0:0:0:
256,192,209502,1,8,0:0:0:0:
256,192,209577,1,0,0:0:0:0:
256,192,209727,1,8,0:0:0:0:
256,192,209877,1,0,0:0:0:0:
256,192,210027,1,8,0:0:0:0:
256,192,210102,1,8,0:0:0:0:
256,192,210177,1,0,0:0:0:0:
256,192,210327,1,8,0:0:0:0:
256,192,210402,1,8,0:0:0:0:
256,192,210477,1,0,0:0:0:0:
256,192,210552,1,0,0:0:0:0:
256,192,210627,1,8,0:0:0:0:
256,192,210777,1,0,0:0:0:0:
256,192,210852,1,0,0:0:0:0:
256,192,210927,1,8,0:0:0:0:
256,192,211077,1,0,0:0:0:0:
256,192,211227,1,0,0:0:0:0:
256,192,211527,1,8,0:0:0:0:
256,192,211677,1,0,0:0:0:0:
256,192,211752,1,0,0:0:0:0:
256,192,211827,1,8,0:0:0:0:
256,192,211902,1,8,0:0:0:0:
256,192,211977,1,0,0:0:0:0:
256,192,212127,1,8,0:0:0:0:
256,192,212277,1,0,0:0:0:0:
256,192,212352,1,0,0:0:0:0:
256,192,212427,1,8,0:0:0:0:
256,192,212577,1,0,0:0:0:0:
256,192,212727,1,8,0:0:0:0:
256,192,212802,1,8,0:0:0:0:
256,192,212877,1,8,0:0:0:0:
256,192,212952,1,8,0:0:0:0:
256,192,213027,1,0,0:0:0:0:
256,192,213177,1,0,0:0:0:0:
256,192,213252,1,0,0:0:0:0:
256,192,213327,1,8,0:0:0:0:
256,192,213477,1,0,0:0:0:0:
256,192,213627,1,12,0:0:0:0:
256,192,213927,1,8,0:0:0:0:
256,192,214077,1,0,0:0:0:0:
256,192,214227,1,8,0:0:0:0:
256,192,214302,1,8,0:0:0:0:
256,192,214377,1,0,0:0:0:0:
256,192,214452,1,0,0:0:0:0:
256,192,214527,1,8,0:0:0:0:
256,192,214677,1,0,0:0:0:0:
256,192,214827,1,8,0:0:0:0:
256,192,214977,1,0,0:0:0:0:
256,192,215127,1,8,0:0:0:0:
256,192,215202,1,0,0:0:0:0:
256,192,215277,1,8,0:0:0:0:
256,192,215352,1,8,0:0:0:0:
256,192,215427,1,0,0:0:0:0:
256,192,215577,1,0,0:0:0:0:
256,192,215727,1,8,0:0:0:0:
256,192,216027,1,4,0:0:0:0:
256,192,216327,1,4,0:0:0:0:
256,192,216627,1,12,0:0:0:0:
256,192,216927,1,12,0:0:0:0:
256,192,217227,1,4,0:0:0:0:
256,192,218127,1,8,0:0:0:0:
256,192,218277,1,0,0:0:0:0:
256,192,218427,1,12,0:0:0:0:
256,192,218727,1,8,0:0:0:0:
256,192,218877,1,0,0:0:0:0:
256,192,218952,1,0,0:0:0:0:
256,192,219027,1,0,0:0:0:0:
256,192,219177,1,0,0:0:0:0:
256,192,219327,1,8,0:0:0:0:
256,192,219477,1,0,0:0:0:0:
256,192,219627,1,8,0:0:0:0:
256,192,219702,1,8,0:0:0:0:
256,192,219777,1,0,0:0:0:0:
256,192,219852,1,0,0:0:0:0:
256,192,219927,1,8,0:0:0:0:
256,192,220077,1,0,0:0:0:0:
256,192,220227,1,8,0:0:0:0:
256,192,220527,1,8,0:0:0:0:
256,192,220677,1,8,0:0:0:0:
256,192,220827,1,0,0:0:0:0:
256,192,221127,1,8,0:0:0:0:
256,192,221277,1,0,0:0:0:0:
256,192,221352,1,0,0:0:0:0:
256,192,221427,1,8,0:0:0:0:
256,192,221577,1,0,0:0:0:0:
256,192,221727,1,8,0:0:0:0:
256,192,221877,1,8,0:0:0:0:
256,192,222027,1,0,0:0:0:0:
256,192,222102,1,0,0:0:0:0:
256,192,222177,1,0,0:0:0:0:
256,192,222252,1,0,0:0:0:0:
256,192,222327,1,8,0:0:0:0:
256,192,222477,1,0,0:0:0:0:
256,192,222627,1,0,0:0:0:0:
256,192,222777,1,8,0:0:0:0:
256,192,222927,1,8,0:0:0:0:
256,192,223227,1,0,0:0:0:0:
256,192,223527,1,8,0:0:0:0:
256,192,223677,1,0,0:0:0:0:
256,192,223827,1,8,0:0:0:0:
256,192,224127,1,8,0:0:0:0:
256,192,224277,1,0,0:0:0:0:
256,192,224427,1,8,0:0:0:0:
256,192,224502,1,8,0:0:0:0:
256,192,224577,1,0,0:0:0:0:
256,192,224652,1,0,0:0:0:0:
256,192,224727,1,8,0:0:0:0:
256,192,224877,1,0,0:0:0:0:
256,192,225027,1,8,0:0:0:0:
256,192,225327,1,8,0:0:0:0:
256,192,225477,1,0,0:0:0:0:
256,192,225627,1,0,0:0:0:0:
256,192,225927,1,8,0:0:0:0:
256,192,226077,1,0,0:0:0:0:
256,192,226152,1,0,0:0:0:0:
256,192,226227,1,8,0:0:0:0:
256,192,226377,1,0,0:0:0:0:
256,192,226527,1,8,0:0:0:0:
256,192,226602,1,8,0:0:0:0:
256,192,226677,1,8,0:0:0:0:
256,192,226752,1,8,0:0:0:0:
256,192,226827,1,0,0:0:0:0:
256,192,226977,1,0,0:0:0:0:
256,192,227127,1,8,0:0:0:0:
256,192,227277,1,8,0:0:0:0:
256,192,227427,1,0,0:0:0:0:
256,192,227502,1,0,0:0:0:0:
256,192,227577,1,0,0:0:0:0:
256,192,227652,1,0,0:0:0:0:
256,192,227727,1,8,0:0:0:0:
256,192,227877,1,8,0:0:0:0:
256,192,228027,1,4,0:0:0:0:
256,192,228327,1,8,0:0:0:0:
256,192,228477,1,0,0:0:0:0:
256,192,228552,1,0,0:0:0:0:
256,192,228627,1,0,0:0:0:0:
256,192,228777,1,0,0:0:0:0:
256,192,228927,1,8,0:0:0:0:
256,192,229077,1,0,0:0:0:0:
256,192,229227,1,8,0:0:0:0:
256,192,229302,1,8,0:0:0:0:
256,192,229377,1,0,0:0:0:0:
256,192,229452,1,0,0:0:0:0:
256,192,229527,1,8,0:0:0:0:
256,192,229677,1,8,0:0:0:0:
256,192,229827,1,0,0:0:0:0:
256,192,230127,1,8,0:0:0:0:
256,192,230277,1,0,0:0:0:0:
256,192,230352,1,0,0:0:0:0:
256,192,230427,1,0,0:0:0:0:
256,192,230577,1,0,0:0:0:0:
256,192,230727,1,8,0:0:0:0:
256,192,230877,1,0,0:0:0:0:
256,192,230952,1,0,0:0:0:0:
256,192,231027,1,8,0:0:0:0:
256,192,231177,1,0,0:0:0:0:
256,192,231327,1,8,0:0:0:0:
256,192,231477,1,8,0:0:0:0:
256,192,231627,1,0,0:0:0:0:
256,192,231702,1,8,0:0:0:0:
256,192,231777,1,0,0:0:0:0:
256,192,231852,1,0,0:0:0:0:
256,192,231927,1,8,0:0:0:0:
256,192,232077,1,0,0:0:0:0:
256,192,232227,1,8,0:0:0:0:
256,192,232527,1,0,0:0:0:0:
256,192,232677,1,8,0:0:0:0:
256,192,232827,1,4,0:0:0:0:
256,192,233127,1,8,0:0:0:0:
256,192,233277,1,0,0:0:0:0:
256,192,233352,1,0,0:0:0:0:
256,192,233427,1,8,0:0:0:0:
256,192,233577,1,0,0:0:0:0:
256,192,233727,1,8,0:0:0:0:
256,192,233877,1,0,0:0:0:0:
256,192,234027,1,8,0:0:0:0:
256,192,234102,1,8,0:0:0:0:
256,192,234177,1,0,0:0:0:0:
256,192,234252,1,0,0:0:0:0:
256,192,234327,1,8,0:0:0:0:
256,192,234477,1,0,0:0:0:0:
256,192,234627,1,8,0:0:0:0:
256,192,234777,1,0,0:0:0:0:
256,192,234852,1,0,0:0:0:0:
256,192,234927,1,8,0:0:0:0:
256,192,235077,1,8,0:0:0:0:
256,192,235227,1,4,0:0:0:0:
256,192,235527,1,8,0:0:0:0:
256,192,235677,1,0,0:0:0:0:
256,192,235752,1,0,0:0:0:0:
256,192,235827,1,8,0:0:0:0:
256,192,235977,1,0,0:0:0:0:
256,192,236127,1,8,0:0:0:0:
256,192,236277,1,0,0:0:0:0:
256,192,236427,1,8,0:0:0:0:
256,192,236502,1,8,0:0:0:0:
256,192,236577,1,0,0:0:0:0:
256,192,236652,1,0,0:0:0:0:
256,192,236727,1,8,0:0:0:0:
256,192,236877,1,8,0:0:0:0:
256,192,237027,1,0,0:0:0:0:
256,192,237102,1,0,0:0:0:0:
256,192,237177,1,0,0:0:0:0:
256,192,237252,1,0,0:0:0:0:
256,192,237327,1,8,0:0:0:0:
256,192,237477,1,8,0:0:0:0:
256,192,237627,1,4,0:0:0:0:
256,192,237927,1,0,0:0:0:0:
256,192,238077,1,0,0:0:0:0:
256,192,238227,1,8,0:0:0:0:
256,192,238377,1,8,0:0:0:0:
256,192,238527,1,0,0:0:0:0:
256,192,238827,1,8,0:0:0:0:
256,192,239127,1,0,0:0:0:0:
256,192,239277,1,8,0:0:0:0:
256,192,239427,1,0,0:0:0:0:
256,192,239577,1,0,0:0:0:0:
256,192,239727,1,8,0:0:0:0:
256,192,240027,1,0,0:0:0:0:
256,192,240327,1,8,0:0:0:0:
256,192,240477,1,0,0:0:0:0:
256,192,240627,1,8,0:0:0:0:
256,192,240777,1,8,0:0:0:0:
256,192,240927,1,0,0:0:0:0:
256,192,241227,1,8,0:0:0:0:
256,192,241527,1,0,0:0:0:0:
256,192,241677,1,8,0:0:0:0:
256,192,241827,1,0,0:0:0:0:
256,192,241977,1,8,0:0:0:0:
256,192,242127,1,0,0:0:0:0:
256,192,242427,1,8,0:0:0:0:
256,192,242727,1,0,0:0:0:0:
256,192,242877,1,8,0:0:0:0:
256,192,243027,1,0,0:0:0:0:
256,192,243177,1,8,0:0:0:0:
256,192,243327,1,0,0:0:0:0:
256,192,243627,1,8,0:0:0:0:
256,192,243927,1,0,0:0:0:0:
256,192,244077,1,0,0:0:0:0:
256,192,244227,1,8,0:0:0:0:
256,192,244377,1,8,0:0:0:0:
256,192,244527,1,0,0:0:0:0:
256,192,244827,1,8,0:0:0:0:
256,192,245127,1,0,0:0:0:0:
256,192,245277,1,8,0:0:0:0:
256,192,245427,1,0,0:0:0:0:
256,192,245577,1,0,0:0:0:0:
256,192,245727,1,12,0:0:0:0:
